osu file format v14

[General]
AudioFilename: audio.mp3
AudioLeadIn: 0
PreviewTime: 203841
Countdown: 0
SampleSet: Soft
StackLeniency: 0.5
Mode: 0
LetterboxInBreaks: 0
WidescreenStoryboard: 1

[Editor]
Bookmarks: 75551
DistanceSpacing: 0.7
BeatDivisor: 4
GridSize: 8
TimelineZoom: 2

[Metadata]
Title:Shikioriori ni Tayutaite
TitleUnicode:四季折々に揺蕩いて
Artist:After the Rain
ArtistUnicode:After the Rain
Creator:Dailycare
Version:Remembrance
Source:
Tags:mafumafu Soraru まふまふ そらる utaite イザナワレトラベラー Izanaware Traveller Japanese Rock [_-Scarlet-_] [ -Scarlet- ]
BeatmapID:3942472
BeatmapSetID:1845428

[Difficulty]
HPDrainRate:5.5
CircleSize:4
OverallDifficulty:9.2
ApproachRate:9.7
SliderMultiplier:3.44
SliderTickRate:1

[Events]
//Background and Video events
0,0,"44.jpg",0,0
//Break Periods
2,148232,149316
2,205074,209811
//Storyboard Layer 0 (Background)
//Storyboard Layer 1 (Fail)
//Storyboard Layer 2 (Pass)
//Storyboard Layer 3 (Foreground)
//Storyboard Layer 4 (Overlay)
//Storyboard Sound Samples

[TimingPoints]
23496,394.736842105263,4,2,1,75,1,0
35338,-333.333333333333,4,2,1,72,0,0
35535,-333.333333333333,4,2,2,57,0,0
37706,394.736842105263,4,2,2,57,1,0
37706,-333.333333333333,4,2,2,57,0,0
48758,-333.333333333333,4,2,1,57,0,0
48956,-166.666666666667,4,2,1,57,0,0
49153,-100,4,2,1,57,0,0
49548,-116.279069767442,4,2,1,57,0,0
49942,-100,4,2,1,57,0,0
50337,-116.279069767442,4,2,1,65,0,0
56258,-100,4,2,1,65,0,0
56653,-100,4,2,1,72,0,0
61390,-116.279069767442,4,2,1,72,0,0
62377,-333.333333333333,4,2,1,57,0,0
62969,-333.333333333333,4,2,2,57,0,0
68692,-166.666666666667,4,2,2,57,0,0
69087,-100,4,2,1,57,0,0
69284,-100,4,2,1,65,0,0
74613,-100,4,2,1,72,0,0
74811,-1000,4,2,1,72,0,0
75600,-100,4,2,1,80,0,1
78117,-100,4,2,1,15,0,1
78166,-100,4,2,1,80,0,1
81077,-100,4,2,1,15,0,1
81127,-100,4,2,1,80,0,1
84432,-100,4,2,1,15,0,1
84482,-100,4,2,1,80,0,1
87837,-100,4,2,1,82,0,1
88232,-100,4,2,1,85,0,1
90748,-100,4,2,1,20,0,1
90798,-100,4,2,1,85,0,1
94548,-100,4,2,1,80,0,1
97261,-100,4,2,1,15,0,1
97311,-100,4,2,1,80,0,1
100074,-100,4,2,1,75,0,0
100863,-106.382978723404,4,2,1,75,0,0
112705,-333.333333333333,4,2,1,75,0,0
112903,-333.333333333333,4,2,1,57,0,0
113495,-333.333333333333,4,2,1,65,0,0
124745,-166.666666666667,4,2,1,65,0,0
124942,-100,4,2,1,65,0,0
125337,-116.279069767442,4,2,1,72,0,0
128495,-116.279069767442,4,2,1,65,0,0
129284,-116.279069767442,4,2,1,72,0,0
131653,-100,4,2,1,72,0,0
137179,-116.279069767442,4,2,1,72,0,0
138166,-333.333333333333,4,2,1,57,0,0
138758,-333.333333333333,4,2,2,57,0,0
144482,-166.666666666667,4,2,2,57,0,0
144877,-100,4,2,1,57,0,0
145074,-100,4,2,1,72,0,0
150600,-1000,4,2,1,72,0,0
151390,-100,4,2,1,80,0,1
153906,-100,4,2,1,15,0,1
153955,-100,4,2,1,80,0,1
156867,-100,4,2,1,15,0,1
156916,-100,4,2,1,80,0,1
160222,-100,4,2,1,15,0,1
160271,-100,4,2,1,80,0,1
163627,-100,4,2,1,82,0,1
164021,-100,4,2,1,85,0,1
166538,-100,4,2,1,20,0,1
166587,-100,4,2,1,85,0,1
170337,-100,4,2,1,80,0,1
173051,-100,4,2,1,15,0,1
173100,-100,4,2,1,80,0,1
175863,-100,4,2,1,75,0,0
176653,-166.666666666667,4,2,1,72,0,0
188495,-166.666666666667,4,2,1,80,0,0
189284,-100,4,2,1,75,0,0
193380,-100,4,2,1,15,0,0
193429,-100,4,2,1,75,0,0
195354,-100,4,2,1,10,0,0
195403,-100,4,2,1,75,0,0
200929,-333.333333333333,4,2,1,75,0,0
203396,-333.333333333333,4,2,1,10,0,0
205074,394.736842105263,4,2,1,30,1,0
211192,-333.333333333333,4,2,1,72,0,0
211389,-333.333333333333,4,2,1,57,0,0
212179,-333.333333333333,4,2,1,61,0,0
212968,-333.333333333333,4,2,1,66,0,0
213758,-333.333333333333,4,2,1,71,0,0
214547,-333.333333333333,4,2,1,74,0,0
215337,-333.333333333333,4,2,1,78,0,0
215731,-333.333333333333,4,2,1,80,0,0
216126,-100,4,2,1,80,0,0
217705,-100,4,2,1,80,0,1
220222,-100,4,2,1,15,0,1
220271,-100,4,2,1,80,0,1
223182,-100,4,2,1,15,0,1
223231,-100,4,2,1,80,0,1
226537,-100,4,2,1,15,0,1
226587,-100,4,2,1,80,0,1
229350,-100,4,2,1,82,0,1
230337,-100,4,2,1,85,0,1
232508,-100,4,2,1,87,0,1
232705,-100,4,2,1,90,0,1
232853,-100,4,2,1,25,0,1
232902,-100,4,2,1,90,0,1
233692,-100,4,2,1,85,0,1
236652,-100,4,2,1,80,0,1
239366,-100,4,2,1,15,0,1
239416,-100,4,2,1,80,0,1
242771,-100,4,2,1,80,0,0
242968,-116.279069767442,4,2,1,80,0,1
243264,-116.279069767442,4,2,1,80,0,0
243363,-116.279069767442,4,2,1,72,0,0
244547,-116.279069767442,4,2,1,80,0,1
244843,-116.279069767442,4,2,1,72,0,0
246126,-116.279069767442,4,2,1,80,0,1
247606,-116.279069767442,4,2,1,80,0,0
249284,-116.279069767442,4,2,1,57,0,0
250863,-116.279069767442,4,2,1,57,0,1
250962,-116.279069767442,4,2,1,57,0,0

[Colours]
Combo1 : 208,179,159
Combo2 : 228,150,126
Combo3 : 215,221,189
Combo4 : 182,193,248

[HitObjects]
219,339,23101,5,2,0:0:0:0:
228,255,23199,1,2,0:0:0:0:
196,176,23298,1,0,0:0:0:0:
131,123,23397,1,2,0:0:0:0:
220,6,23495,6,0,P|214:48|210:91,1,86,4|0,1:0|0:0,0:0:0:0:
21,188,23693,1,8,0:0:0:0:
105,230,23792,2,0,P|92:142|75:45,1,172,0|0,1:0|1:0,0:0:0:0:
196,176,24088,2,0,P|239:184|289:195,1,86,8|0,0:0|0:0,0:0:0:0:
512,125,24285,6,0,P|461:177|361:165,1,172,0|8,1:0|0:0,0:0:0:0:
316,355,24581,1,0,1:0:0:0:
316,355,24680,2,0,P|311:310|303:257,1,86,0|0,0:0|1:0,0:0:0:0:
332,93,24877,5,8,0:0:0:0:
441,222,24976,1,0,0:0:0:0:
280,160,25074,6,0,P|236:168|187:179,1,86,4|0,1:2|0:0,0:0:0:0:
27,311,25272,1,8,0:0:0:0:
0,223,25370,2,0,P|82:211|144:267,1,172,0|0,1:0|1:0,0:0:0:0:
59,127,25667,2,0,B|50:84|50:84|74:40,1,86,8|0,0:0|0:0,0:0:0:0:
230,258,25864,6,0,B|312:246|315:306|426:295,1,172,0|10,1:0|0:2,0:0:0:0:
512,222,26160,1,2,1:2:0:0:
432,116,26259,2,0,P|423:155|422:211,1,86,2|0,0:2|1:0,0:0:0:0:
323,370,26456,2,0,L|309:285,1,86,8|0,0:0|0:0,0:0:0:0:
213,90,26653,6,0,P|166:39|52:63,1,172,4|8,1:0|0:0,0:0:0:0:
193,191,26949,2,0,P|275:204|336:147,1,172,0|0,1:0|1:0,0:0:0:0:
114,135,27246,2,0,B|73:129|73:129|8:152,1,86,8|0,0:0|0:0,0:0:0:0:
176,370,27443,6,0,P|184:285|198:185,1,172,0|8,1:0|0:0,0:0:0:0:
267,349,27739,1,0,1:0:0:0:
267,349,27838,2,0,P|312:355|351:363,1,86,0|0,0:0|1:0,0:0:0:0:
103,260,28035,5,8,0:0:0:0:
14,281,28134,1,0,0:0:0:0:
78,347,28232,6,0,P|106:290|225:283,1,172,4|8,1:0|0:0,0:0:0:0:
403,286,28528,2,0,P|375:229|256:222,1,172,0|0,1:0|1:0,0:0:0:0:
491,332,28824,2,0,P|497:289|505:247,1,86,8|0,0:0|0:0,0:0:0:0:
354,48,29022,6,0,P|366:88|372:143,1,86,0|0,1:0|0:0,0:0:0:0:
202,168,29219,1,8,0:0:0:0:
106,74,29318,2,0,P|188:83|295:100,1,172,0|0,1:0|0:0,0:0:0:0:
512,0,29614,2,0,P|470:12|428:18,1,86,4|0,0:3|0:0,0:0:0:0:
292,188,29811,6,0,P|338:230|308:357,1,172,4|8,1:0|0:0,0:0:0:0:
108,384,30107,2,0,P|93:301|148:239,1,172,0|0,1:0|1:0,0:0:0:0:
15,151,30403,2,0,P|56:160|124:167,1,86,8|0,0:0|0:0,0:0:0:0:
263,295,30601,6,0,P|324:239|406:252,1,172,0|8,1:0|0:0,0:0:0:0:
487,216,30897,1,0,1:0:0:0:
343,111,30995,5,0,0:0:0:0:
343,111,31094,1,2,1:2:0:0:
419,156,31193,2,0,P|423:113|434:71,1,86,10|2,0:0|0:0,0:0:0:0:
257,1,31390,6,0,P|174:6|129:76,1,172,4|8,1:2|0:0,0:0:0:0:
31,223,31686,2,0,P|123:235|214:249,1,172,0|0,1:0|1:0,0:0:0:0:
254,85,31982,2,0,P|240:125|232:178,1,86,8|0,0:0|0:0,0:0:0:0:
153,368,32180,6,0,P|167:287|90:212,1,172,0|8,1:0|0:0,0:0:0:0:
129,75,32476,1,8,0:0:0:0:
0,161,32574,6,0,L|97:140,1,86,8|8,0:3|0:3,0:0:0:0:
291,65,32772,1,4,0:3:0:0:
291,65,32870,1,0,1:0:0:0:
212,1,32969,6,0,B|198:42|172:85|172:85|199:115|239:173,1,172,4|8,1:0|0:0,0:0:0:0:
321,203,33265,1,2,1:2:0:0:
120,302,33364,5,2,0:0:0:0:
120,302,33463,1,0,1:0:0:0:
198,353,33561,2,0,L|213:248,1,86,10|0,0:0|0:0,0:0:0:0:
452,72,33759,5,6,1:2:0:0:
320,19,33857,1,2,0:0:0:0:
400,136,33956,1,10,0:0:0:0:
407,0,34055,1,2,1:2:0:0:
316,101,34153,2,0,P|326:149|332:197,1,86,2|0,0:0|0:0,0:0:0:0:
504,266,34351,6,0,P|500:239|506:216,3,43,10|2|2|0,0:0|0:0|0:0|0:0,0:0:0:0:
512,227,34548,6,0,P|464:292|348:283,1,172,14|2,0:0|0:0,0:0:0:0:
251,369,34844,2,0,P|178:333|167:217,1,172,12|0,0:0|1:0,0:0:0:0:
45,145,35140,2,0,P|48:109|108:59,1,86,10|0,0:0|0:0,0:0:0:0:
283,16,35338,6,0,L|289:56,2,25.7999992126465,0|0|4,1:0|0:0|0:1,0:0:0:0:
256,192,35634,12,2,37114,0:0:0:0:
286,41,37311,5,2,0:0:0:0:
210,59,37509,5,2,0:0:0:0:
210,59,37607,1,0,0:0:0:0:
134,77,37706,5,6,1:2:0:0:
3,244,38100,1,2,1:2:0:0:
213,274,38495,1,2,1:2:0:0:
122,156,38890,5,2,1:2:0:0:
77,214,39087,1,2,0:3:0:0:
150,224,39284,1,2,1:2:0:0:
117,196,40469,5,2,1:2:0:0:
320,153,40666,1,0,0:0:0:0:
255,350,40863,1,2,1:2:0:0:
506,115,41456,5,2,0:3:0:0:
381,99,41653,2,0,L|431:90,1,51.599998425293,2|2,1:2|0:3,0:0:0:0:
397,174,41949,1,0,0:0:0:0:
397,174,42048,2,0,L|447:165,1,51.599998425293,2|2,1:2|0:3,0:0:0:0:
506,115,42442,1,2,1:2:0:0:
16,320,43627,5,2,1:2:0:0:
66,263,43824,1,0,0:0:0:0:
141,253,44021,1,2,1:2:0:0:
211,283,44416,5,2,1:2:0:0:
247,348,44811,1,2,1:2:0:0:
316,379,45206,5,2,1:2:0:0:
392,369,45403,1,2,0:3:0:0:
479,153,45600,1,2,1:2:0:0:
508,231,45798,5,2,0:3:0:0:
432,221,45995,1,2,1:2:0:0:
245,103,46192,5,2,0:3:0:0:
321,93,46390,1,2,1:2:0:0:
321,93,46982,5,2,0:0:0:0:
393,57,47179,2,0,L|401:114,2,51.599998425293,2|0|2,1:2|0:0|1:2,0:0:0:0:
321,93,47771,1,2,0:3:0:0:
88,219,47969,5,2,1:2:0:0:
16,183,48166,2,0,L|8:240,1,51.599998425293,2|2,0:3|1:2,0:0:0:0:
88,219,48561,1,2,0:3:0:0:
358,334,48758,5,0,0:0:0:0:
430,298,48956,2,0,L|438:355,1,51.599998425293,8|0,0:0|0:0,0:0:0:0:
358,334,49153,2,0,B|258:307|301:384|160:356,1,172,8|0,0:3|1:0,0:0:0:0:
77,187,49449,5,0,1:0:0:0:
155,212,49548,2,0,L|171:297,1,73.9600011285401,4|0,0:3|0:0,0:0:0:0:
13,238,49745,2,0,L|-3:323,1,73.9600011285401,8|0,0:0|0:0,0:0:0:0:
235,216,49942,6,0,B|252:175|252:175|239:120,1,86,8|0,0:0|0:0,0:0:0:0:
57,30,50140,2,0,B|40:71|40:71|53:126,1,86,8|0,0:3|0:0,0:0:0:0:
277,53,50337,6,0,P|213:60|99:73,2,147.92000225708,4|0|0,1:0|0:0|0:0,0:0:0:0:
447,46,50830,1,0,1:0:0:0:
369,9,50929,2,0,L|353:104,1,73.9600011285401,8|0,0:0|0:0,0:0:0:0:
512,219,51127,6,0,P|489:177|374:173,1,147.92000225708,0|0,1:0|0:0,0:0:0:0:
240,355,51423,1,8,0:0:0:0:
211,275,51521,2,0,P|234:233|349:229,1,147.92000225708,0|8,1:0|0:0,0:0:0:0:
325,214,51916,6,0,P|328:124|330:51,1,147.92000225708,4|0,1:2|0:0,0:0:0:0:
378,278,52212,1,8,0:0:0:0:
300,292,52311,2,0,B|263:285|263:285|214:315,1,73.9600011285401
4,178,52508,6,0,P|78:265|189:233,1,221.88000338562,10|0,0:0|0:0,0:0:0:0:
252,110,52903,5,10,0:0:0:0:
229,89,53002,1,2,0:0:0:0:
246,61,53100,2,0,P|243:151|241:224,1,147.92000225708,2|8,1:2|0:0,0:0:0:0:
82,306,53396,1,0,0:0:0:0:
156,324,53495,6,0,P|153:250|151:176,1,147.92000225708,4|0,1:2|0:0,0:0:0:0:
5,343,53791,2,0,L|13:264,1,73.9600011285401,8|0,0:0|0:0,0:0:0:0:
27,262,54087,6,0,L|19:335,1,73.9600011285401,8|0,0:0|0:0,0:0:0:0:
0,176,54284,2,0,P|81:182|128:129,1,147.92000225708,0|0,1:0|0:0,0:0:0:0:
269,56,54580,1,8,0:0:0:0:
189,36,54679,2,0,L|196:109,1,73.9600011285401
350,9,54877,2,0,L|342:82,1,73.9600011285401,8|0,0:0|0:0,0:0:0:0:
512,130,55074,6,0,B|468:119|431:97|431:97|414:126|384:155,1,147.92000225708,4|0,1:2|1:0,0:0:0:0:
380,223,55370,1,8,0:0:0:0:
474,272,55469,2,0,L|451:170,1,73.9600011285401,0|0,0:0|1:0,0:0:0:0:
302,250,55666,2,0,L|137:229,1,147.92000225708,8|0,0:0|0:0,0:0:0:0:
155,231,56061,6,0,L|258:216,1,73.9600011285401,8|0,0:0|0:0,0:0:0:0:
92,289,56258,5,2,1:2:0:0:
92,289,56357,1,0,0:0:0:0:
209,374,56455,2,0,L|123:361,1,86,10|0,0:0|0:0,0:0:0:0:
308,248,56653,6,0,P|298:158|287:65,1,172,4|8,1:0|0:0,0:0:0:0:
455,39,56949,1,0,1:0:0:0:
381,5,57048,2,0,L|372:94,1,86,0|0,0:0|1:0,0:0:0:0:
128,155,57245,2,0,L|227:139,1,86,8|0,0:0|0:0,0:0:0:0:
512,234,57442,6,0,P|467:177|353:193,1,172,0|8,1:0|0:0,0:0:0:0:
244,299,57738,1,0,1:0:0:0:
189,243,57837,2,0,P|106:237|50:299,1,172,0|8,1:0|0:0,0:0:0:0:
266,222,58133,5,0,0:0:0:0:
266,222,58232,2,0,L|276:130,1,86,2|0,1:2|0:0,0:0:0:0:
84,76,58429,2,0,L|93:161,1,86,10|0,0:0|1:0,0:0:0:0:
198,151,58627,5,0,0:0:0:0:
171,72,58725,1,0,1:0:0:0:
222,13,58824,1,10,0:0:0:0:
222,13,59021,6,0,P|195:57|58:58,1,172,0|8,1:0|0:0,0:0:0:0:
290,59,59317,1,0,1:0:0:0:
359,102,59416,2,0,P|405:96|450:92,1,86,0|0,0:0|1:0,0:0:0:0:
365,256,59613,2,0,P|337:218|310:182,1,86,8|0,0:0|0:0,0:0:0:0:
495,182,59811,6,0,P|466:261|431:366,1,172,0|8,1:0|0:0,0:0:0:0:
358,341,60107,2,0,P|312:368|218:279,1,172,0|0,1:0|1:0,0:0:0:0:
58,294,60403,2,0,L|183:269,1,86,8|0,0:0|0:0,0:0:0:0:
229,144,60600,6,0,L|216:240,1,86,2|0,1:2|0:0,0:0:0:0:
73,373,60798,1,8,0:0:0:0:
152,362,60896,2,0,P|146:313|128:179,1,172,0|0,1:0|1:0,0:0:0:0:
9,123,61192,2,0,L|94:111,1,86,10|0,0:0|0:0,0:0:0:0:
304,91,61390,6,0,P|190:94|146:-2,2,221.88000338562,4|8|0,1:0|0:0|1:0,0:0:0:0:
391,0,62179,6,0,P|386:35|381:79,1,73.9600011285401,4|0,0:3|0:0,0:0:0:0:
436,134,62377,6,2,P|444:183|454:244,1,103.199996850586,6|2,1:0|0:0,0:1:0:0:
507,300,62969,5,4,1:1:0:0:
437,339,63265,1,2,1:2:0:0:
437,157,63758,5,2,1:3:0:0:
452,235,64054,1,2,1:3:0:0:
279,179,64548,5,2,1:2:0:0:
358,189,64844,1,2,1:2:0:0:
251,336,65337,5,2,1:3:0:0:
285,264,65633,1,2,1:3:0:0:
507,300,66127,5,2,1:2:0:0:
437,157,66423,1,2,1:2:0:0:
279,179,66719,1,2,0:0:0:0:
251,336,66916,5,2,1:2:0:0:
251,336,67311,5,2,0:0:0:0:
251,336,67705,5,2,1:2:0:0:
348,171,67903,1,2,0:0:0:0:
223,25,68100,1,0,0:0:0:0:
46,101,68298,1,2,0:3:0:0:
63,292,68495,1,2,1:2:0:0:
331,58,68692,6,0,L|282:65,3,34.3999989501953,2|2|0|2,0:0|0:0|0:0|0:0,0:0:0:0:
138,11,69087,6,0,L|250:29,1,86,8|8,0:0|0:0,0:0:0:0:
512,28,69284,6,0,P|439:50|395:161,1,172,4|8,1:0|0:0,0:0:0:0:
333,333,69580,2,0,P|338:273|314:232,1,86,0|0,1:0|0:0,0:0:0:0:
270,190,69778,1,0,1:0:0:0:
136,285,69877,2,0,P|128:243|140:202,1,86,8|0,0:0|0:0,0:0:0:0:
208,242,70074,6,0,L|1:278,1,172,0|8,1:0|0:0,0:0:0:0:
263,299,70370,1,0,1:0:0:0:
333,333,70469,2,0,L|417:347,1,86,0|0,0:0|1:0,0:0:0:0:
283,219,70666,2,0,P|278:175|272:125,1,86,8|0,0:0|0:0,0:0:0:0:
87,9,70863,6,0,P|121:68|229:66,1,172,0|8,1:0|0:0,0:0:0:0:
484,106,71159,2,0,P|450:165|342:163,1,172,0|0,1:0|1:0,0:0:0:0:
367,2,71456,2,0,P|344:38|343:81,1,86,8|0,0:0|0:0,0:0:0:0:
194,173,71653,6,0,L|80:192,1,86,0|0,1:0|0:0,0:0:0:0:
345,262,71850,2,0,L|459:281,1,86,10|0,0:0|1:0,0:0:0:0:
270,225,72048,5,2,0:0:0:0:
270,225,72146,1,0,1:0:0:0:
273,133,72245,2,0,L|258:33,1,86,10|0,0:0|0:0,0:0:0:0:
403,141,72442,6,0,P|394:204|376:339,1,172,4|8,1:2|0:0,0:0:0:0:
302,344,72738,1,0,1:0:0:0:
484,381,72837,2,0,P|463:340|464:290,1,86,0|0,0:0|1:0,0:0:0:0:
318,178,73034,2,0,P|284:192|235:207,1,86,8|0,0:0|0:0,0:0:0:0:
9,174,73232,6,0,P|72:185|162:260,1,172,4|10,1:2|0:0,0:0:0:0:
232,296,73528,1,0,0:0:0:0:
170,145,73627,2,0,L|159:52,1,86,10|0,0:0|0:0,0:0:0:0:
68,280,73824,2,0,L|-7:336,1,86,10|0,0:0|0:0,0:0:0:0:
313,260,74021,6,0,P|400:274|518:295,1,172,12|0,0:0|0:0,0:0:0:0:
170,145,74317,2,0,P|83:159|-35:180,1,172,8|0,0:3|0:0,0:0:0:0:
336,82,74613,2,0,P|358:48|348:0,1,86,4|0,0:3|0:0,0:0:0:0:
223,245,74811,6,2,L|232:299,1,51.6,8|0,0:1|0:0,0:1:0:0:
199,367,75502,5,2,0:0:0:0:
195,360,75600,2,0,P|229:315|353:313,1,172,4|8,1:0|0:0,0:0:0:0:
143,229,75896,2,0,P|109:184|-15:182,1,172,0|0,1:0|1:0,0:0:0:0:
186,137,76192,2,0,L|306:118,1,86,8|0,0:0|0:0,0:0:0:0:
499,15,76390,6,0,L|379:-4,1,86,4|0,1:2|0:0,0:0:0:0:
441,200,76587,1,8,0:0:0:0:
359,228,76686,2,0,P|344:181|412:80,1,172,0|0,1:0|1:0,0:0:0:0:
512,261,76982,2,0,P|517:304|494:359,1,86,8|0,0:0|0:0,0:0:0:0:
268,231,77179,6,0,P|189:219|70:204,1,172,4|8,1:2|0:0,0:0:0:0:
15,372,77475,2,0,P|74:376|132:265,1,172,0|0,1:0|1:0,0:0:0:0:
50,132,77771,5,10,0:0:0:0:
13,227,77870,1,0,0:0:0:0:
164,129,77969,6,0,P|148:71|126:-22,1,129,2|0,1:2|0:0,0:0:0:0:
137,0,78166,2,0,P|182:-8|221:30,1,86,10|0,3:2|1:0,0:0:0:0:
97,207,78363,2,0,L|9:229,1,86,2|0,3:2|1:0,0:0:0:0:
263,102,78561,2,0,L|351:124,1,86,8|0,0:0|0:0,0:0:0:0:
508,0,78758,6,0,P|460:24|465:154,1,172,4|8,1:0|0:0,0:0:0:0:
340,333,79054,2,0,P|344:250|278:200,1,172,0|0,1:0|1:0,0:0:0:0:
429,347,79350,2,0,L|517:369,1,86,8|0,0:0|0:0,0:0:0:0:
210,261,79548,6,0,L|122:283,1,86,4|0,1:2|0:0,0:0:0:0:
58,64,79745,1,8,0:0:0:0:
0,137,79844,2,0,B|43:165|77:205|77:205|106:186|156:170,1,172,0|0,1:0|1:0,0:0:0:0:
272,62,80140,1,8,0:0:0:0:
272,62,80238,1,0,0:0:0:0:
164,11,80337,6,0,P|173:56|184:130,1,86,2|0,1:2|0:0,0:0:0:0:
355,170,80534,2,0,P|361:127|370:85,1,86,10|0,0:0|0:0,0:0:0:0:
127,280,80732,5,2,0:0:0:0:
210,261,80830,1,0,0:0:0:0:
273,320,80929,2,0,P|301:344|392:330,1,129,10|0,0:0|0:0,0:0:0:0:
395,341,81127,6,0,P|413:262|438:156,1,172,0|10,1:0|3:2,0:0:0:0:
191,349,81423,1,0,1:0:0:0:
191,349,81521,2,0,L|88:370,1,86,2|0,3:2|0:0,0:0:0:0:
304,164,81719,2,0,P|324:204|319:259,1,86,10|0,0:0|0:0,0:0:0:0:
21,120,81916,6,0,P|77:198|174:171,1,172,4|8,1:0|0:0,0:0:0:0:
340,53,82212,2,0,P|284:131|187:104,1,172,0|0,1:0|1:0,0:0:0:0:
426,13,82508,2,0,L|528:26,1,86,8|0,0:0|0:0,0:0:0:0:
169,50,82705,6,0,L|67:63,1,86,4|0,1:2|0:0,0:0:0:0:
287,184,82903,1,8,0:0:0:0:
363,134,83002,2,0,L|552:159,1,172,0|0,1:0|0:0,0:0:0:0:
215,127,83298,2,0,B|196:163|196:163|206:207,1,86,8|0,0:0|0:0,0:0:0:0:
398,371,83495,6,0,P|372:293|292:273,1,172,4|8,1:2|0:0,0:0:0:0:
0,247,83791,2,0,P|26:169|107:149,1,172,0|0,1:0|0:0,0:0:0:0:
230,4,84087,2,0,L|222:90,1,86,8|0,0:0|0:0,0:0:0:0:
104,231,84284,6,0,P|109:296|114:369,1,129,2|0,1:2|0:0,0:0:0:0:
121,364,84482,2,0,P|163:386|210:370,1,86,10|0,0:0|0:0,0:0:0:0:
325,193,84679,5,2,0:0:0:0:
307,354,84778,1,0,0:0:0:0:
188,281,84877,2,0,L|272:265,1,86,10|0,0:0|0:0,0:0:0:0:
512,236,85074,6,0,P|443:216|394:123,1,172,4|8,1:0|0:0,0:0:0:0:
315,5,85370,2,0,P|317:53|299:123,1,86,0|0,1:0|0:0,0:0:0:0:
239,155,85567,1,0,0:0:0:0:
144,42,85666,2,0,P|141:84|148:127,1,86,8|0,0:0|0:0,0:0:0:0:
0,179,85863,6,0,L|93:192,1,86,4|0,1:0|0:0,0:0:0:0:
260,338,86061,1,8,0:0:0:0:
165,366,86159,2,0,B|151:314|131:271|131:271|160:254|181:216,1,172,0|8,1:0|0:0,0:0:0:0:
350,243,86455,2,0,L|264:254,1,86,0|0,1:0|0:0,0:0:0:0:
395,156,86653,5,4,1:2:0:0:
474,206,86752,2,0,P|520:135|504:52,1,172,8|0,0:0|1:0,0:0:0:0:
434,293,87048,2,0,L|426:389,1,86,8|0,0:0|0:0,0:0:0:0:
295,65,87245,2,0,L|302:150,1,86,8|0,0:0|0:0,0:0:0:0:
252,338,87442,5,2,1:2:0:0:
149,206,87541,1,0,1:0:0:0:
349,230,87640,2,0,P|309:236|256:250,1,86,4|4,0:3|0:3,0:0:0:0:
157,371,87837,5,8,1:3:0:0:
267,160,87936,1,8,0:3:0:0:
353,349,88034,5,8,0:0:0:0:
110,285,88133,1,8,0:0:0:0:
349,176,88232,6,0,P|409:240|516:204,1,172,4|8,1:0|0:0,0:0:0:0:
373,0,88528,2,0,P|303:3|242:88,1,172,0|0,1:0|0:0,0:0:0:0:
475,120,88824,2,0,L|491:21,1,86,8|0,0:0|0:0,0:0:0:0:
335,372,89021,6,0,L|321:287,1,86,4|0,1:2|0:0,0:0:0:0:
102,120,89219,1,8,0:0:0:0:
163,41,89317,2,0,P|215:112|203:195,1,172,0|0,1:0|0:0,0:0:0:0:
11,99,89613,2,0,P|5:54|36:3,1,86,8|0,0:0|0:0,0:0:0:0:
127,259,89811,6,0,B|80:244|36:217|36:217|14:249|-19:280,1,172,4|8,1:2|0:0,0:0:0:0:
169,348,90107,2,0,P|262:327|358:310,1,172,0|0,1:0|0:0,0:0:0:0:
502,243,90403,5,10,0:0:0:0:
459,366,90502,1,0,0:0:0:0:
409,204,90600,6,0,P|393:135|384:61,1,129,2|0,1:2|0:0,0:0:0:0:
389,68,90798,2,0,P|429:37|471:47,1,86,10|0,3:2|0:0,0:0:0:0:
233,160,90995,2,0,L|143:145,1,86,2|0,3:2|0:0,0:0:0:0:
473,283,91192,2,0,P|500:319|497:362,1,86,8|0,0:0|0:0,0:0:0:0:
295,342,91390,6,0,P|268:260|339:189,1,172,4|8,1:0|0:0,0:0:0:0:
210,0,91686,2,0,P|258:67|230:145,1,172,0|0,1:0|0:0,0:0:0:0:
101,238,91982,2,0,L|185:252,1,86,8|0,0:0|0:0,0:0:0:0:
427,97,92179,6,0,L|342:111,1,86,4|0,1:2|0:0,0:0:0:0:
127,28,92377,1,8,0:0:0:0:
106,114,92475,2,0,P|30:120|-26:38,1,172,0|0,1:0|0:0,0:0:0:0:
127,291,92771,1,8,0:0:0:0:
127,291,92870,1,0,0:0:0:0:
2,224,92969,6,0,P|44:216|112:202,1,86,0|0,1:0|0:0,0:0:0:0:
281,258,93166,1,10,0:0:0:0:
226,383,93265,2,0,P|216:345|212:287,1,86,0|0,1:0|0:0,0:0:0:0:
342,110,93462,5,0,1:0:0:0:
430,202,93561,2,0,P|440:119|459:14,1,172,8|4,0:0|0:3,0:0:0:0:
199,215,93857,5,0,0:0:0:0:
281,258,93955,2,0,L|297:377,1,86,10|0,3:2|0:0,0:0:0:0:
52,299,94153,2,0,L|36:418,1,86,10|0,3:2|0:0,0:0:0:0:
167,296,94350,5,8,0:0:0:0:
167,296,94449,1,0,0:0:0:0:
142,85,94548,6,0,P|88:134|113:235,1,172,4|8,1:0|0:0,0:0:0:0:
413,159,94844,2,0,P|430:78|373:19,1,172,0|0,1:0|1:0,0:0:0:0:
239,100,95140,2,0,L|340:111,1,86,8|0,0:0|0:0,0:0:0:0:
512,246,95337,6,0,P|415:256|383:354,1,172,4|8,1:2|0:0,0:0:0:0:
208,258,95633,1,0,1:0:0:0:
279,384,95732,2,0,L|300:284,1,86,0|0,0:0|1:0,0:0:0:0:
221,83,95929,2,0,P|214:122|199:175,1,86,8|0,0:0|0:0,0:0:0:0:
0,263,96127,6,0,P|45:324|155:287,1,172,4|8,1:0|0:0,0:0:0:0:
301,209,96423,1,0,1:0:0:0:
134,97,96521,2,0,L|114:-12,1,86,0|0,0:0|1:0,0:0:0:0:
392,1,96719,2,0,P|379:43|368:84,1,86,8|0,0:0|0:0,0:0:0:0:
222,280,96916,5,6,1:2:0:0:
222,280,97015,1,2,0:0:0:0:
126,181,97113,2,0,P|188:166|250:147,1,129,10|0,3:2|0:0,0:0:0:0:
256,139,97311,2,0,P|292:177|300:232,1,86,2|0,3:2|1:0,0:0:0:0:
458,370,97508,2,0,P|466:325|479:277,1,86,10|0,3:2|0:0,0:0:0:0:
512,32,97705,6,0,P|448:21|364:91,1,172,4|10,1:0|0:0,0:0:0:0:
250,146,98002,1,2,1:2:0:0:
128,13,98100,2,0,P|171:23|224:30,1,86,2|2,0:0|1:2,0:0:0:0:
440,192,98298,2,0,P|397:197|355:208,1,86,10|2,0:0|0:0,0:0:0:0:
28,381,98495,5,0,1:0:0:0:
28,381,98594,1,8,0:0:0:0:
28,381,98692,2,0,L|16:295,1,86,8|0,0:3|0:0,0:0:0:0:
345,294,98890,5,8,0:0:0:0:
345,294,98988,1,8,0:3:0:0:
345,294,99087,2,0,L|356:208,1,86,4|0,0:3|0:0,0:0:0:0:
263,16,99284,5,12,0:0:0:0:
148,199,99482,1,12,0:0:0:0:
28,381,99679,1,4,0:1:0:0:
28,381,100074,6,0,P|67:330|190:345,1,172,4|0,0:3|0:0,0:0:0:0:
325,205,100370,1,4,0:3:0:0:
339,288,100469,2,0,P|256:294|198:234,1,172,8|8,0:3|0:3,0:0:0:0:
21,53,100863,5,4,1:0:0:0:
21,53,101061,2,0,P|110:38|196:25,2,161.679997532959,0|0|8,0:0|1:0|0:0,0:0:0:0:
280,0,101653,6,0,P|254:75|329:132,1,161.679997532959,0|0,1:0|0:0,0:0:0:0:
358,188,101949,1,8,0:0:0:0:
385,114,102048,1,0,1:0:0:0:
385,114,102245,6,0,P|375:178|359:294,2,161.679997532959,8|0|0,0:0|1:0|0:0,0:0:0:0:
353,36,102738,1,0,1:0:0:0:
512,30,102837,2,0,P|477:38|407:58,1,80.8399987664795,0|0,1:0|0:0,0:0:0:0:
226,108,103034,2,0,P|260:116|331:136,1,80.8399987664795,8|0,0:0|0:0,0:0:0:0:
448,228,103232,1,0,1:0:0:0:
385,114,103429,5,10,3:2:0:0:
385,114,103627,1,10,3:2:0:0:
90,217,103824,5,8,0:3:0:0:
90,217,103923,1,4,0:3:0:0:
157,157,104021,2,0,L|177:256,1,80.8399987664795,4|0,1:0|0:0,0:0:0:0:
114,291,104219,2,0,P|179:288|242:370,2,161.679997532959,0|0|8,0:0|1:0|0:0,0:0:0:0:
407,189,104811,6,0,P|331:209|241:239,1,161.679997532959,0|0,1:0|0:0,0:0:0:0:
239,355,105107,1,8,0:0:0:0:
305,304,105205,1,0,1:0:0:0:
305,304,105403,6,0,P|314:343|322:394,1,80.8399987664795,8|0,0:0|0:0,0:0:0:0:
381,276,105600,2,0,P|363:211|456:138,1,161.679997532959,0|2,1:0|0:0,0:0:0:0:
212,55,105896,5,8,0:3:0:0:
270,2,105995,2,0,P|322:59|307:135,1,161.679997532959,2|10,1:2|0:0,0:0:0:0:
87,238,106291,5,0,0:0:0:0:
165,257,106390,2,0,L|142:82,1,161.679997532959,2|10,1:2|3:2,0:0:0:0:
0,31,106686,5,0,0:0:0:0:
84,5,106784,2,0,L|66:92,1,80.8399987664795,10|2,3:2|0:0,0:0:0:0:
19,147,106982,1,0,1:0:0:0:
19,147,107080,1,4,0:3:0:0:
97,162,107179,5,4,1:0:0:0:
97,162,107377,2,0,P|154:200|141:299,2,161.679997532959,0|0|8,0:0|1:0|0:0,0:0:0:0:
133,373,107969,6,0,P|212:351|323:321,1,161.679997532959,0|0,1:0|0:0,0:0:0:0:
340,266,108265,1,8,0:0:0:0:
370,344,108363,1,0,1:0:0:0:
370,344,108561,6,0,P|357:265|422:211,2,161.679997532959,8|0|0,0:0|1:0|0:0,0:0:0:0:
447,370,109054,1,0,1:0:0:0:
512,272,109153,2,0,P|464:282|401:301,1,80.8399987664795,0|0,1:0|0:0,0:0:0:0:
232,174,109350,2,0,P|279:184|343:203,1,80.8399987664795,8|0,0:0|0:0,0:0:0:0:
458,116,109548,1,0,1:0:0:0:
340,266,109745,5,10,3:2:0:0:
340,266,109942,1,10,3:2:0:0:
259,9,110140,5,8,0:3:0:0:
259,9,110238,1,4,0:3:0:0:
402,49,110337,6,0,B|332:119|332:119|305:102|255:83,1,161.679997532959,4|8,1:0|0:0,0:0:0:0:
193,69,110633,1,2,0:0:0:0:
71,160,110732,5,2,0:0:0:0:
71,160,110830,1,0,1:0:0:0:
99,8,110929,2,0,P|107:47|114:105,1,80.8399987664795,10|0,0:0|0:0,0:0:0:0:
335,317,111127,5,6,1:2:0:0:
225,214,111225,1,2,0:0:0:0:
257,361,111324,1,10,0:0:0:0:
320,226,111423,1,2,1:2:0:0:
185,301,111521,2,0,P|227:294|281:274,1,80.8399987664795,2|0,0:0|0:0,0:0:0:0:
512,331,111719,6,0,P|501:348|493:392,3,40.4199993832398,10|2|2|0,0:0|0:0|0:0|0:0,0:0:0:0:
502,370,111916,6,0,P|529:325|494:206,1,161.679997532959,12|0,0:0|0:0,0:0:0:0:
356,186,112212,2,0,P|314:118|239:94,1,161.679997532959,12|0,0:0|1:0,0:0:0:0:
84,127,112508,2,0,P|34:132|6:163,1,80.8399987664795,8|0,0:0|0:0,0:0:0:0:
257,361,112705,6,0,L|261:328,2,25.7999992126465,0|0|4,1:0|0:0|1:0,0:0:0:0:
260,335,113495,5,6,1:2:0:0:
185,320,113692,1,0,0:0:0:0:
62,238,113890,5,8,0:0:0:0:
137,253,114087,1,0,0:0:0:0:
273,217,114284,5,0,1:0:0:0:
198,202,114482,1,0,0:0:0:0:
72,128,114679,5,8,0:0:0:0:
147,143,114877,1,0,0:0:0:0:
72,128,115074,6,0,L|64:69,1,51.599998425293,0|0,1:0|0:0,0:0:0:0:
209,96,115469,2,0,L|201:37,1,51.599998425293,8|0,0:0|0:0,0:0:0:0:
346,64,115863,2,0,L|338:5,1,51.599998425293,0|0,1:0|0:0,0:0:0:0:
128,28,116258,5,10,0:0:0:0:
283,115,116455,1,2,0:0:0:0:
416,0,116653,6,0,P|469:2|500:42,1,103.199996850586,0|8,1:0|0:0,0:0:0:0:
378,131,117245,1,0,0:0:0:0:
512,188,117442,1,0,1:0:0:0:
461,105,117640,6,0,L|456:138,2,25.7999992126465,0|0|8,0:0|0:0|0:0,0:0:0:0:
289,312,118034,5,0,0:0:0:0:
289,312,118133,1,0,0:0:0:0:
289,312,118232,2,0,L|284:279,1,25.7999992126465,2|0,1:2|0:0,0:0:0:0:
261,212,118429,1,0,0:0:0:0:
422,354,118627,5,8,0:0:0:0:
435,278,118824,1,2,0:0:0:0:
362,303,119021,1,0,1:0:0:0:
406,314,119219,5,2,0:0:0:0:
211,271,119416,1,8,0:0:0:0:
42,378,119613,1,0,0:0:0:0:
33,179,119811,5,0,1:0:0:0:
111,193,120008,1,0,0:0:0:0:
91,34,120205,5,8,0:0:0:0:
101,112,120403,1,0,0:0:0:0:
246,44,120600,5,0,1:0:0:0:
175,77,120798,1,0,0:0:0:0:
284,195,120995,5,8,0:0:0:0:
153,278,121192,1,0,0:0:0:0:
153,278,121291,1,0,0:0:0:0:
153,278,121390,1,0,1:0:0:0:
146,123,121587,6,0,L|206:131,2,51.599998425293,0|8|0,0:0|0:0|0:0,0:0:0:0:
320,163,122179,2,0,L|260:171,1,51.599998425293,0|0,1:0|0:0,0:0:0:0:
199,211,122574,1,8,0:0:0:0:
452,359,122771,5,0,0:0:0:0:
512,310,122969,2,0,P|489:289|419:289,1,103.199996850586,0|8,1:0|0:0,0:0:0:0:
420,288,123561,1,0,0:0:0:0:
235,360,123758,6,0,L|224:301,1,51.599998425293,0|2,1:0|0:0,0:0:0:0:
280,250,124153,1,8,0:0:0:0:
352,348,124350,2,0,L|341:289,1,51.599998425293,2|0,0:0|0:0,0:0:0:0:
22,153,124745,6,0,L|12:203,1,51.599998425293,8|0,0:0|0:0,0:0:0:0:
82,241,124942,2,0,P|140:255|219:172,1,172,0|0,0:0|0:0,0:0:0:0:
193,112,125238,1,0,0:0:0:0:
339,32,125337,5,0,1:0:0:0:
256,11,125436,2,0,L|269:87,1,73.9600011285401,0|0,1:0|0:0,0:0:0:0:
280,250,125633,5,8,0:3:0:0:
350,116,125732,1,10,0:0:0:0:
350,116,125830,1,2,0:0:0:0:
415,209,125929,2,0,L|327:191,1,73.9600011285401,4|2,0:3|0:0,0:0:0:0:
133,171,126127,6,0,P|111:115|184:35,1,147.92000225708,4|0,1:0|0:0,0:0:0:0:
208,207,126423,2,0,P|191:276|171:371,1,147.92000225708,0|0,1:0|1:0,0:0:0:0:
98,384,126719,2,0,P|92:346|82:297,1,73.9600011285401,8|0,0:0|0:0,0:0:0:0:
280,250,126916,6,0,P|354:257|393:326,1,147.92000225708,0|0,1:0|1:0,0:0:0:0:
457,73,127212,1,8,0:0:0:0:
512,130,127311,2,0,P|471:188|400:194,1,147.92000225708,0|8,0:0|0:0,0:0:0:0:
400,194,127705,6,0,P|390:115|378:20,1,147.92000225708,0|0,1:0|0:0,0:0:0:0:
319,160,128002,2,0,L|238:149,1,73.9600011285401,8|0,0:0|0:0,0:0:0:0:
174,94,128199,1,0,1:0:0:0:
174,94,128298,2,0,L|158:194,1,73.9600011285401,8|0,0:0|0:0,0:0:0:0:
31,310,128495,5,4,0:0:0:0:
31,310,128890,5,2,0:0:0:0:
221,223,129087,1,2,0:0:0:0:
55,97,129284,6,0,P|36:150|103:227,1,147.92000225708,0|8,1:0|0:0,0:0:0:0:
245,150,129580,2,0,P|290:95|273:25,1,147.92000225708,0|0,1:0|1:0,0:0:0:0:
134,64,129877,2,0,P|171:68|219:75,1,73.9600011285401,8|0,0:0|0:0,0:0:0:0:
302,213,130074,6,0,L|319:383,1,147.92000225708,0|0,1:0|0:0,0:0:0:0:
384,232,130370,1,8,0:0:0:0:
362,155,130469,2,0,L|370:81,1,73.9600011285401,0|0,0:0|1:0,0:0:0:0:
221,223,130666,2,0,P|183:227|136:234,1,73.9600011285401,8|0,0:0|0:0,0:0:0:0:
390,317,130863,6,0,P|446:295|457:190,1,147.92000225708,0|0,1:0|0:0,0:0:0:0:
509,146,131159,2,0,L|502:59,1,73.9600011285401,8|0,0:0|0:0,0:0:0:0:
284,75,131357,1,0,1:0:0:0:
284,75,131455,2,0,L|291:-12,1,73.9600011285401,8|0,0:0|0:0,0:0:0:0:
344,128,131653,6,2,L|434:149,1,86,2|0,1:2|0:0,0:1:0:0:
221,223,131850,2,2,L|131:244,1,86,12|0,0:0|0:0,0:1:0:0:
3,13,132048,5,2,0:0:0:0:
23,22,132146,1,0,0:0:0:0:
44,19,132245,1,2,0:0:0:0:
59,29,132344,1,0,0:0:0:0:
79,24,132442,6,0,P|131:75|118:170,1,172,6|8,1:2|0:0,0:0:0:0:
161,316,132738,1,0,1:0:0:0:
73,384,132837,2,0,L|86:286,1,86
209,137,133034,2,0,L|220:222,1,86,8|0,0:0|0:0,0:0:0:0:
373,362,133232,6,0,P|338:307|220:312,1,172,0|8,1:0|0:0,0:0:0:0:
448,167,133528,1,0,0:0:0:0:
378,126,133627,2,0,P|413:71|531:76,1,172,0|8,1:0|0:0,0:0:0:0:
381,206,133923,5,0,0:0:0:0:
381,206,134021,2,0,L|278:220,1,86,2|0,1:2|0:0,0:0:0:0:
350,21,134219,2,0,L|264:9,1,86,10|0,0:0|1:0,0:0:0:0:
301,119,134416,5,0,0:0:0:0:
234,169,134515,1,0,1:0:0:0:
159,153,134613,1,10,0:0:0:0:
159,153,134811,6,0,P|242:152|295:217,1,172,0|8,1:0|0:0,0:0:0:0:
78,169,135107,1,0,1:0:0:0:
18,114,135205,2,0,B|1:73|1:73|24:6,1,86,0|0,0:0|0:0,0:0:0:0:
140,0,135403,2,0,B|157:41|157:41|134:108,1,86,8|0,0:0|0:0,0:0:0:0:
14,210,135600,6,0,P|25:294|37:386,1,172,0|8,1:0|0:0,0:0:0:0:
114,348,135896,2,0,P|166:283|249:284,1,172,0|0,1:2|0:0,0:0:0:0:
372,236,136192,2,0,P|338:212|289:218,1,86,8|0,0:0|0:0,0:0:0:0:
210,110,136390,6,0,L|220:207,1,86,2|0,1:2|0:0,0:0:0:0:
414,361,136587,1,10,0:0:0:0:
335,381,136686,2,0,P|318:300|371:235,1,172
503,182,136982,2,0,P|461:176|415:169,1,86,10|0,0:0|0:0,0:0:0:0:
241,36,137179,6,0,P|340:57|330:158,2,221.88000338562,4|8|0,1:0|0:0|1:0,0:0:0:0:
75,45,137969,6,0,P|116:39|157:33,1,73.9600011285401
143,118,138166,6,2,P|108:154|59:148,1,103.199996850586,6|0,1:0|0:0,0:1:0:0:
5,84,138758,5,4,1:1:0:0:
75,45,139054,1,2,1:2:0:0:
75,227,139548,5,2,1:3:0:0:
60,149,139844,1,2,1:3:0:0:
233,205,140337,5,2,1:2:0:0:
154,195,140633,1,2,1:2:0:0:
261,48,141127,5,2,1:3:0:0:
227,120,141423,1,2,1:3:0:0:
5,84,141916,5,2,1:2:0:0:
75,227,142212,1,2,1:2:0:0:
233,205,142508,1,2,0:0:0:0:
261,48,142705,5,2,1:2:0:0:
261,48,143100,5,2,0:0:0:0:
261,48,143495,5,2,1:2:0:0:
164,213,143692,1,2,0:0:0:0:
289,359,143890,1,0,0:0:0:0:
466,283,144087,1,2,0:3:0:0:
449,92,144284,1,2,1:2:0:0:
226,303,144482,6,0,L|175:293,2,51.599998425293,8|2|2,0:3|1:3|1:2,0:0:0:0:
373,341,144877,6,0,L|275:361,1,86,8|8,0:0|0:0,0:0:0:0:
3,338,145074,6,0,P|64:313|117:213,1,172,4|8,1:0|0:0,0:0:0:0:
237,143,145370,2,0,L|225:46,1,86,0|0,1:0|0:0,0:0:0:0:
195,217,145567,1,0,1:0:0:0:
386,273,145666,2,0,L|398:176,1,86,8|0,0:0|0:0,0:0:0:0:
381,20,145863,6,0,P|318:73|323:155,1,172,0|10,1:0|0:0,0:0:0:0:
280,230,146159,1,0,0:0:0:0:
195,217,146258,2,0,L|90:239,1,86,0|4,1:0|0:3,0:0:0:0:
394,105,146455,2,0,L|499:127,1,86,8|8,0:3|0:0,0:0:0:0:
161,10,146653,5,4,1:2:0:0:
351,374,147048,5,4,1:0:0:0:
74,287,147442,5,4,1:0:0:0:
438,97,147837,5,4,1:0:0:0:
438,97,149811,6,0,P|489:177|439:261,1,172,12|0,0:0|0:0,0:0:0:0:
146,345,150107,2,0,P|121:265|171:199,1,172,12|0,0:0|0:0,0:0:0:0:
278,4,150403,2,0,L|294:103,1,86,12|0,0:0|0:0,0:0:0:0:
428,309,150600,6,0,L|420:363,1,51.6,6|8,1:2|0:0,0:0:0:0:
351,327,151291,5,0,0:0:0:0:
345,336,151390,2,0,P|289:347|200:247,1,172,4|8,1:0|0:0,0:0:0:0:
0,156,151686,2,0,P|58:168|145:67,1,172,0|0,1:0|1:0,0:0:0:0:
285,196,151982,2,0,L|183:184,1,86,8|0,0:0|0:0,0:0:0:0:
41,0,152179,6,0,L|55:107,1,86,4|0,1:2|0:0,0:0:0:0:
132,338,152377,1,8,0:0:0:0:
43,368,152475,2,0,P|18:286|87:210,1,172,0|0,1:0|1:0,0:0:0:0:
220,376,152771,2,0,L|322:364,1,86,8|0,0:0|0:0,0:0:0:0:
403,221,152969,6,0,B|354:238|302:262|302:262|276:232|259:216,1,172,4|8,1:2|0:0,0:0:0:0:
318,0,153265,2,0,P|364:69|338:148,1,172,0|0,1:0|0:0,0:0:0:0:
165,215,153561,5,10,0:0:0:0:
221,130,153659,1,0,0:0:0:0:
323,289,153758,6,0,P|380:296|475:312,1,129,2|0,1:2|0:0,0:0:0:0:
458,303,153955,2,0,P|486:273|459:206,1,86,10|0,3:2|1:0,0:0:0:0:
227,283,154153,2,0,L|211:375,1,86,2|0,3:2|1:0,0:0:0:0:
428,158,154350,2,0,L|413:73,1,86,8|0,0:0|0:0,0:0:0:0:
212,56,154548,6,0,P|268:67|357:-33,1,172,4|8,1:0|0:0,0:0:0:0:
140,127,154844,2,0,P|84:138|-5:38,1,172,0|0,1:0|0:0,0:0:0:0:
195,205,155140,2,0,P|207:250|201:299,1,86,8|0,0:0|0:0,0:0:0:0:
469,362,155337,6,0,P|466:319|477:278,1,86,4|0,1:2|0:0,0:0:0:0:
346,85,155534,1,8,0:0:0:0:
438,42,155633,2,0,B|451:93|469:144|469:144|439:166|416:217,1,172,0|0,1:0|0:0,0:0:0:0:
304,355,155929,1,8,0:0:0:0:
304,355,156028,1,0,0:0:0:0:
243,239,156127,6,0,L|360:253,1,86,2|0,1:2|0:0,0:0:0:0:
85,323,156324,2,0,L|-32:337,1,86,10|0,0:0|0:0,0:0:0:0:
13,151,156521,5,2,0:0:0:0:
76,87,156620,1,0,0:0:0:0:
159,118,156719,2,0,P|196:67|185:6,1,129,10|0,0:0|0:0,0:0:0:0:
181,0,156916,6,0,P|281:13|385:27,1,172,0|10,1:0|3:2,0:0:0:0:
96,182,157212,1,0,1:0:0:0:
96,182,157311,2,0,P|116:227|111:295,1,86,2|0,3:2|0:0,0:0:0:0:
275,50,157508,2,0,L|257:147,1,86,10|0,0:0|0:0,0:0:0:0:
420,366,157705,6,0,P|478:302|451:202,1,172,4|8,1:0|0:0,0:0:0:0:
349,5,158002,2,0,L|381:188,1,172,0|0,1:0|0:0,0:0:0:0:
310,324,158298,2,0,P|268:313|225:309,1,86,8|0,0:0|0:0,0:0:0:0:
451,116,158495,6,0,P|497:125|550:130,1,86,4|0,1:2|0:0,0:0:0:0:
300,219,158692,1,8,0:0:0:0:
208,183,158791,2,0,L|13:212,1,172,0|0,1:0|0:0,0:0:0:0:
224,384,159087,2,0,P|226:350|238:287,1,86,8|0,0:0|0:0,0:0:0:0:
176,21,159284,6,0,P|98:26|56:124,1,172,4|8,1:2|0:0,0:0:0:0:
334,126,159580,2,0,P|416:132|456:204,1,172,0|0,1:0|0:0,0:0:0:0:
249,147,159877,2,0,B|243:104|243:104|256:48,1,86,8|0,0:0|0:0,0:0:0:0:
125,324,160074,6,0,L|266:343,1,129,2|0,1:2|0:0,0:0:0:0:
259,348,160271,2,0,L|245:254,1,86,10|0,0:0|0:0,0:0:0:0:
329,88,160469,5,2,0:0:0:0:
383,225,160567,1,0,0:0:0:0:
194,188,160666,2,0,P|235:171|288:159,1,86,10|0,0:0|0:0,0:0:0:0:
510,70,160863,6,0,P|431:56|358:-6,1,172,4|8,1:0|0:0,0:0:0:0:
204,102,161159,2,0,L|216:4,1,86,0|0,1:0|0:0,0:0:0:0:
109,55,161357,1,0,0:0:0:0:
25,147,161455,2,0,L|13:49,1,86,8|0,0:0|0:0,0:0:0:0:
300,77,161653,6,0,L|384:92,1,86,0|0,1:0|0:0,0:0:0:0:
505,268,161850,1,8,0:0:0:0:
426,197,161949,2,0,B|399:191|367:176|367:176|347:228|310:299,1,172,0|8,1:0|0:0,0:0:0:0:
430,384,162245,2,0,L|417:291,1,86,0|0,1:0|0:0,0:0:0:0:
184,229,162442,5,6,1:2:0:0:
86,307,162541,2,0,L|109:118,1,172,8|0,0:0|1:0,0:0:0:0:
258,384,162837,6,0,L|245:291,1,86,8|0,0:0|0:0,0:0:0:0:
357,110,163034,5,8,0:0:0:0:
456,198,163133,2,0,L|433:9,1,172,4|0,0:3|1:2,0:0:0:0:
339,289,163429,6,0,L|352:196,1,86,4|4,0:3|0:3,0:0:0:0:
268,74,163627,5,8,1:3:0:0:
467,206,163725,1,8,0:3:0:0:
230,274,163824,5,8,0:0:0:0:
455,110,163923,1,8,0:0:0:0:
489,371,164021,6,0,P|429:304|329:317,1,172,4|8,1:0|0:0,0:0:0:0:
145,190,164317,2,0,P|241:175|326:162,1,172,0|0,1:0|0:0,0:0:0:0:
85,294,164613,2,0,P|41:283|-12:283,1,86,8|0,0:0|0:0,0:0:0:0:
177,87,164811,6,0,B|166:44|166:44|190:-10,1,86,4|0,1:2|0:0,0:0:0:0:
404,119,165008,1,8,0:0:0:0:
476,56,165107,2,0,P|526:115|502:203,1,172,0|0,1:0|0:0,0:0:0:0:
358,34,165403,2,0,L|272:43,1,86,8|0,0:0|0:0,0:0:0:0:
0,72,165600,6,0,P|62:74|135:-11,1,172,4|8,1:2|0:0,0:0:0:0:
376,200,165896,2,0,P|296:185|175:169,1,172,0|0,1:0|0:0,0:0:0:0:
12,159,166192,5,10,0:0:0:0:
163,253,166291,1,0,0:0:0:0:
108,99,166390,6,0,P|89:158|73:235,1,129,2|0,1:2|0:0,0:0:0:0:
82,235,166587,2,0,P|36:245|-8:260,1,86,10|0,3:2|0:0,0:0:0:0:
340,140,166784,2,0,P|386:130|430:115,1,86,2|0,3:2|0:0,0:0:0:0:
177,0,166982,2,0,P|188:48|186:98,1,86,8|0,0:0|0:0,0:0:0:0:
56,330,167179,6,0,B|130:325|154:374|237:360,1,172,4|8,1:0|0:0,0:0:0:0:
408,235,167475,2,0,P|354:275|229:245,1,172,0|0,1:0|0:0,0:0:0:0:
512,211,167771,2,0,P|501:252|499:296,1,86,8|0,0:0|0:0,0:0:0:0:
200,184,167969,6,0,P|242:171|300:175,1,86,4|0,1:2|0:0,0:0:0:0:
509,51,168166,1,8,0:0:0:0:
421,0,168265,2,0,P|377:31|390:159,1,172,0|0,1:0|0:0,0:0:0:0:
254,266,168561,1,8,0:0:0:0:
254,266,168659,1,0,0:0:0:0:
99,188,168758,6,0,P|145:197|212:205,1,86,0|0,1:0|0:0,0:0:0:0:
414,255,168955,1,8,0:0:0:0:
345,349,169054,2,0,L|328:247,1,86,0|0,1:0|0:0,0:0:0:0:
150,72,169252,5,0,1:0:0:0:
295,7,169350,2,0,P|281:76|263:199,1,172,8|4,0:0|0:3,0:0:0:0:
21,285,169646,5,0,0:0:0:0:
115,384,169745,2,0,L|105:298,1,86,10|0,3:2|0:0,0:0:0:0:
314,317,169942,2,0,L|323:231,1,86,10|0,3:2|0:0,0:0:0:0:
199,145,170140,5,0,0:0:0:0:
199,145,170238,1,0,0:0:0:0:
431,94,170337,6,0,P|385:140|264:119,1,172,4|8,1:0|0:0,0:0:0:0:
70,220,170633,2,0,P|152:208|217:261,1,172,0|0,1:0|1:0,0:0:0:0:
15,130,170929,2,0,L|3:21,1,86,8|0,0:0|0:0,0:0:0:0:
269,0,171127,6,0,B|290:42|325:88|325:88|305:117|290:144,1,172,4|8,1:2|0:0,0:0:0:0:
217,261,171423,1,0,1:0:0:0:
96,139,171521,2,0,P|138:151|199:164,1,86
350,340,171719,2,0,L|245:357,1,86,8|0,0:0|0:0,0:0:0:0:
463,341,171916,6,0,P|509:315|487:185,1,172,4|8,1:0|0:0,0:0:0:0:
359,111,172212,1,0,1:0:0:0:
483,23,172311,2,0,P|474:65|466:107,1,86,0|0,0:0|1:0,0:0:0:0:
282,272,172508,2,0,P|274:229|265:187,1,86,8|0,0:0|0:0,0:0:0:0:
68,104,172705,5,6,1:2:0:0:
68,104,172804,1,2,0:0:0:0:
172,123,172903,2,0,P|183:83|128:5,1,129,10|0,3:2|0:0,0:0:0:0:
134,5,173100,2,0,L|34:25,1,86,2|0,3:2|1:0,0:0:0:0:
274,94,173298,2,0,L|374:114,1,86,10|0,3:2|0:0,0:0:0:0:
512,276,173495,6,0,B|441:265|416:322|318:306,1,172,4|10,1:0|0:0,0:0:0:0:
265,187,173791,1,2,1:2:0:0:
444,113,173890,2,0,P|446:165|437:207,1,86,2|2,0:0|1:2,0:0:0:0:
233,364,174087,2,0,P|225:321|229:279,1,86,10|0,0:0|0:0,0:0:0:0:
74,89,174284,5,0,1:0:0:0:
74,89,174383,1,8,0:3:0:0:
74,89,174482,2,0,L|179:104,1,86,8|0,0:3|0:0,0:0:0:0:
448,206,174679,5,8,0:0:0:0:
448,206,174778,1,8,0:3:0:0:
448,206,174877,2,0,L|337:227,1,86,4|0,0:3|0:0,0:0:0:0:
233,364,175074,5,12,0:0:0:0:
202,188,175271,1,12,0:0:0:0:
175,14,175469,1,4,0:1:0:0:
175,14,175863,6,0,P|210:61|324:44,1,172,8|0,0:0|0:0,0:0:0:0:
471,117,176159,1,0,1:0:0:0:
409,22,176258,2,0,P|391:60|394:117,1,86,8|0,0:3|0:0,0:0:0:0:
512,210,176455,2,0,P|471:201|416:192,1,86,0|0,1:0|0:0,0:0:0:0:
233,364,176653,5,4,1:0:0:0:
157,351,176949,1,4,1:3:0:0:
81,338,177245,1,4,1:0:0:0:
5,325,177640,5,8,0:3:0:0:
230,358,177837,5,4,1:0:0:0:
154,345,178133,1,4,1:3:0:0:
78,332,178429,1,4,1:0:0:0:
2,319,178824,5,8,0:3:0:0:
227,352,179021,5,4,1:0:0:0:
151,339,179317,1,8,0:3:0:0:
75,326,179613,1,8,0:0:0:0:
328,190,179811,5,4,1:0:0:0:
252,177,180107,1,4,1:3:0:0:
176,164,180403,1,4,1:0:0:0:
100,151,180798,5,8,0:3:0:0:
325,196,180995,5,4,1:0:0:0:
249,183,181291,1,4,1:3:0:0:
173,170,181587,1,4,1:0:0:0:
97,157,181982,5,8,0:3:0:0:
322,202,182179,5,4,0:3:0:0:
94,163,182377,5,8,0:0:0:0:
104,160,182475,1,8,0:3:0:0:
114,158,182574,1,4,0:3:0:0:
124,157,182673,1,4,0:3:0:0:
134,154,182771,1,0,1:0:0:0:
144,152,182870,1,0,1:0:0:0:
94,241,182969,5,4,1:0:0:0:
170,228,183265,1,4,1:3:0:0:
246,215,183561,1,4,1:0:0:0:
322,202,183955,5,8,0:3:0:0:
91,247,184153,5,4,1:0:0:0:
167,234,184449,1,4,1:3:0:0:
243,221,184745,1,4,1:0:0:0:
319,208,185140,5,8,0:3:0:0:
88,253,185337,5,0,1:0:0:0:
164,240,185469,5,8,0:0:0:0:
240,227,185600,5,8,0:0:0:0:
316,214,185732,5,8,0:0:0:0:
392,201,185863,5,8,0:0:0:0:
468,188,185995,5,8,0:0:0:0:
183,79,186127,5,4,1:0:0:0:
259,66,186423,1,4,1:3:0:0:
335,53,186719,1,4,1:0:0:0:
411,40,187113,5,8,0:3:0:0:
180,85,187311,5,4,1:0:0:0:
256,72,187607,1,4,1:3:0:0:
332,59,187903,1,4,1:0:0:0:
408,46,188298,5,12,0:3:0:0:
177,91,188495,5,4,1:3:0:0:
405,52,188791,5,8,0:0:0:0:
408,46,188890,5,8,0:0:0:0:
448,122,188988,1,8,0:0:0:0:
380,171,189087,1,8,0:3:0:0:
437,231,189186,1,8,0:3:0:0:
357,260,189284,6,0,P|268:247|218:340,1,172,4|8,1:0|0:0,0:0:0:0:
480,375,189580,2,0,P|496:322|427:227,1,172,0|0,1:0|1:0,0:0:0:0:
211,121,189877,5,10,0:0:0:0:
211,121,189975,1,2,0:0:0:0:
318,28,190074,2,0,P|301:107|280:218,1,172,2|8,1:2|0:0,0:0:0:0:
335,338,190370,1,2,1:2:0:0:
212,260,190469,2,0,P|169:267|126:268,1,86
371,176,190666,2,0,L|456:195,1,86,10|0,0:0|0:0,0:0:0:0:
219,75,190863,6,0,B|148:65|119:121|29:104,1,172,2|8,1:2|0:0,0:0:0:0:
283,144,191159,2,0,P|354:94|461:132,1,172,0|0,1:0|1:0,0:0:0:0:
212,260,191455,2,0,P|207:216|193:158,1,86,8|0,0:0|0:0,0:0:0:0:
33,16,191653,6,0,P|21:101|6:185,1,172,2|8,1:2|0:0,0:0:0:0:
185,347,191949,1,2,1:2:0:0:
95,363,192048,2,0,B|73:314|51:279|51:279|78:256|98:202,1,172,0|10,0:0|0:0,0:0:0:0:
208,89,192344,5,0,0:0:0:0:
208,89,192442,2,0,L|195:196,1,86,6|0,1:2|0:0,0:0:0:0:
361,324,192640,1,8,0:0:0:0:
432,268,192738,2,0,P|379:217|269:235,1,172,2|0,1:2|0:0,0:0:0:0:
112,182,193034,2,0,P|162:180|215:170,1,86,10|0,0:0|0:0,0:0:0:0:
368,20,193232,6,0,P|378:64|322:132,1,129,2|0,1:2|0:0,0:0:0:0:
323,136,193429,2,0,P|295:104|298:40,1,86,10|0,0:0|0:0,0:0:0:0:
428,182,193627,2,0,L|522:167,1,86,2|0,0:0|0:0,0:0:0:0:
343,300,193824,2,0,L|329:384,1,86,10|0,0:0|0:0,0:0:0:0:
174,260,194021,6,0,B|131:270|88:286|88:286|54:257|-1:218,1,172,2|8,1:2|0:0,0:0:0:0:
153,109,194317,2,0,P|238:122|347:139,1,172,2|0,1:2|1:0,0:0:0:0:
89,45,194613,2,0,P|52:59|-20:63,1,86,10|0,0:2|0:0,0:0:0:0:
92,178,194811,6,0,P|108:246|125:346,1,172,2|8,1:2|0:0,0:0:0:0:
293,270,195107,1,2,1:2:0:0:
356,332,195205,2,0,P|307:373|223:345,1,129,0|0,0:0|0:0,0:0:0:0:
237,369,195403,2,0,P|220:324|200:281,1,86,10|0,0:0|0:0,0:0:0:0:
371,175,195600,6,0,P|434:225|530:207,1,172,4|8,1:0|0:0,0:0:0:0:
351,74,195896,2,0,P|287:116|174:78,1,172,2|0,1:2|1:0,0:0:0:0:
447,24,196192,2,0,L|434:114,1,86,10|0,0:0|0:0,0:0:0:0:
326,257,196390,6,0,B|290:293|262:332|262:332|233:307|203:288,1,172,2|10,1:2|0:0,0:0:0:0:
52,149,196686,1,2,1:2:0:0:
0,214,196784,2,0,B|35:250|63:289|63:289|92:264|122:245,1,172,2|10,0:0|0:0,0:0:0:0:
245,100,197080,5,0,0:0:0:0:
245,100,197179,2,0,L|231:203,1,86,2|0,1:2|0:0,0:0:0:0:
186,31,197377,1,8,0:0:0:0:
277,11,197475,2,0,P|348:-3|423:77,1,172,2|0,1:2|1:0,0:0:0:0:
156,113,197771,2,0,P|85:99|10:179,1,172,10|0,0:2|0:0,0:0:0:0:
14,160,198166,6,0,L|0:255,1,86,10|0,0:0|0:0,0:0:0:0:
184,286,198363,1,0,1:0:0:0:
184,286,198462,1,2,0:0:0:0:
98,377,198561,2,0,P|93:340|79:293,1,86,10|2,0:0|0:0,0:0:0:0:
277,319,198758,6,0,P|344:302|421:386,1,172,2|8,1:2|0:0,0:0:0:0:
512,211,199054,1,2,1:2:0:0:
414,116,199153,2,0,B|381:207|381:207|416:231|442:264,1,172,0|10,0:0|0:0,0:0:0:0:
235,65,199548,6,0,P|168:82|91:-2,1,172,4|8,1:2|0:0,0:0:0:0:
0,173,199844,1,2,1:2:0:0:
98,268,199942,2,0,B|131:177|131:177|96:153|70:120,1,172,0|10,0:0|0:0,0:0:0:0:
359,49,200337,6,2,P|426:32|503:116,1,172,4|0,1:0|0:0,0:1:0:0:
139,127,200633,2,2,P|72:110|-5:194,1,172,4|0,1:3|0:0,0:1:0:0:
275,300,200929,6,2,L|281:353,1,51.599998425293,12|0,0:0|0:0,0:1:0:0:
280,351,201324,1,6,1:0:0:0:
256,192,201423,12,0,203396,0:0:0:0:
280,351,211192,5,4,0:3:0:0:
294,354,211258,1,0,0:0:0:0:
297,340,211324,1,0,0:0:0:0:
283,337,211389,1,4,1:2:0:0:
283,337,211784,5,2,0:3:0:0:
203,360,211981,1,2,0:3:0:0:
143,302,212179,1,2,0:3:0:0:
163,221,212376,1,2,0:3:0:0:
243,198,212574,1,2,0:3:0:0:
302,255,212771,1,2,0:3:0:0:
78,352,212968,5,2,0:0:0:0:
1,359,213166,1,2,0:0:0:0:
302,255,213363,5,2,0:0:0:0:
309,332,213560,1,2,0:0:0:0:
207,82,213758,5,2,0:0:0:0:
284,75,213955,1,2,0:0:0:0:
96,172,214152,5,2,0:0:0:0:
89,95,214350,1,2,0:0:0:0:
29,258,214547,5,12,0:0:0:0:
106,251,214745,1,2,1:2:0:0:
183,244,214942,1,2,1:2:0:0:
260,237,215139,1,2,1:2:0:0:
337,230,215337,1,2,1:2:0:0:
414,223,215534,1,2,1:2:0:0:
491,214,215731,5,12,0:0:0:0:
484,137,215830,1,8,0:3:0:0:
477,60,215929,1,4,0:3:0:0:
477,60,216126,6,0,P|461:99|455:150,1,86,12|0,0:0|0:0,0:0:0:0:
341,333,216324,6,0,P|325:294|319:243,1,86,8|0,0:0|0:0,0:0:0:0:
200,5,216521,6,0,P|184:44|178:95,1,86,8|0,0:0|0:0,0:0:0:0:
70,369,216718,6,2,P|54:330|48:279,1,86,6|0,1:0|0:0,0:1:0:0:
47,286,217705,6,0,P|122:298|250:324,1,172,4|8,1:0|0:0,0:0:0:0:
290,122,218001,2,0,P|222:119|168:213,1,172,0|0,1:0|1:0,0:0:0:0:
0,126,218297,2,0,P|44:119|92:112,1,86,8|0,0:0|0:0,0:0:0:0:
311,282,218495,6,0,P|302:328|292:397,1,86,4|0,1:2|0:0,0:0:0:0:
438,128,218692,1,8,0:0:0:0:
351,57,218791,2,0,L|380:242,1,172,0|0,1:0|1:0,0:0:0:0:
500,77,219087,2,0,B|510:35|510:35|474:-18,1,86,8|0,0:0|0:0,0:0:0:0:
330,151,219284,6,0,P|252:140|138:125,1,172,4|8,1:0|0:0,0:0:0:0:
17,269,219580,2,0,P|89:285|162:194,1,172,0|0,1:0|1:0,0:0:0:0:
122,37,219876,5,10,0:0:0:0:
58,128,219975,1,0,0:0:0:0:
247,178,220074,6,0,P|233:107|216:30,1,129,2|0,1:2|0:0,0:0:0:0:
227,42,220271,2,0,P|270:35|313:81,1,86,10|0,3:2|1:0,0:0:0:0:
195,252,220468,2,0,L|102:278,1,86,2|0,3:2|1:0,0:0:0:0:
364,128,220666,2,0,L|457:154,1,86,8|0,0:0|0:0,0:0:0:0:
415,369,220863,6,0,P|366:314|386:222,1,172,4|8,1:0|0:0,0:0:0:0:
379,32,221159,2,0,B|429:15|481:-3|481:-3|493:26|515:71,1,172,0|0,1:0|1:0,0:0:0:0:
364,128,221455,2,0,L|281:104,1,86,8|0,0:0|0:0,0:0:0:0:
158,282,221652,6,0,L|240:258,1,86,4|0,1:2|0:0,0:0:0:0:
7,142,221850,1,8,0:0:0:0:
82,83,221949,2,0,B|110:114|130:130|130:130|103:175|74:253,1,172,0|0,1:0|1:0,0:0:0:0:
164,372,222245,1,8,0:0:0:0:
164,372,222343,1,0,0:0:0:0:
0,290,222442,6,0,P|39:312|88:351,1,86,2|0,1:2|0:0,0:0:0:0:
252,194,222639,2,0,P|213:216|164:255,1,86,10|0,0:0|0:0,0:0:0:0:
12,25,222837,5,2,0:0:0:0:
82,83,222935,1,0,0:0:0:0:
175,68,223034,2,0,P|224:20|307:38,1,129,10|0,0:0|0:0,0:0:0:0:
287,17,223231,6,0,B|305:70|319:121|319:121|355:135|402:161,1,172,0|10,1:0|3:2,0:0:0:0:
139,148,223527,1,0,1:0:0:0:
139,148,223626,2,0,P|96:158|39:169,1,86,2|0,3:2|0:0,0:0:0:0:
217,339,223824,2,0,P|259:328|317:318,1,86,10|0,0:0|0:0,0:0:0:0:
509,318,224021,6,0,P|470:240|362:239,1,172,4|8,1:0|0:0,0:0:0:0:
191,258,224317,2,0,P|109:275|74:350,1,172,0|0,1:0|1:0,0:0:0:0:
305,234,224613,2,0,P|308:188|291:127,1,86,8|0,0:0|0:0,0:0:0:0:
4,226,224810,6,0,P|-4:268|0:310,1,86,6|0,1:2|0:0,0:0:0:0:
132,96,225008,1,8,0:0:0:0:
60,157,225106,2,0,P|23:100|63:-6,1,172,0|0,1:2|1:0,0:0:0:0:
139,211,225402,2,0,P|189:202|228:202,1,86,8|0,0:0|0:0,0:0:0:0:
413,17,225600,6,0,B|470:37|518:52|518:52|490:119,1,172,4|8,1:0|0:0,0:0:0:0:
325,222,225896,2,0,B|301:165|301:165|349:150|406:130,1,172,0|0,1:0|1:0,0:0:0:0:
491,282,226192,2,0,P|462:257|392:265,1,86,8|0,0:0|0:0,0:0:0:0:
171,360,226389,6,0,P|216:315|279:306,1,129,2|0,1:2|0:0,0:0:0:0:
285,300,226587,2,0,P|292:342|298:384,1,86,10|0,0:0|0:0,0:0:0:0:
483,183,226784,5,2,0:0:0:0:
420,259,226883,1,0,0:0:0:0:
356,143,226981,2,0,P|362:101|370:59,1,86,10|0,0:0|0:0,0:0:0:0:
208,254,227179,6,0,P|132:271|13:301,1,172,4|8,1:0|0:0,0:0:0:0:
3,84,227475,2,0,P|58:76|125:172,1,172,0|0,1:0|1:0,0:0:0:0:
303,331,227771,2,0,P|309:288|316:246,1,86,8|0,0:0|0:0,0:0:0:0:
226,52,227968,6,0,P|219:94|212:136,1,86,0|0,1:0|0:0,0:0:0:0:
435,28,228166,1,8,0:0:0:0:
342,0,228264,2,0,P|315:77|383:170,1,172,0|8,1:0|0:0,0:0:0:0:
498,261,228560,2,0,P|461:248|397:230,1,86,0|0,1:0|0:0,0:0:0:0:
229,381,228758,5,8,1:3:0:0:
267,184,228856,1,8,0:0:0:0:
403,328,228955,1,4,0:3:0:0:
186,300,229054,6,0,P|172:211|148:102,1,172,4|0,1:3|0:0,0:0:0:0:
370,69,229350,2,0,P|362:111|352:172,1,86,8|0,0:0|1:0,0:0:0:0:
41,377,229547,6,0,P|31:294|86:231,1,172,8|4,1:2|0:3,0:0:0:0:
242,159,229843,1,0,1:0:0:0:
22,71,229942,5,8,1:3:0:0:
180,235,230041,1,8,0:3:0:0:
232,19,230139,5,8,0:0:0:0:
32,163,230238,1,8,0:0:0:0:
280,302,230337,6,0,P|295:217|235:156,1,172,4|8,1:0|0:0,0:0:0:0:
492,2,230633,2,0,P|437:64|447:147,1,172,0|0,1:0|1:0,0:0:0:0:
400,324,230929,2,0,B|411:285|411:285|387:209,1,86,8|0,0:0|0:0,0:0:0:0:
157,37,231126,6,0,B|146:76|146:76|170:152,1,86,4|0,1:2|0:0,0:0:0:0:
8,321,231324,1,8,0:0:0:0:
106,383,231422,2,0,L|77:171,1,172,0|0,1:0|1:0,0:0:0:0:
37,0,231718,2,0,L|23:86,1,86,8|0,0:0|0:0,0:0:0:0:
180,267,231916,6,0,B|235:255|277:236|277:236|304:266|342:298,1,172,4|8,1:0|0:0,0:0:0:0:
511,126,232212,2,0,P|467:199|367:165,1,172,0|0,1:0|1:0,0:0:0:0:
232,339,232508,5,10,0:0:0:0:
376,380,232606,1,0,0:0:0:0:
316,144,232705,6,0,L|298:7,1,129,2|0,1:2|0:0,0:0:0:0:
304,7,232902,2,0,P|339:-10|399:7,1,86,10|0,3:2|0:0,0:0:0:0:
172,200,233100,2,0,L|64:184,1,86,2|0,3:2|0:0,0:0:0:0:
434,315,233297,2,0,P|461:276|441:211,1,86,10|0,0:0|0:0,0:0:0:0:
70,96,233495,6,0,P|17:125|26:249,1,172,4|8,1:0|0:0,0:0:0:0:
329,289,233791,2,0,P|361:212|315:143,1,172,0|0,1:0|1:0,0:0:0:0:
118,14,234087,5,8,0:0:0:0:
172,200,234185,1,0,0:0:0:0:
377,66,234284,6,0,P|293:53|199:37,1,172,4|8,1:2|0:0,0:0:0:0:
236,330,234580,2,0,P|152:342|58:359,1,172,0|0,1:0|1:0,0:0:0:0:
228,128,234876,5,8,0:0:0:0:
228,128,234975,1,0,0:0:0:0:
329,289,235074,6,0,P|335:331|343:373,1,86,4|0,1:2|0:0,0:0:0:0:
469,54,235271,1,8,0:0:0:0:
505,148,235370,2,0,P|426:198|343:173,1,172,0|0,1:0|1:0,0:0:0:0:
56,5,235666,2,0,P|135:55|218:30,1,172,8|0,0:0|1:0,0:0:0:0:
207,39,236060,6,0,P|197:85|194:142,1,86,10|0,3:2|0:0,0:0:0:0:
45,357,236258,2,0,P|54:310|58:254,1,86,10|0,3:2|0:0,0:0:0:0:
245,220,236455,5,8,0:0:0:0:
99,141,236554,1,8,0:0:0:0:
157,327,236652,6,0,B|365:295,1,172,4|8,1:0|0:0,0:0:0:0:
504,149,236949,2,0,B|428:143|411:196|338:188,1,172,0|0,1:0|1:0,0:0:0:0:
180,26,237245,2,0,P|194:66|193:140,1,86,8|0,0:0|0:0,0:0:0:0:
234,368,237442,6,0,P|241:284|253:178,1,172,4|8,1:2|0:0,0:0:0:0:
157,327,237738,1,0,1:0:0:0:
157,327,237837,2,0,L|55:348,1,86,0|0,0:0|1:0,0:0:0:0:
339,248,238034,2,0,L|431:264,1,86,8|0,0:0|0:0,0:0:0:0:
168,150,238231,6,0,P|153:68|210:9,1,172,4|8,1:2|0:0,0:0:0:0:
402,80,238527,1,0,1:0:0:0:
306,137,238626,2,0,B|294:93|294:93|304:39,1,86,0|0,0:0|1:0,0:0:0:0:
496,129,238824,2,0,B|503:168|503:168|491:212,1,86,8|0,0:0|0:0,0:0:0:0:
183,282,239021,5,6,1:2:0:0:
183,282,239120,1,2,0:0:0:0:
252,210,239218,2,0,P|189:194|96:166,1,129,10|0,3:2|0:0,0:0:0:0:
120,170,239416,2,0,P|83:203|90:258,1,86,10|0,3:2|0:0,0:0:0:0:
260,86,239613,2,0,L|245:-14,1,86,10|0,3:2|0:0,0:0:0:0:
224,359,239810,6,0,P|290:367|356:278,1,172,4|8,1:0|0:0,0:0:0:0:
478,115,240106,2,0,P|429:47|346:49,1,172,0|0,1:0|1:0,0:0:0:0:
393,199,240402,2,0,L|499:214,1,86,8|0,0:0|0:0,0:0:0:0:
183,282,240600,6,0,L|77:297,1,86,4|0,1:2|0:0,0:0:0:0:
70,43,240797,1,8,0:0:0:0:
0,125,240896,2,0,P|84:139|169:156,1,172,0|0,1:0|1:0,0:0:0:0:
290,248,241192,1,8,0:0:0:0:
290,248,241291,1,0,0:0:0:0:
306,11,241389,6,0,P|246:67|264:147,1,172,4|8,1:2|0:0,0:0:0:0:
384,258,241685,2,0,P|386:214|362:146,1,86,8|0,0:3|0:0,0:0:0:0:
462,125,241883,1,8,0:0:0:0:
503,298,241981,2,0,P|501:254|525:186,1,86,8|4,0:3|0:3,0:0:0:0:
317,306,242179,6,0,B|281:299|251:281|251:281|227:326|185:378,1,172,0|4,1:0|0:3,0:0:0:0:
81,303,242475,1,0,1:0:0:0:
115,380,242574,5,4,0:3:0:0:
148,253,242672,1,4,0:3:0:0:
130,219,242771,1,0,1:0:0:0:
146,181,242870,1,0,1:0:0:0:
182,7,242968,6,0,P|108:19|92:163,1,221.88000338562,4|0,1:0|0:0,0:0:0:0:
146,181,243363,5,0,1:0:0:0:
152,179,243560,1,0,1:0:0:0:
153,173,243758,1,0,1:0:0:0:
150,168,243955,1,0,1:0:0:0:
144,166,244152,1,0,1:0:0:0:
139,169,244350,1,10,3:2:0:0:
4,204,244547,6,0,P|78:216|94:360,1,221.88000338562,4|0,1:0|0:0,0:0:0:0:
34,358,244942,5,2,1:2:0:0:
25,368,245139,1,2,1:2:0:0:
12,366,245337,1,2,1:2:0:0:
4,356,245534,1,2,1:2:0:0:
4,342,245731,1,2,1:2:0:0:
14,334,245929,5,10,3:2:0:0:
106,343,246027,1,2,0:0:0:0:
198,352,246126,1,4,1:0:0:0:
473,179,246324,5,2,0:0:0:0:
407,138,246422,1,2,0:0:0:0:
482,104,246521,5,4,1:3:0:0:
361,198,246620,1,2,0:0:0:0:
346,38,246718,1,4,1:3:0:0:
346,38,246916,6,0,L|333:131,1,73.9600011285401,4|0,1:3|0:0,0:0:0:0:
265,20,247113,2,0,L|252:113,1,73.9600011285401,4|0,1:3|0:0,0:0:0:0:
144,246,247310,6,0,L|131:153,1,73.9600011285401,4|0,1:3|0:0,0:0:0:0:
63,264,247508,2,0,L|50:171,1,73.9600011285401,14|0,3:2|0:0,0:0:0:0:
256,192,249284,12,4,250863,0:1:0:0:
