osu file format v14

[General]
AudioFilename: audio.mp3
AudioLeadIn: 0
PreviewTime: 203841
Countdown: 0
SampleSet: Soft
StackLeniency: 0.5
Mode: 0
LetterboxInBreaks: 0
WidescreenStoryboard: 0

[Editor]
Bookmarks: 113397
DistanceSpacing: 0.7
BeatDivisor: 4
GridSize: 4
TimelineZoom: 1.4

[Metadata]
Title:Shikioriori ni Tayutaite
TitleUnicode:四季折々に揺蕩いて
Artist:After the Rain
ArtistUnicode:After the Rain
Creator:Dailycare
Version:Hard
Source:
Tags:mafumafu Soraru まふまふ そらる utaite イザナワレトラベラー Izanaware Traveller Japanese Rock [_-Scarlet-_] [ -Scarlet- ]
BeatmapID:3934943
BeatmapSetID:1845428

[Difficulty]
HPDrainRate:4.5
CircleSize:3.4
OverallDifficulty:6
ApproachRate:8
SliderMultiplier:2
SliderTickRate:1

[Events]
//Background and Video events
0,0,"44.jpg",0,0
//Break Periods
2,37906,48206
2,205074,210639
//Storyboard Layer 0 (Background)
//Storyboard Layer 1 (Fail)
//Storyboard Layer 2 (Pass)
//Storyboard Layer 3 (Foreground)
//Storyboard Layer 4 (Overlay)
//Storyboard Sound Samples

[TimingPoints]
23496,394.736842105263,4,2,1,75,1,0
35535,-100,4,2,1,57,0,0
37706,394.736842105263,4,2,2,57,1,0
48956,-111.111111111111,4,2,1,57,0,0
50337,-111.111111111111,4,2,1,65,0,0
56653,-100,4,2,1,72,0,0
62377,-111.111111111111,4,2,1,57,0,0
62969,-133.333333333333,4,2,2,57,0,0
69087,-100,4,2,1,57,0,0
69284,-100,4,2,1,65,0,0
74613,-100,4,2,1,72,0,0
75600,-95.2380952380952,4,2,1,80,0,1
87837,-95.2380952380952,4,2,1,82,0,1
88232,-95.2380952380952,4,2,1,85,0,1
94548,-95.2380952380952,4,2,1,80,0,1
100074,-100,4,2,1,75,0,0
112903,-100,4,2,1,57,0,0
113495,-117.647058823529,4,2,1,65,0,0
125337,-100,4,2,1,72,0,0
128495,-100,4,2,1,65,0,0
129284,-100,4,2,1,72,0,0
138166,-111.111111111111,4,2,1,57,0,0
138758,-133.333333333333,4,2,2,57,0,0
144877,-100,4,2,1,57,0,0
145074,-100,4,2,1,72,0,0
146653,-111.111111111111,4,2,1,72,0,0
149811,-100,4,2,1,72,0,0
151390,-95.2380952380952,4,2,1,80,0,1
163627,-95.2380952380952,4,2,1,82,0,1
164021,-95.2380952380952,4,2,1,85,0,1
170337,-95.2380952380952,4,2,1,80,0,1
175863,-100,4,2,1,75,0,0
176653,-111.111111111111,4,2,1,72,0,0
188495,-111.111111111111,4,2,1,80,0,0
188890,-100,4,2,1,80,0,0
189284,-100,4,2,1,75,0,0
203396,-100,4,2,1,10,0,0
205074,394.736842105263,4,2,1,30,1,0
211192,-117.647058823529,4,2,1,72,0,0
211389,-117.647058823529,4,2,1,57,0,0
212179,-117.647058823529,4,2,1,61,0,0
212968,-117.647058823529,4,2,1,66,0,0
213758,-117.647058823529,4,2,1,71,0,0
214547,-117.647058823529,4,2,1,74,0,0
215337,-117.647058823529,4,2,1,78,0,0
215731,-117.647058823529,4,2,1,80,0,0
217705,-95.2380952380952,4,2,1,80,0,1
229350,-95.2380952380952,4,2,1,82,0,1
230337,-95.2380952380952,4,2,1,85,0,1
232705,-95.2380952380952,4,2,1,90,0,1
233692,-95.2380952380952,4,2,1,85,0,1
236652,-95.2380952380952,4,2,1,80,0,1
242968,-100,4,2,1,80,0,0
243363,-100,4,2,1,72,0,0
244547,-100,4,2,1,80,0,0
244942,-100,4,2,1,72,0,0
246126,-100,4,2,1,80,0,0
249284,-100,4,2,1,57,0,0
250863,-100,4,2,1,57,0,1
250962,-100,4,2,1,57,0,0

[Colours]
Combo1 : 208,179,159
Combo2 : 228,150,126
Combo3 : 215,221,189
Combo4 : 182,193,248

[HitObjects]
37,28,23495,6,0,P|50:76|60:142,1,100,0|0,0:0|0:0,0:0:0:0:
35,201,23792,2,0,P|113:150|189:177,1,150,0|8,1:0|0:0,0:0:0:0:
254,113,24285,1,0,1:0:0:0:
307,198,24482,2,0,L|374:186,2,50,8|0|0,0:0|1:0|0:0,0:0:0:0:
219,246,24877,1,8,0:0:0:0:
268,331,25074,6,0,P|321:319|391:308,1,100,4|8,1:2|0:0,0:0:0:0:
432,359,25371,2,0,P|467:327|450:236,1,100,0|0,1:0|1:0,0:0:0:0:
512,206,25667,2,0,P|505:157|469:123,1,100,8|0,0:0|1:0,0:0:0:0:
375,91,26061,1,10,0:2:0:0:
375,91,26160,1,2,1:2:0:0:
375,91,26259,2,0,P|366:140|355:188,1,100,2|8,0:2|0:0,0:0:0:0:
282,261,26653,6,0,L|167:289,1,100,4|8,1:0|0:0,0:0:0:0:
127,342,26949,2,0,P|96:299|-7:301,1,150,0|8,1:0|0:0,0:0:0:0:
29,197,27443,2,0,L|1:82,1,100,0|8,1:0|0:0,0:0:0:0:
5,99,27739,1,0,1:0:0:0:
5,99,27838,2,0,P|59:100|116:63,1,100,0|8,0:0|0:0,0:0:0:0:
191,122,28232,6,0,P|207:64|306:16,2,150,4|0|8,1:0|1:0|0:0,0:0:0:0:
109,183,29022,1,0,1:0:0:0:
199,223,29219,1,8,0:0:0:0:
140,305,29417,1,0,0:0:0:0:
234,366,29614,5,4,0:3:0:0:
234,366,29713,1,0,0:0:0:0:
234,366,29811,2,0,P|282:342|335:344,1,100,4|8,1:0|0:0,0:0:0:0:
396,303,30107,2,0,L|361:142,1,150,0|8,1:0|0:0,0:0:0:0:
466,184,30601,2,0,L|492:87,1,100,0|8,1:0|0:0,0:0:0:0:
435,17,30995,1,0,0:0:0:0:
435,17,31094,1,2,1:2:0:0:
435,17,31193,1,10,0:0:0:0:
345,65,31390,6,0,P|298:74|222:88,1,100,4|8,1:2|0:0,0:0:0:0:
208,153,31686,2,0,L|22:121,1,150,0|8,1:0|0:0,0:0:0:0:
0,48,32180,1,0,1:0:0:0:
101,27,32377,1,8,0:0:0:0:
101,27,32476,1,8,0:0:0:0:
101,27,32574,1,8,0:3:0:0:
196,0,32772,1,4,0:3:0:0:
246,83,32969,6,0,P|192:128|211:238,1,150,4|2,1:0|1:2,0:0:0:0:
203,287,33364,2,0,L|145:277,2,50,2|0|10,0:0|1:0|0:0,0:0:0:0:
296,327,33759,2,0,L|306:385,2,50,6|2|10,1:2|0:0|0:0,0:0:0:0:
353,248,34153,1,2,0:0:0:0:
262,209,34351,1,10,0:0:0:0:
342,149,34548,6,0,P|352:76|369:-25,2,150,14|12|10,0:0|0:0|0:0,0:0:0:0:
262,209,35338,1,0,1:0:0:0:
221,118,35535,1,4,0:1:0:0:
256,192,35634,12,6,37706,1:2:0:0:
221,118,48956,5,8,0:0:0:0:
258,210,49153,1,8,0:3:0:0:
348,172,49350,1,0,1:0:0:0:
348,172,49449,1,0,1:0:0:0:
348,172,49548,2,0,L|361:72,1,89.9999972534181,4|8,0:3|0:0,0:0:0:0:
447,130,49942,2,0,L|434:230,1,89.9999972534181,8|8,0:0|0:3,0:0:0:0:
353,272,50337,5,4,1:0:0:0:
414,347,50534,1,0,0:0:0:0:
318,363,50732,2,0,L|252:371,2,44.999998626709,0|0|8,0:0|1:0|0:0,0:0:0:0:
353,272,51127,2,0,P|298:265|248:246,1,89.9999972534181,0|0,1:0|0:0,0:0:0:0:
170,220,51521,2,0,P|183:262|187:307,1,89.9999972534181,0|8,1:0|0:0,0:0:0:0:
120,372,51916,5,4,1:2:0:0:
39,339,52113,1,0,0:0:0:0:
39,339,52212,1,8,0:0:0:0:
39,339,52311,1,0,0:0:0:0:
79,250,52508,2,0,B|121:154|23:181|102:38,1,179.999994506836,10|10,0:0|0:0,0:0:0:0:
165,26,53100,2,0,P|174:69|182:123,1,89.9999972534181,2|8,1:2|0:0,0:0:0:0:
226,203,53495,6,0,P|257:168|319:160,1,89.9999972534181,4|0,1:2|0:0,0:0:0:0:
343,93,53791,2,0,L|477:113,1,134.999995880127,8|8,0:0|0:0,0:0:0:0:
452,211,54284,2,0,P|482:243|491:289,1,89.9999972534181,0|0,1:0|0:0,0:0:0:0:
450,355,54580,1,8,0:0:0:0:
450,355,54679,2,0,L|344:376,1,89.9999972534181,0|8,0:0|0:0,0:0:0:0:
291,300,55074,6,0,L|312:194,1,89.9999972534181,4|0,1:2|1:0,0:0:0:0:
247,164,55370,2,0,L|268:58,1,89.9999972534181,8|0,0:0|1:0,0:0:0:0:
218,11,55666,2,0,P|152:53|24:27,1,179.999994506836,8|8,0:0|0:0,0:0:0:0:
0,128,56258,1,2,1:2:0:0:
86,168,56455,1,10,0:0:0:0:
20,239,56653,6,0,P|41:286|50:354,1,100,4|8,1:0|0:0,0:0:0:0:
134,383,57048,2,0,P|181:361|249:353,1,100,0|8,0:0|0:0,0:0:0:0:
278,269,57442,2,0,P|257:222|248:154,1,100,0|8,1:0|0:0,0:0:0:0:
174,105,57837,1,0,1:0:0:0:
267,70,58034,1,8,0:0:0:0:
196,0,58232,5,2,1:2:0:0:
101,36,58429,2,0,P|54:15|-14:6,2,100,10|0|10,0:0|0:0|0:0,0:0:0:0:
174,105,59021,1,0,1:0:0:0:
267,70,59219,2,0,P|316:22|447:60,1,200,8|8,0:0|0:0,0:0:0:0:
494,127,59811,6,0,L|469:248,1,100,0|8,1:0|0:0,0:0:0:0:
510,298,60107,2,0,P|455:256|353:265,1,150,0|8,1:0|0:0,0:0:0:0:
294,202,60600,1,2,1:2:0:0:
248,291,60798,1,8,0:0:0:0:
167,346,60995,1,0,0:0:0:0:
72,370,61192,1,10,0:0:0:0:
6,294,61390,6,0,L|45:111,2,150,4|8|0,1:0|0:0|1:0,0:0:0:0:
72,370,62179,1,4,0:3:0:0:
107,274,62377,6,2,P|168:230|279:256,1,179.999994506836,6|2,1:0|0:0,0:1:0:0:
348,308,62969,6,0,P|359:240|370:194,2,112.500004291535,4|2|2,1:1|1:2|0:0,0:0:0:0:
266,245,63758,2,0,P|188:204|165:128,1,150.000005722046,2|0,1:3|0:0,0:0:0:0:
102,71,64350,1,2,0:0:0:0:
193,24,64548,6,0,P|247:36|303:45,2,112.500004291535,2|2|2,1:2|1:2|0:0,0:0:0:0:
102,71,65337,2,0,P|24:111|1:188,1,150.000005722046,2|0,1:3|0:0,0:0:0:0:
43,256,65929,1,2,0:0:0:0:
132,208,66127,6,0,P|189:219|235:272,2,112.500004291535,2|2|2,1:2|1:2|0:0,0:0:0:0:
43,256,66916,2,0,L|56:346,1,75.0000028610231,2|0,1:2|0:0,0:0:0:0:
147,361,67311,2,0,L|237:348,1,75.0000028610231,2|0,0:0|0:0,0:0:0:0:
227,255,67705,5,2,1:2:0:0:
316,284,67903,1,2,0:0:0:0:
400,238,68100,1,0,0:0:0:0:
412,144,68298,1,2,0:3:0:0:
343,78,68495,1,2,1:2:0:0:
250,95,68692,6,0,L|237:43,2,37.5000014305115,2|2|2,0:0|1:3|0:0,0:0:0:0:
278,195,69087,5,8,0:0:0:0:
278,195,69186,1,8,0:0:0:0:
278,195,69284,2,0,P|329:199|399:218,1,100,4|8,1:0|0:0,0:0:0:0:
448,174,69580,2,0,P|501:220|473:328,1,150,0|8,1:0|0:0,0:0:0:0:
432,369,70074,1,0,1:0:0:0:
339,335,70271,1,8,0:0:0:0:
339,335,70370,1,0,1:0:0:0:
339,335,70469,2,0,L|221:356,1,100,0|8,0:0|0:0,0:0:0:0:
142,327,70863,6,0,P|140:283|112:213,1,100,0|8,1:0|0:0,0:0:0:0:
186,184,71159,2,0,P|108:186|53:117,1,150,0|8,1:0|0:0,0:0:0:0:
147,93,71653,1,0,1:0:0:0:
121,0,71850,2,0,P|178:0|234:66,1,100,10|2,0:0|0:0,0:0:0:0:
250,114,72245,1,10,0:0:0:0:
344,75,72442,6,0,P|398:67|467:55,1,100,4|8,1:2|0:0,0:0:0:0:
504,115,72738,1,0,1:0:0:0:
504,115,72837,2,0,L|484:251,1,100,0|8,0:0|0:0,0:0:0:0:
499,313,73232,1,4,1:2:0:0:
409,272,73429,1,10,0:0:0:0:
313,242,73627,1,10,0:0:0:0:
215,222,73824,1,10,0:0:0:0:
116,216,74021,6,0,L|-3:229,1,100,12|0,0:0|0:0,0:0:0:0:
29,146,74317,2,0,L|16:27,1,100,8|0,0:3|0:0,0:0:0:0:
99,59,74613,2,0,L|182:49,2,50,4|0|8,0:3|0:0|0:1,0:0:0:0:
99,59,75600,6,0,P|98:110|64:182,1,104.999996795654,4|8,1:0|0:0,0:0:0:0:
6,192,75896,2,0,P|71:179|159:267,1,157.499995193482,0|8,1:0|0:0,0:0:0:0:
167,327,76390,2,0,P|211:293|271:288,1,104.999996795654,4|8,1:2|0:0,0:0:0:0:
325,240,76686,2,0,P|382:263|412:384,1,157.499995193482,0|8,1:0|0:0,0:0:0:0:
489,260,77179,6,0,L|507:139,1,104.999996795654,4|8,1:2|0:0,0:0:0:0:
467,85,77475,2,0,P|405:121|301:96,1,157.499995193482,0|10,1:0|0:0,0:0:0:0:
239,49,77969,1,2,1:2:0:0:
198,143,78166,1,10,3:2:0:0:
283,201,78363,2,0,L|266:311,1,104.999996795654,2|8,3:2|0:0,0:0:0:0:
187,370,78758,6,0,P|154:346|92:343,1,104.999996795654,4|8,1:0|0:0,0:0:0:0:
22,308,79054,2,0,P|13:251|101:172,1,157.499995193482,0|8,1:0|0:0,0:0:0:0:
29,83,79548,2,0,L|164:66,1,104.999996795654,4|8,1:2|0:0,0:0:0:0:
206,117,79844,1,0,1:0:0:0:
206,117,79942,2,0,L|224:4,1,104.999996795654,0|8,0:0|0:0,0:0:0:0:
327,0,80337,5,2,1:2:0:0:
383,86,80534,1,10,0:0:0:0:
478,121,80732,1,2,0:0:0:0:
399,188,80929,6,0,P|369:196|331:225,2,52.4999983978272,10|0|0,0:0|0:0|1:0,0:0:0:0:
478,121,81324,5,10,3:2:0:0:
383,86,81521,1,2,3:2:0:0:
327,0,81719,1,10,0:0:0:0:
222,13,81916,6,0,P|212:71|156:128,1,104.999996795654,4|8,1:0|0:0,0:0:0:0:
202,186,82212,2,0,P|163:136|64:129,1,157.499995193482,0|8,1:0|0:0,0:0:0:0:
0,198,82705,2,0,P|2:254|45:300,1,104.999996795654,4|8,1:2|0:0,0:0:0:0:
13,371,83002,2,0,P|52:321|151:314,1,157.499995193482,0|8,1:0|0:0,0:0:0:0:
238,274,83495,6,0,P|283:303|341:299,1,104.999996795654,4|8,1:2|0:0,0:0:0:0:
393,356,83791,2,0,L|365:161,1,157.499995193482,0|8,1:0|0:0,0:0:0:0:
299,127,84284,1,2,1:2:0:0:
395,97,84482,1,10,0:0:0:0:
466,169,84679,1,2,0:0:0:0:
370,200,84877,1,10,0:0:0:0:
299,127,85074,6,0,P|308:70|325:7,1,104.999996795654,4|8,1:0|0:0,0:0:0:0:
241,0,85370,2,0,P|178:16|163:136,1,157.499995193482,0|8,1:0|0:0,0:0:0:0:
60,154,85863,1,4,1:0:0:0:
124,238,86061,1,8,0:0:0:0:
124,238,86159,2,0,P|72:264|17:256,1,104.999996795654,0|8,1:0|0:0,0:0:0:0:
0,336,86455,2,0,P|16:349|40:404,1,52.4999983978272,0|0,1:0|0:0,0:0:0:0:
117,358,86653,5,4,1:2:0:0:
117,358,86752,2,0,L|284:378,1,157.499995193482,8|8,0:0|0:0,0:0:0:0:
355,312,87245,2,0,L|424:301,2,52.4999983978272,8|0|2,0:0|0:0|1:2,0:0:0:0:
259,272,87640,1,4,0:3:0:0:
163,232,87837,2,0,L|94:243,2,52.4999983978272,8|8|8,1:3|0:3|0:0,0:0:0:0:
242,163,88232,6,0,L|347:178,1,104.999996795654,4|8,1:0|0:0,0:0:0:0:
402,238,88528,2,0,P|475:208|492:117,1,157.499995193482,0|8,1:0|0:0,0:0:0:0:
429,54,89021,2,0,P|410:21|337:6,1,104.999996795654,4|8,1:2|0:0,0:0:0:0:
290,61,89317,2,0,L|102:97,1,157.499995193482,0|8,1:0|0:0,0:0:0:0:
36,54,89811,6,0,L|17:169,1,104.999996795654,4|8,1:2|0:0,0:0:0:0:
58,230,90107,2,0,P|134:221|208:296,1,157.499995193482,0|10,1:0|0:0,0:0:0:0:
235,362,90600,1,2,1:2:0:0:
306,290,90798,1,10,3:2:0:0:
403,328,90995,2,0,L|388:215,1,104.999996795654,2|8,3:2|0:0,0:0:0:0:
470,157,91390,6,0,P|500:101|489:48,1,104.999996795654,4|8,1:0|0:0,0:0:0:0:
434,7,91686,2,0,L|246:43,1,157.499995193482,0|8,1:0|0:0,0:0:0:0:
199,108,92179,2,0,L|94:93,1,104.999996795654,4|8,1:2|0:0,0:0:0:0:
11,69,92475,1,0,1:0:0:0:
11,69,92574,2,0,P|22:120|30:178,1,104.999996795654,0|8,0:0|0:0,0:0:0:0:
116,234,92969,5,0,1:0:0:0:
53,318,93166,1,10,0:0:0:0:
53,318,93265,2,0,P|107:315|174:359,1,104.999996795654,0|0,1:0|1:0,0:0:0:0:
227,371,93561,2,0,P|232:337|245:303,1,52.4999983978272,8|0,0:0|0:0,0:0:0:0:
220,239,93758,5,4,0:3:0:0:
308,194,93955,1,10,3:2:0:0:
405,210,94153,1,10,3:2:0:0:
472,283,94350,1,8,0:0:0:0:
402,357,94548,6,0,L|297:374,1,104.999996795654,4|8,1:0|0:0,0:0:0:0:
238,319,94844,2,0,P|278:265|224:160,1,157.499995193482,0|8,1:0|0:0,0:0:0:0:
168,132,95337,1,4,1:2:0:0:
103,207,95534,1,8,0:0:0:0:
103,207,95633,1,0,1:0:0:0:
103,207,95732,1,0,0:0:0:0:
7,154,95929,1,8,0:0:0:0:
77,75,96127,6,0,L|202:92,1,104.999996795654,4|8,1:0|0:0,0:0:0:0:
246,38,96423,2,0,P|294:80|391:67,1,157.499995193482,0|8,1:0|0:0,0:0:0:0:
485,29,96916,2,0,L|509:143,1,104.999996795654,6|10,1:2|3:2,0:0:0:0:
482,212,97212,1,0,0:0:0:0:
482,212,97311,2,0,P|434:191|376:199,1,104.999996795654,2|10,3:2|3:2,0:0:0:0:
280,169,97705,6,0,P|294:225|304:283,1,104.999996795654,4|10,1:0|0:0,0:0:0:0:
271,348,98002,2,0,P|201:335|110:320,1,157.499995193482,2|10,1:2|0:0,0:0:0:0:
39,245,98495,2,0,L|-16:255,2,52.4999983978272,0|8|8,1:0|0:0|0:3,0:0:0:0:
134,198,98890,2,0,L|189:208,2,52.4999983978272,8|8|4,0:0|0:3|0:3,0:0:0:0:
58,126,99284,5,12,0:0:0:0:
150,77,99482,1,12,0:0:0:0:
74,10,99679,1,4,0:1:0:0:
74,10,100074,6,0,P|88:84|102:157,1,150,4|4,0:3|0:3,0:0:0:0:
170,195,100469,2,0,P|156:269|149:310,1,100,8|8,0:3|0:3,0:0:0:0:
226,361,100863,5,4,1:0:0:0:
256,270,101061,1,0,0:0:0:0:
335,206,101258,1,0,1:0:0:0:
430,179,101455,1,8,0:0:0:0:
379,94,101653,2,0,L|201:76,2,150,0|8|8,1:0|0:0|0:0,0:0:0:0:
430,179,102442,6,0,L|538:165,1,100,0|0,1:0|0:0,0:0:0:0:
501,260,102837,2,0,L|401:272,1,100,0|8,1:0|0:0,0:0:0:0:
328,336,103232,1,0,1:0:0:0:
315,240,103429,1,10,3:2:0:0:
244,174,103627,1,10,3:2:0:0:
157,143,103824,5,8,0:3:0:0:
157,143,103923,1,4,0:3:0:0:
157,143,104021,2,0,P|106:152|47:159,1,100,4|0,1:0|0:0,0:0:0:0:
0,241,104416,2,0,P|9:291|16:351,1,100,0|8,1:0|0:0,0:0:0:0:
107,376,104811,2,0,P|129:324|226:288,2,150,0|8|8,1:0|0:0|0:0,0:0:0:0:
14,339,105600,6,0,P|8:290|0:241,1,100,0|2,1:0|0:0,0:0:0:0:
58,187,105896,1,8,0:3:0:0:
58,187,105995,2,0,P|49:137|43:88,1,100,2|10,1:2|0:0,0:0:0:0:
101,8,106390,2,0,P|150:16|199:22,1,100,2|10,1:2|3:2,0:0:0:0:
263,84,106686,1,0,0:0:0:0:
263,84,106784,2,0,L|334:68,2,50,10|2|0,3:2|0:0|1:0,0:0:0:0:
169,125,107179,5,4,1:0:0:0:
252,183,107377,1,0,0:0:0:0:
348,209,107574,1,0,1:0:0:0:
448,206,107771,1,8,0:0:0:0:
400,298,107969,2,0,P|330:311|281:396,2,150,0|8|8,1:0|0:0|0:0,0:0:0:0:
448,206,108758,6,0,L|462:98,1,100,0|0,1:0|0:0,0:0:0:0:
368,64,109153,2,0,L|354:172,1,100,0|8,1:0|0:0,0:0:0:0:
281,229,109548,1,0,1:0:0:0:
211,159,109745,1,10,3:2:0:0:
115,133,109942,1,10,3:2:0:0:
22,142,110140,5,8,0:3:0:0:
22,142,110238,1,4,0:3:0:0:
22,142,110337,2,0,P|12:82|109:21,1,150,4|2,1:0|0:0,0:0:0:0:
154,40,110732,2,0,L|144:-17,2,50,2|0|10,0:0|1:0|0:0,0:0:0:0:
219,117,111127,2,0,L|276:127,2,50,6|2|10,1:2|0:0|0:0,0:0:0:0:
125,149,111521,1,2,0:0:0:0:
182,231,111719,1,10,0:0:0:0:
278,212,111916,6,0,P|224:260|230:332,2,150,12|12|8,0:0|0:0|0:0,0:0:0:0:
319,300,112705,1,0,1:0:0:0:
412,266,112903,1,4,1:0:0:0:
412,266,113495,6,0,P|418:220|432:161,1,85.0000016212464,6|0,1:2|0:0,0:0:0:0:
458,89,113890,2,0,P|416:97|374:103,1,85.0000016212464,8|0,0:0|0:0,0:0:0:0:
291,159,114284,2,0,P|226:108|123:142,1,170.000003242493,0|8,1:0|0:0,0:0:0:0:
102,211,114877,1,0,0:0:0:0:
15,170,115074,6,0,P|10:128|-4:60,1,85.0000016212464,0|0,1:0|0:0,0:0:0:0:
76,23,115469,2,0,P|140:73|222:59,2,170.000003242493,8|0|10,0:0|1:0|0:0,0:0:0:0:
2,86,116455,1,2,0:0:0:0:
80,147,116653,6,0,L|56:336,1,170.000003242493,0|8,1:0|0:0,0:0:0:0:
134,376,117245,2,0,P|158:351|218:344,1,85.0000016212464,0|0,0:0|1:0,0:0:0:0:
278,272,117640,1,0,0:0:0:0:
278,272,117738,1,0,0:0:0:0:
278,272,117837,2,0,P|238:258|213:225,1,85.0000016212464,8|0,0:0|0:0,0:0:0:0:
126,187,118232,5,2,1:2:0:0:
201,128,118429,2,0,L|311:146,1,85.0000016212464,0|8,0:0|0:0,0:0:0:0:
382,170,118824,2,0,L|364:60,2,85.0000016212464,2|0|2,0:0|1:0|0:0,0:0:0:0:
312,236,119416,1,8,0:0:0:0:
356,321,119613,1,0,0:0:0:0:
428,257,119811,6,0,P|469:244|532:245,1,85.0000016212464,0|0,1:0|0:0,0:0:0:0:
464,154,120205,2,0,P|423:167|360:166,1,85.0000016212464,8|0,0:0|0:0,0:0:0:0:
312,236,120600,2,0,P|280:173|185:142,1,170.000003242493,0|8,1:0|0:0,0:0:0:0:
107,99,121192,5,0,0:0:0:0:
107,99,121291,1,0,0:0:0:0:
107,99,121390,2,0,L|92:202,1,85.0000016212464,0|0,1:0|0:0,0:0:0:0:
16,240,121784,1,8,0:0:0:0:
7,143,121982,1,0,0:0:0:0:
0,46,122179,2,0,B|91:24|65:118|194:77,1,170.000003242493,0|8,1:0|0:0,0:0:0:0:
244,132,122771,1,0,0:0:0:0:
285,45,122969,6,0,P|335:25|437:104,1,170.000003242493,0|8,1:0|0:0,0:0:0:0:
511,128,123561,1,0,0:0:0:0:
428,177,123758,2,0,P|406:211|407:262,1,85.0000016212464,0|2,1:0|0:0,0:0:0:0:
334,316,124153,1,8,0:0:0:0:
306,224,124350,2,0,P|274:203|223:203,1,85.0000016212464,2|0,0:0|0:0,0:0:0:0:
155,141,124745,5,8,0:0:0:0:
136,236,124942,2,0,P|104:256|53:256,1,85.0000016212464,0|0,0:0|0:0,0:0:0:0:
8,349,125337,5,0,1:0:0:0:
8,349,125436,2,0,L|128:373,1,100,0|8,1:0|0:3,0:0:0:0:
181,337,125732,2,0,P|204:362|209:393,2,50,10|2|4,0:0|0:0|0:3,0:0:0:0:
105,269,126127,6,0,P|96:230|129:171,1,100,4|0,1:0|0:0,0:0:0:0:
100,100,126423,2,0,P|168:85|239:171,1,150,0|8,1:0|0:0,0:0:0:0:
305,195,126916,2,0,L|418:172,1,100,0|0,1:0|1:0,0:0:0:0:
495,133,127311,1,0,0:0:0:0:
484,233,127508,1,8,0:0:0:0:
467,334,127705,6,0,P|392:290|298:319,2,150,0|8|8,1:0|0:0|0:0,0:0:0:0:
484,233,128495,1,4,0:0:0:0:
484,233,129284,6,0,L|371:210,1,100,0|8,1:0|0:0,0:0:0:0:
315,257,129580,2,0,P|302:185|282:81,1,150,0|8,1:0|0:0,0:0:0:0:
234,20,130074,1,0,1:0:0:0:
204,122,130271,1,0,0:0:0:0:
204,122,130370,1,8,0:0:0:0:
204,122,130469,1,0,0:0:0:0:
106,84,130666,1,8,0:0:0:0:
124,181,130863,6,0,P|62:191|14:281,2,150,0|8|8,1:0|0:0|0:0,0:0:0:0:
216,220,131653,2,0,P|264:206|297:135,1,100,2|12,1:2|0:0,0:0:0:0:
293,167,132442,6,0,P|272:214|263:282,1,100,6|8,1:2|0:0,0:0:0:0:
292,338,132738,1,0,1:0:0:0:
292,338,132837,2,0,P|246:316|197:307,1,100,0|8,0:0|0:0,0:0:0:0:
107,351,133232,2,0,P|97:301|77:256,1,100,0|8,1:0|0:0,0:0:0:0:
15,174,133627,2,0,P|64:165|109:143,1,100,0|8,1:0|0:0,0:0:0:0:
210,174,134021,5,2,1:2:0:0:
188,74,134219,1,10,0:0:0:0:
188,74,134317,2,0,L|326:96,1,100,0|0,1:0|1:0,0:0:0:0:
362,53,134613,2,0,L|377:151,1,100,10|0,0:0|1:0,0:0:0:0:
297,211,135008,1,8,0:0:0:0:
387,253,135205,2,0,P|452:257|492:317,1,100,0|8,0:0|0:0,0:0:0:0:
408,350,135600,6,0,L|309:365,1,100,0|8,1:0|0:0,0:0:0:0:
233,382,135896,2,0,P|181:340|211:237,1,150,0|8,1:2|0:0,0:0:0:0:
118,188,136390,1,2,1:2:0:0:
213,164,136587,1,10,0:0:0:0:
294,109,136784,1,0,0:0:0:0:
340,20,136982,1,10,0:0:0:0:
432,62,137179,6,0,L|471:245,2,150,4|8|0,1:0|0:0|1:0,0:0:0:0:
340,20,137969,1,0,0:0:0:0:
350,122,138166,6,2,P|295:173|181:147,1,179.999994506836,6|0,1:0|0:0,0:1:0:0:
114,103,138758,6,0,P|103:171|92:217,2,112.500004291535,4|2|2,1:1|1:2|0:0,0:0:0:0:
196,160,139548,2,0,P|274:201|297:277,1,150.000005722046,2|0,1:3|0:0,0:0:0:0:
218,317,140140,1,2,0:0:0:0:
314,355,140337,6,0,P|368:343|424:334,2,112.500004291535,2|2|2,1:2|1:2|0:0,0:0:0:0:
296,255,141127,2,0,P|326:187|396:160,1,150.000005722046,2|0,1:3|0:0,0:0:0:0:
496,151,141719,1,2,0:0:0:0:
437,70,141916,6,0,P|384:44|354:-18,2,112.500004291535,2|2|2,1:2|1:2|0:0,0:0:0:0:
392,160,142705,2,0,L|405:250,1,75.0000028610231,2|0,1:2|0:0,0:0:0:0:
499,268,143100,2,0,L|486:178,1,75.0000028610231,2|0,0:0|0:0,0:0:0:0:
392,160,143495,5,2,1:2:0:0:
297,152,143692,1,2,0:0:0:0:
202,144,143890,1,0,0:0:0:0:
107,136,144087,1,2,0:3:0:0:
12,128,144284,1,2,1:2:0:0:
62,44,144482,6,0,L|56:-16,2,37.5000014305115,8|2|2,0:3|1:3|1:2,0:0:0:0:
107,136,144877,5,8,0:0:0:0:
107,136,144975,1,8,0:0:0:0:
107,136,145074,2,0,L|88:234,1,100,4|8,1:0|0:0,0:0:0:0:
24,274,145370,2,0,P|96:272|145:326,1,150,0|8,1:0|0:0,0:0:0:0:
230,381,145863,2,0,P|250:332|324:303,1,100,0|10,1:0|0:0,0:0:0:0:
317,233,146159,1,0,0:0:0:0:
317,233,146258,2,0,L|378:244,2,50,0|4|8,1:0|0:3|0:3,0:0:0:0:
314,134,146653,6,0,P|291:87|392:36,1,179.999994506836,4|4,1:2|1:0,0:0:0:0:
198,250,147442,2,0,P|221:297|120:348,1,179.999994506836,4|4,1:0|1:0,0:0:0:0:
256,192,148232,5,2,0:0:0:0:
256,192,149811,6,0,L|256:36,2,150,12|12|12,0:0|0:0|0:0,0:0:0:0:
305,263,150502,1,0,0:0:0:0:
305,263,150600,2,0,P|249:251|172:284,1,100,6|0,1:2|0:0,0:0:0:0:
208,340,150896,1,2,0:0:0:0:
208,340,150995,2,0,P|264:352|341:319,1,100,2|8,0:0|0:0,0:0:0:0:
410,368,151390,6,0,P|417:318|434:250,1,104.999996795654,4|8,1:0|0:0,0:0:0:0:
493,218,151686,2,0,P|426:219|355:117,1,157.499995193482,0|8,1:0|0:0,0:0:0:0:
307,68,152179,2,0,P|280:112|234:137,1,104.999996795654,4|8,1:2|0:0,0:0:0:0:
161,106,152475,2,0,P|134:33|65:0,1,157.499995193482,0|8,1:0|0:0,0:0:0:0:
0,82,152969,6,0,L|18:203,1,104.999996795654,4|8,1:2|0:0,0:0:0:0:
44,261,153265,2,0,P|118:243|226:227,1,157.499995193482,0|10,1:0|0:0,0:0:0:0:
291,182,153758,1,2,1:2:0:0:
217,113,153955,1,10,3:2:0:0:
315,76,154153,2,0,P|355:112|417:119,1,104.999996795654,2|8,3:2|0:0,0:0:0:0:
510,95,154548,6,0,L|492:216,1,104.999996795654,4|8,1:0|0:0,0:0:0:0:
438,254,154844,2,0,P|368:285|345:358,1,157.499995193482,0|8,1:0|0:0,0:0:0:0:
245,335,155337,2,0,P|220:304|143:293,1,104.999996795654,4|8,1:2|0:0,0:0:0:0:
85,309,155633,1,0,1:0:0:0:
85,309,155732,2,0,L|67:196,1,104.999996795654,0|8,0:0|0:0,0:0:0:0:
0,130,156127,5,2,1:2:0:0:
98,108,156324,1,10,0:0:0:0:
182,52,156521,1,2,0:0:0:0:
92,11,156719,6,0,P|67:10|20:-22,2,52.4999983978272,10|0|0,0:0|0:0|1:0,0:0:0:0:
182,52,157113,5,10,3:2:0:0:
98,108,157311,1,2,3:2:0:0:
0,130,157508,1,10,0:0:0:0:
68,205,157705,6,0,P|123:206|174:254,1,104.999996795654,4|8,1:0|0:0,0:0:0:0:
235,208,158002,2,0,P|267:264|220:368,1,157.499995193482,0|8,1:0|0:0,0:0:0:0:
345,379,158495,2,0,P|387:349|439:349,1,104.999996795654,4|8,1:2|0:0,0:0:0:0:
502,299,158791,2,0,L|474:104,1,157.499995193482,0|8,1:0|0:0,0:0:0:0:
395,73,159284,6,0,L|377:185,1,104.999996795654,4|8,1:2|0:0,0:0:0:0:
404,253,159580,2,0,P|346:202|250:219,1,157.499995193482,0|8,1:0|0:0,0:0:0:0:
191,135,160074,1,2,1:2:0:0:
158,233,160271,1,10,0:0:0:0:
69,187,160469,1,2,0:0:0:0:
98,91,160666,1,10,0:0:0:0:
191,135,160863,6,0,P|247:127|315:111,1,104.999996795654,4|8,1:0|0:0,0:0:0:0:
352,57,161159,2,0,P|408:113|385:206,1,157.499995193482,0|8,1:0|0:0,0:0:0:0:
303,223,161653,1,0,1:0:0:0:
316,330,161850,1,8,0:0:0:0:
316,330,161949,2,0,P|264:304|209:312,1,104.999996795654,0|8,1:0|0:0,0:0:0:0:
153,357,162245,2,0,P|139:334|119:317,1,52.4999983978272,0|0,1:0|0:0,0:0:0:0:
146,241,162442,5,6,1:2:0:0:
146,241,162541,2,0,L|313:221,1,157.499995193482,8|8,0:0|0:0,0:0:0:0:
355,125,163034,1,8,0:0:0:0:
355,125,163133,1,4,0:3:0:0:
355,125,163232,2,0,L|207:143,1,104.999996795654,0|4,0:0|0:3,0:0:0:0:
174,55,163627,2,0,L|254:44,2,52.4999983978272,8|8|8,1:3|0:3|0:0,0:0:0:0:
81,11,164021,6,0,L|59:136,1,104.999996795654,4|8,1:0|0:0,0:0:0:0:
0,169,164317,2,0,P|72:165|145:251,1,157.499995193482,0|8,1:0|0:0,0:0:0:0:
229,278,164811,2,0,P|178:287|148:329,1,104.999996795654,4|8,1:2|0:0,0:0:0:0:
225,364,165107,2,0,L|378:331,1,157.499995193482,0|8,1:0|0:0,0:0:0:0:
479,286,165600,6,0,P|487:242|435:185,1,104.999996795654,4|8,1:2|0:0,0:0:0:0:
486,120,165896,2,0,P|406:105|348:157,1,157.499995193482,0|10,1:0|0:0,0:0:0:0:
271,215,166390,1,2,1:2:0:0:
259,113,166587,1,10,3:2:0:0:
163,153,166784,2,0,L|148:40,1,104.999996795654,2|8,3:2|0:0,0:0:0:0:
51,12,167179,6,0,P|14:65|32:121,1,104.999996795654,4|8,1:0|0:0,0:0:0:0:
8,182,167475,2,0,L|162:152,1,157.499995193482,0|8,1:0|0:0,0:0:0:0:
259,113,167969,2,0,L|373:129,1,104.999996795654,4|8,1:2|0:0,0:0:0:0:
445,118,168265,1,0,1:0:0:0:
445,118,168363,2,0,P|485:159|469:226,1,104.999996795654,0|8,0:0|0:0,0:0:0:0:
381,235,168758,5,0,1:0:0:0:
445,337,168955,1,8,0:0:0:0:
445,337,169054,2,0,P|391:334|324:378,1,104.999996795654,0|0,1:0|1:0,0:0:0:0:
266,383,169350,2,0,P|261:349|248:315,1,52.4999983978272,8|0,0:0|0:0,0:0:0:0:
300,264,169548,5,4,0:3:0:0:
236,189,169745,1,10,3:2:0:0:
139,163,169942,1,10,3:2:0:0:
40,178,170140,1,0,0:0:0:0:
0,270,170337,6,0,L|19:381,1,104.999996795654,4|8,1:0|0:0,0:0:0:0:
100,379,170633,2,0,P|146:336|115:235,1,157.499995193482,0|8,1:0|0:0,0:0:0:0:
73,166,171127,1,4,1:2:0:0:
182,163,171324,1,8,0:0:0:0:
182,163,171423,1,0,1:0:0:0:
182,163,171521,1,0,0:0:0:0:
152,60,171719,1,8,0:0:0:0:
246,105,171916,6,0,L|270:-8,1,104.999996795654,4|8,1:0|0:0,0:0:0:0:
346,31,172212,2,0,P|382:82|485:81,1,157.499995193482,0|8,1:0|0:0,0:0:0:0:
512,186,172705,2,0,P|458:182|411:227,1,104.999996795654,6|10,1:2|3:2,0:0:0:0:
346,200,173002,1,0,0:0:0:0:
346,200,173100,2,0,L|369:308,1,104.999996795654,2|10,3:2|3:2,0:0:0:0:
289,372,173495,6,0,L|176:353,1,104.999996795654,4|10,1:0|0:0,0:0:0:0:
104,372,173791,2,0,P|83:311|152:232,1,157.499995193482,2|10,1:2|0:0,0:0:0:0:
225,191,174284,2,0,L|280:201,2,52.4999983978272,0|8|8,1:0|0:3|0:3,0:0:0:0:
139,126,174679,2,0,L|84:136,2,52.4999983978272,8|8|4,0:0|0:3|0:3,0:0:0:0:
223,64,175074,5,12,0:0:0:0:
308,116,175271,1,12,0:0:0:0:
346,25,175469,1,4,0:1:0:0:
346,25,175863,6,0,P|402:63|503:54,1,150,8|0,0:0|1:0,0:0:0:0:
463,146,176258,2,0,P|492:148|523:160,2,50,8|0|0,0:3|0:0|1:0,0:0:0:0:
382,210,176653,6,0,L|411:379,2,134.999995880127,4|4|4,1:0|1:3|1:0,0:0:0:0:
156,353,177837,2,0,L|29:306,2,134.999995880127,4|4|4,1:0|1:3|1:0,0:0:0:0:
145,86,179021,2,0,L|248:0,2,134.999995880127,4|8|8,1:0|0:3|0:0,0:0:0:0:
66,98,179811,6,0,P|124:138|136:227,2,134.999995880127,4|4|4,1:0|1:3|1:0,0:0:0:0:
243,384,180995,2,0,P|248:313|319:258,2,134.999995880127,4|4|4,1:0|1:3|1:0,0:0:0:0:
403,87,182179,2,0,P|343:117|290:102,1,89.9999972534181,4|8,0:3|0:0,0:0:0:0:
247,143,182475,1,8,0:3:0:0:
247,143,182574,2,0,L|232:45,1,89.9999972534181,4|0,0:3|1:0,0:0:0:0:
331,14,182969,6,0,P|395:25|492:36,2,134.999995880127,4|4|4,1:0|1:3|1:0,0:0:0:0:
173,241,184153,2,0,P|108:229|12:219,2,134.999995880127,4|4|4,1:0|1:3|1:0,0:0:0:0:
256,60,185337,6,0,L|256:0,2,59.9999981689454,0|8|8,1:0|0:0|0:0,0:0:0:0:
256,144,185732,2,0,L|256:280,1,119.999996337891,8|8,0:0|0:0,0:0:0:0:
256,352,186127,6,0,P|317:336|419:351,2,134.999995880127,4|4|4,1:0|1:3|1:0,0:0:0:0:
256,32,187311,2,0,P|195:48|93:33,2,134.999995880127,4|4|4,1:0|1:3|1:0,0:0:0:0:
380,192,188298,5,12,0:3:0:0:
272,192,188495,2,0,L|137:192,1,134.999995880127,4|8,1:3|0:0,0:0:0:0:
60,192,188890,2,0,L|-20:192,2,50,8|8|8,0:0|0:0|0:3,0:0:0:0:
104,280,189284,6,0,P|154:284|203:336,1,100,4|8,1:0|0:0,0:0:0:0:
227,383,189580,2,0,P|241:328|320:278,1,150,0|10,1:0|0:0,0:0:0:0:
362,215,189975,1,2,0:0:0:0:
362,215,190074,2,0,L|328:39,2,150,2|2|10,1:2|1:2|0:0,0:0:0:0:
451,251,190863,6,0,L|474:139,1,100,2|8,1:2|0:0,0:0:0:0:
510,83,191159,2,0,P|435:88|371:29,1,150,0|8,1:0|0:0,0:0:0:0:
279,64,191653,2,0,P|248:16|151:16,2,150,2|2|10,1:2|1:2|0:0,0:0:0:0:
347,140,192442,6,0,P|313:179|320:246,1,100,6|8,1:2|0:0,0:0:0:0:
351,296,192738,2,0,L|230:276,1,100,2|0,1:2|0:0,0:0:0:0:
169,306,193034,2,0,P|165:257|132:220,1,100,10|2,0:0|1:2,0:0:0:0:
145,121,193429,2,0,L|29:138,1,100,10|2,0:0|0:0,0:0:0:0:
0,47,193824,5,10,0:0:0:0:
0,47,193923,1,0,0:0:0:0:
0,47,194021,2,0,L|116:30,1,100,2|8,1:2|0:0,0:0:0:0:
173,0,194317,2,0,P|209:49|328:48,1,150,2|10,1:2|0:2,0:0:0:0:
359,143,194811,2,0,P|320:188|280:194,1,100,2|0,1:2|0:0,0:0:0:0:
205,172,195107,2,0,P|166:221|188:304,1,150,2|10,1:2|0:0,0:0:0:0:
256,371,195600,6,0,P|300:350|372:354,1,100,4|8,1:0|0:0,0:0:0:0:
402,288,195896,2,0,P|472:303|531:229,1,150,2|10,1:2|0:0,0:0:0:0:
478,183,196291,1,0,0:0:0:0:
478,183,196390,2,0,L|496:67,1,100,2|10,1:2|0:0,0:0:0:0:
403,32,196784,2,0,L|385:148,1,100,2|10,0:0|0:0,0:0:0:0:
334,215,197179,6,0,L|200:241,1,100,2|8,1:2|0:0,0:0:0:0:
188,296,197475,2,0,L|162:162,1,100,2|0,1:2|1:0,0:0:0:0:
109,150,197771,2,0,L|243:124,1,100,10|0,0:2|0:0,0:0:0:0:
288,65,198166,1,10,0:0:0:0:
192,39,198363,1,0,1:0:0:0:
99,18,198561,5,10,0:0:0:0:
99,18,198659,1,2,0:0:0:0:
99,18,198758,2,0,P|43:52|29:147,2,150,2|2|10,1:2|1:2|0:0,0:0:0:0:
125,116,199548,2,0,P|137:180|222:225,2,150,4|2|10,1:2|1:2|0:0,0:0:0:0:
226,133,200337,2,0,P|290:142|362:79,2,150,4|4|12,1:0|1:3|0:0,0:0:0:0:
54,224,201324,5,4,1:0:0:0:
256,192,201423,12,0,203396,0:0:0:0:
54,224,211389,5,4,1:2:0:0:
54,224,211784,6,0,P|78:256|72:321,1,85.0000016212464,2|2,0:3|0:3,0:0:0:0:
147,363,212179,2,0,P|162:326|222:298,1,85.0000016212464,2|0,0:3|0:0,0:0:0:0:
221,213,212574,2,0,P|181:217|127:180,1,85.0000016212464,2|2,0:3|0:3,0:0:0:0:
74,137,212968,6,0,L|54:23,1,85.0000016212464,2|2,0:0|0:0,0:0:0:0:
152,64,213363,2,0,L|266:44,1,85.0000016212464,2|2,0:0|0:0,0:0:0:0:
225,142,213758,2,0,L|245:256,1,85.0000016212464,2|2,0:0|0:0,0:0:0:0:
147,215,214152,2,0,L|33:235,1,85.0000016212464,2|2,0:0|0:0,0:0:0:0:
5,305,214547,5,12,0:0:0:0:
95,320,214745,1,2,1:2:0:0:
187,335,214942,1,2,1:2:0:0:
277,350,215139,1,2,1:2:0:0:
369,365,215337,1,2,1:2:0:0:
460,381,215534,1,2,1:2:0:0:
512,307,215731,6,0,P|515:286|530:264,2,42.5000008106232,12|8|4,0:0|0:3|0:3,0:0:0:0:
460,381,216126,5,12,0:0:0:0:
426,292,216324,1,8,0:0:0:0:
392,203,216521,1,8,0:0:0:0:
358,114,216718,1,6,1:0:0:0:
358,114,217705,6,0,L|229:133,1,104.999996795654,4|8,1:0|0:0,0:0:0:0:
198,187,218001,2,0,P|141:172|20:153,1,157.499995193482,0|8,1:0|0:0,0:0:0:0:
0,58,218495,2,0,P|57:49|110:36,1,104.999996795654,4|8,1:2|0:0,0:0:0:0:
169,89,218791,2,0,P|240:83|295:-2,1,157.499995193482,0|8,1:0|0:0,0:0:0:0:
371,94,219284,6,0,P|361:147|355:197,1,104.999996795654,4|8,1:0|0:0,0:0:0:0:
280,225,219580,2,0,P|341:268|320:385,1,157.499995193482,0|10,1:0|0:0,0:0:0:0:
252,379,220074,1,2,1:2:0:0:
204,285,220271,1,10,3:2:0:0:
114,328,220468,2,0,L|97:218,1,104.999996795654,2|8,3:2|0:0,0:0:0:0:
58,127,220863,6,0,L|161:143,1,104.999996795654,4|8,1:0|0:0,0:0:0:0:
223,196,221159,2,0,P|214:139|302:60,1,157.499995193482,0|8,1:0|0:0,0:0:0:0:
352,0,221652,2,0,P|404:-2|450:48,1,104.999996795654,4|8,1:2|0:0,0:0:0:0:
512,85,221949,1,0,1:0:0:0:
512,85,222047,2,0,P|475:123|468:192,1,104.999996795654,0|8,0:0|0:0,0:0:0:0:
496,272,222442,5,2,1:2:0:0:
396,244,222639,1,10,0:0:0:0:
294,232,222837,1,2,0:0:0:0:
334,329,223034,6,0,P|304:337|266:366,2,52.4999983978272,10|0|0,0:0|0:0|1:0,0:0:0:0:
294,232,223429,5,10,3:2:0:0:
396,244,223626,1,2,3:2:0:0:
496,272,223824,1,10,0:0:0:0:
464,172,224021,6,0,P|452:121|416:84,1,104.999996795654,4|8,1:0|0:0,0:0:0:0:
428,7,224317,2,0,P|351:11|299:68,1,157.499995193482,0|8,1:0|0:0,0:0:0:0:
194,49,224810,2,0,L|212:162,1,104.999996795654,6|8,1:2|0:0,0:0:0:0:
279,194,225106,2,0,P|202:198|150:255,1,157.499995193482,0|8,1:2|0:0,0:0:0:0:
59,315,225600,6,0,L|41:202,1,104.999996795654,4|8,1:0|0:0,0:0:0:0:
0,145,225896,2,0,P|76:140|128:83,1,157.499995193482,0|8,1:0|0:0,0:0:0:0:
210,17,226389,1,2,1:2:0:0:
229,119,226587,1,10,0:0:0:0:
327,139,226784,1,2,0:0:0:0:
302,38,226981,1,10,0:0:0:0:
229,119,227179,6,0,P|220:176|203:239,1,104.999996795654,4|8,1:0|0:0,0:0:0:0:
143,275,227475,2,0,P|213:274|283:342,1,157.499995193482,0|8,1:0|0:0,0:0:0:0:
374,278,227968,1,0,1:0:0:0:
389,384,228166,1,8,0:0:0:0:
389,384,228264,2,0,P|438:368|474:324,1,104.999996795654,0|8,1:0|0:0,0:0:0:0:
512,257,228560,2,0,P|496:244|472:189,1,52.4999983978272,0|0,1:0|0:0,0:0:0:0:
399,197,228758,5,8,1:3:0:0:
399,197,228856,2,0,L|426:84,1,104.999996795654,8|4,0:0|1:3,0:0:0:0:
384,24,229152,2,0,P|360:40|313:46,1,52.4999983978272,8|0,0:0|0:0,0:0:0:0:
270,97,229350,2,0,P|246:81|199:75,2,52.4999983978272,8|0|8,0:0|1:0|1:2,0:0:0:0:
303,194,229745,5,4,0:3:0:0:
199,209,229942,6,0,P|215:233|221:280,1,52.4999983978272,8|8,1:3|0:3,0:0:0:0:
285,305,230139,2,0,P|277:330|262:351,1,52.4999983978272,8|8,0:0|0:0,0:0:0:0:
188,383,230337,6,0,P|146:374|68:360,1,104.999996795654,4|8,1:0|0:0,0:0:0:0:
5,362,230633,2,0,P|-13:304|81:214,1,157.499995193482,0|8,1:0|0:0,0:0:0:0:
29,119,231126,2,0,P|82:140|144:151,1,104.999996795654,4|8,1:2|0:0,0:0:0:0:
184,210,231422,2,0,P|270:183|355:165,1,157.499995193482,0|8,1:0|0:0,0:0:0:0:
438,196,231916,6,0,P|475:160|470:80,1,104.999996795654,4|8,1:0|0:0,0:0:0:0:
507,34,232212,2,0,P|458:-1|345:12,1,157.499995193482,0|10,1:0|0:0,0:0:0:0:
301,50,232606,1,0,0:0:0:0:
301,50,232705,2,0,P|248:44|158:30,1,104.999996795654,2|10,1:2|3:2,0:0:0:0:
90,10,233100,2,0,P|97:61|102:114,1,104.999996795654,2|10,3:2|0:0,0:0:0:0:
191,180,233495,6,0,P|254:172|332:268,2,157.499995193482,4|0|8,1:0|1:0|0:0,0:0:0:0:
132,244,234185,1,0,0:0:0:0:
132,244,234284,2,0,P|69:252|-9:156,2,157.499995193482,4|0|8,1:2|1:0|0:0,0:0:0:0:
222,302,235074,6,0,P|255:309|282:325,1,52.4999983978272,4|0,1:2|0:0,0:0:0:0:
342,369,235271,1,8,0:0:0:0:
342,369,235370,2,0,P|370:336|462:338,1,104.999996795654,0|0,1:0|1:0,0:0:0:0:
509,340,235666,2,0,L|487:194,1,104.999996795654,8|0,0:0|1:0,0:0:0:0:
407,175,236060,1,10,3:2:0:0:
499,127,236258,1,10,3:2:0:0:
448,43,236455,5,8,0:0:0:0:
448,43,236554,1,8,0:0:0:0:
448,43,236652,2,0,P|408:78|328:68,1,104.999996795654,4|8,1:0|0:0,0:0:0:0:
303,144,236949,2,0,P|252:133|201:29,1,157.499995193482,0|8,1:0|0:0,0:0:0:0:
103,5,237442,2,0,L|83:120,1,104.999996795654,4|8,1:2|0:0,0:0:0:0:
16,155,237738,1,0,1:0:0:0:
16,155,237837,2,0,P|64:197|67:257,1,104.999996795654,0|8,0:0|0:0,0:0:0:0:
126,328,238231,6,0,P|156:286|205:271,1,104.999996795654,4|8,1:2|0:0,0:0:0:0:
197,190,238527,2,0,L|381:230,1,157.499995193482,0|8,1:0|0:0,0:0:0:0:
450,198,239021,1,6,1:2:0:0:
496,296,239218,1,10,3:2:0:0:
496,296,239317,1,0,0:0:0:0:
496,296,239416,1,10,3:2:0:0:
392,318,239613,1,10,3:2:0:0:
350,223,239810,6,0,L|231:245,1,104.999996795654,4|8,1:0|0:0,0:0:0:0:
204,313,240106,2,0,P|138:300|13:281,1,157.499995193482,0|8,1:0|0:0,0:0:0:0:
2,194,240600,2,0,P|-4:138|41:89,1,104.999996795654,4|8,1:2|0:0,0:0:0:0:
29,19,240896,1,0,1:0:0:0:
29,19,240995,2,0,P|85:13|153:64,1,104.999996795654,0|8,0:0|0:0,0:0:0:0:
236,54,241389,6,0,L|219:169,1,104.999996795654,4|8,1:2|0:0,0:0:0:0:
158,214,241685,1,8,0:3:0:0:
158,214,241784,2,0,L|186:292,1,52.4999983978272,0|8,0:0|0:0,0:0:0:0:
232,322,241981,1,8,0:3:0:0:
338,330,242179,6,0,L|309:408,2,52.4999983978272,0|0|4,1:0|0:0|0:3,0:0:0:0:
288,234,242574,1,4,0:3:0:0:
387,197,242771,1,0,1:0:0:0:
443,289,242968,6,0,P|504:223|477:106,1,200,4|0,1:0|1:0,0:0:0:0:
435,34,243560,1,0,1:0:0:0:
339,78,243758,2,0,P|289:60|240:35,2,100,0|0|0,1:0|1:0|1:0,0:0:0:0:
396,164,244350,1,10,3:2:0:0:
307,209,244547,6,0,P|264:152|123:179,1,200,4|2,1:0|1:2,0:0:0:0:
43,130,245139,1,2,1:2:0:0:
77,229,245337,2,0,P|88:288|93:356,1,100,2|2,1:2|1:2,0:0:0:0:
177,377,245731,2,0,P|236:366|304:361,1,100,2|10,1:2|3:2,0:0:0:0:
354,328,246027,1,2,0:0:0:0:
354,328,246126,6,0,P|339:235|324:100,1,200,4|4,1:0|1:3,0:0:0:0:
401,62,246718,1,4,1:3:0:0:
418,160,246916,1,4,1:3:0:0:
348,224,247113,1,4,1:3:0:0:
252,192,247310,1,4,1:3:0:0:
233,95,247508,1,14,3:2:0:0:
256,192,249284,12,4,250863,0:1:0:0:
