osu file format v14

[General]
AudioFilename: audio.mp3
AudioLeadIn: 0
PreviewTime: 56053
Countdown: 0
SampleSet: Soft
StackLeniency: 0.7
Mode: 0
LetterboxInBreaks: 0
WidescreenStoryboard: 1

[Editor]
Bookmarks: 14069,24830,35265,45700,56134,66569,71787,82221,92656,103091,113526,118743,129178,139613,155265,165700,170917,176134,186243
DistanceSpacing: 1
BeatDivisor: 4
GridSize: 16
TimelineZoom: 1.82

[Metadata]
Title:Moua
TitleUnicode:モア
Artist:After the Rain
ArtistUnicode:After the Rain
Creator:nemidnight
Version:Xenon's Normal
Source:
Tags:そらる×まふまふ モア みず希 Aちき rock jrock japanese koldnoodl crissa xen xenon soraru x mafumafu
BeatmapID:3287949
BeatmapSetID:1594928

[Difficulty]
HPDrainRate:4
CircleSize:3.2
OverallDifficulty:4
ApproachRate:5.5
SliderMultiplier:1
SliderTickRate:1

[Events]
//Background and Video events
0,0,"imgonline-com-ua-Resize-4E2NFZzKyImQxgs.jpg",0,0
//Break Periods
2,45900,53705
2,145030,154140
//Storyboard Layer 0 (Background)
//Storyboard Layer 1 (Fail)
//Storyboard Layer 2 (Pass)
//Storyboard Layer 3 (Foreground)
//Storyboard Layer 4 (Overlay)
//Storyboard Sound Samples

[TimingPoints]
3961,326.086956521739,4,2,1,70,1,0
14069,-100,4,2,1,70,0,0
14395,-100,4,2,1,55,0,0
14640,-100,4,2,1,5,0,0
14721,-100,4,2,1,55,0,0
15944,-100,4,2,1,5,0,0
16026,-100,4,2,1,55,0,0
17249,-100,4,2,1,5,0,0
17330,-100,4,2,1,55,0,0
18553,-100,4,2,1,5,0,0
18634,-100,4,2,1,55,0,0
19857,-100,4,2,1,5,0,0
19939,-100,4,2,1,55,0,0
21162,-100,4,2,1,5,0,0
21243,-100,4,2,1,55,0,0
22466,-100,4,2,1,5,0,0
22547,-100,4,2,1,55,0,0
24830,-100,4,2,1,30,0,0
35265,-100,4,2,1,50,0,0
45700,-100,4,2,1,20,0,0
56134,-100,4,2,1,70,0,0
57357,-100,4,2,1,5,0,0
57439,-100,4,2,1,70,0,0
58662,-100,4,2,1,5,0,0
58743,-100,4,2,1,70,0,0
62575,-100,4,2,1,5,0,0
62656,-100,4,2,1,70,0,0
66569,-100,4,2,1,40,0,0
71787,-100,4,2,1,55,0,0
72032,-100,4,2,1,5,0,0
72113,-100,4,2,1,55,0,0
73336,-100,4,2,1,5,0,0
73418,-100,4,2,1,55,0,0
74641,-100,4,2,1,5,0,0
74722,-100,4,2,1,55,0,0
75945,-100,4,2,1,5,0,0
76026,-100,4,2,1,55,0,0
77249,-100,4,2,1,5,0,0
77331,-100,4,2,1,55,0,0
78554,-100,4,2,1,5,0,0
78635,-100,4,2,1,55,0,0
79858,-100,4,2,1,5,0,0
79939,-100,4,2,1,55,0,0
82221,-100,4,2,1,30,0,0
92656,-100,4,2,1,40,0,0
95509,-100,4,2,1,5,0,0
95591,-100,4,2,1,40,0,0
98118,-100,4,2,1,5,0,0
98200,-100,4,2,1,40,0,0
103091,-100,4,2,1,70,0,0
104314,-100,4,2,1,5,0,0
104395,-100,4,2,1,70,0,0
105618,-100,4,2,1,5,0,0
105700,-100,4,2,1,70,0,0
109531,-100,4,2,1,5,0,0
109613,-100,4,2,1,70,0,0
113526,-100,4,2,1,60,0,0
113770,-100,4,2,1,5,0,0
113852,-100,4,2,1,60,0,0
114749,-100,4,2,1,5,0,0
114830,-100,4,2,1,60,0,0
116379,-100,4,2,1,5,0,0
116460,-100,4,2,1,60,0,0
117357,-100,4,2,1,5,0,0
117439,-100,4,2,1,60,0,0
118743,-100,4,2,1,55,0,0
155265,-100,4,2,1,70,0,0
156488,-100,4,2,1,5,0,0
156569,-100,4,2,1,70,0,0
157792,-100,4,2,1,5,0,0
157874,-100,4,2,1,70,0,0
159096,-100,4,2,1,5,0,0
159178,-100,4,2,1,70,0,0
161705,-100,4,2,1,5,0,0
161787,-100,4,2,1,70,0,0
167249,-100,4,2,1,70,0,0
167330,-100,4,2,1,70,0,0
169857,-100,4,2,1,70,0,0
169939,-100,4,2,1,70,0,0
176134,-100,4,2,1,30,0,0

[Colours]
Combo1 : 150,233,250
Combo2 : 135,149,245
Combo3 : 140,200,236
Combo4 : 172,155,238

[HitObjects]
77,35,14069,6,0,L|65:98,1,50,8|8,0:0|0:0,0:0:0:0:
60,134,14395,2,0,P|104:112|153:115,1,100,4|8,3:2|0:0,0:0:0:0:
232,176,15047,2,0,L|251:286,1,100,2|10,3:2|0:0,0:0:0:0:
260,328,15537,1,2,0:0:0:0:
260,328,15700,1,2,3:2:0:0:
350,371,16026,1,8,0:0:0:0:
436,321,16352,2,0,L|455:211,1,100,2|10,3:2|0:0,0:0:0:0:
465,177,16841,1,2,0:0:0:0:
465,177,17004,5,2,3:2:0:0:
384,118,17330,1,8,0:0:0:0:
312,187,17656,2,0,P|262:190|218:168,1,100,2|10,3:2|0:0,0:0:0:0:
190,134,18145,1,2,0:0:0:0:
190,134,18308,1,2,3:2:0:0:
102,182,18634,1,8,0:0:0:0:
33,109,18960,2,0,P|41:85|57:66,1,50,2|10,3:2|0:0,0:0:0:0:
70,16,19287,2,0,P|93:9|118:11,1,50,10|8,0:0|0:0,0:0:0:0:
159,40,19613,6,0,L|269:21,1,100,4|8,3:2|0:0,0:0:0:0:
321,99,20265,2,0,L|419:116,1,100,2|10,3:2|0:0,0:0:0:0:
472,133,20754,1,2,0:0:0:0:
472,133,20917,1,2,3:2:0:0:
512,225,21243,1,8,0:0:0:0:
445,298,21569,2,0,P|400:320|351:316,1,100,2|10,3:2|0:0,0:0:0:0:
313,293,22058,1,2,0:0:0:0:
313,293,22221,5,2,3:2:0:0:
231,350,22547,1,8,0:0:0:0:
144,300,22874,2,0,L|125:190,1,100,2|10,3:2|3:2,0:0:0:0:
121,156,23363,1,10,0:0:0:0:
121,156,23526,1,0,3:2:0:0:
62,74,23852,1,0,3:0:0:0:
131,2,24178,2,0,P|154:10|173:26,1,50,0|8,3:2|0:0,0:0:0:0:
224,39,24504,2,0,P|230:62|228:87,1,50,8|8,3:2|0:0,0:0:0:0:
208,132,24830,5,6,3:2:0:0:
125,189,25156,2,0,L|136:252,1,50,2|2,3:2|0:0,0:0:0:0:
145,286,25482,2,0,P|194:289|238:267,1,100,2|0,3:2|3:2,0:0:0:0:
312,199,26134,2,0,L|410:216,1,100,0|0,3:2|0:0,0:0:0:0:
501,176,26787,1,2,3:2:0:0:
491,77,27113,1,2,3:2:0:0:
393,56,27439,6,0,L|382:-7,2,50,2|2|2,3:2|0:0|3:2,0:0:0:0:
307,107,28091,2,0,P|257:103|214:126,1,100,2|0,3:2|3:2,0:0:0:0:
150,203,28743,2,0,L|170:314,1,100,0|0,3:2|3:2,0:0:0:0:
261,335,29395,2,0,L|252:384,2,50,2|2|2,3:2|0:0|3:2,0:0:0:0:
342,277,30047,5,2,3:2:0:0:
273,202,30374,2,0,L|262:139,1,50,2|2,3:2|0:0,0:0:0:0:
255,104,30700,2,0,P|299:82|348:85,1,100,2|0,3:2|3:2,0:0:0:0:
421,154,31352,2,0,L|404:253,1,100,0|0,3:2|3:2,0:0:0:0:
318,304,32004,2,0,L|327:354,2,50,2|2|2,3:2|0:0|3:2,0:0:0:0:
245,234,32656,5,2,3:2:0:0:
156,280,32982,2,0,L|145:343,1,50,2|2,3:2|0:0,0:0:0:0:
134,377,33308,2,0,P|84:380|40:358,1,100,2|0,3:2|3:2,0:0:0:0:
0,267,33960,2,0,L|19:157,1,100,0|0,3:2|3:2,0:0:0:0:
93,103,34613,2,0,P|117:106|138:119,1,50,0|8,3:2|0:0,0:0:0:0:
190,123,34939,2,0,P|199:144|202:169,1,50,8|8,3:2|0:0,0:0:0:0:
185,218,35265,6,0,L|295:198,1,100,6|10,3:2|0:0,0:0:0:0:
336,193,35754,1,2,0:0:0:0:
336,193,35917,1,2,3:2:0:0:
396,272,36243,2,0,L|445:280,1,50,10|2,0:0|0:0,0:0:0:0:
494,288,36569,2,0,P|516:243|512:194,1,100,2|8,3:2|0:0,0:0:0:0:
482,161,37058,1,2,0:0:0:0:
482,161,37221,2,0,L|462:51,1,100,2|10,3:2|0:0,0:0:0:0:
380,6,37874,6,0,P|330:2|286:24,1,100,2|10,3:2|0:0,0:0:0:0:
263,71,38363,1,2,0:0:0:0:
263,71,38526,1,2,3:2:0:0:
328,146,38852,2,0,L|317:209,1,50,10|2,0:0|0:0,0:0:0:0:
310,244,39178,2,0,L|211:261,1,100,2|8,3:2|0:0,0:0:0:0:
186,306,39667,1,2,0:0:0:0:
186,306,39830,2,0,P|136:309|92:287,1,100,2|10,3:2|0:0,0:0:0:0:
30,208,40482,6,0,L|50:98,1,100,2|10,3:2|0:0,0:0:0:0:
59,64,40971,1,2,0:0:0:0:
59,64,41134,1,2,3:2:0:0:
151,26,41460,1,8,0:0:0:0:
228,90,41787,2,0,P|272:67|321:71,1,100,0|10,3:2|0:0,0:0:0:0:
364,105,42276,1,2,0:0:0:0:
364,105,42439,2,0,L|345:215,1,100,2|10,3:2|0:0,0:0:0:0:
411,280,43091,6,0,P|366:302|317:298,1,100,2|10,3:2|0:0,0:0:0:0:
280,274,43580,1,2,0:0:0:0:
280,274,43743,2,0,L|181:291,1,100,2|8,3:2|0:0,0:0:0:0:
138,200,44395,1,2,3:2:0:0:
209,131,44721,1,10,3:2:0:0:
295,177,45047,1,10,3:2:0:0:
280,274,45374,2,0,P|324:296|373:292,1,100,2|2,3:2|0:0,0:0:0:0:
84,251,54830,6,0,P|80:300|102:344,2,100,2|2|2,0:0|0:0|0:0,0:0:0:0:
167,196,55808,1,6,3:0:0:0:
254,244,56134,6,0,L|352:227,1,100,6|10,3:2|0:0,0:0:0:0:
437,280,56787,1,2,3:2:0:0:
512,216,57113,1,8,0:0:0:0:
475,124,57439,2,0,P|430:101|381:105,1,100,2|10,3:2|0:0,0:0:0:0:
348,142,57928,1,2,0:0:0:0:
348,142,58091,1,2,3:2:0:0:
260,92,58417,1,10,0:0:0:0:
192,165,58743,6,0,L|211:275,1,100,2|10,3:2|0:0,0:0:0:0:
138,334,59395,1,2,3:2:0:0:
48,289,59721,1,8,0:0:0:0:
64,190,60047,2,0,L|83:80,1,100,2|10,3:2|0:0,0:0:0:0:
94,46,60537,1,2,0:0:0:0:
94,46,60700,2,0,L|157:35,1,50,2|10,3:2|0:0,0:0:0:0:
192,30,61026,1,10,0:0:0:0:
267,95,61352,6,0,P|289:139|285:188,1,100,6|10,3:2|0:0,0:0:0:0:
216,261,62004,1,2,3:2:0:0:
265,349,62330,1,8,0:0:0:0:
363,331,62656,2,0,L|473:312,1,100,2|10,3:2|0:0,0:0:0:0:
512,304,63145,1,2,0:0:0:0:
512,304,63308,1,2,3:2:0:0:
455,221,63634,1,10,0:0:0:0:
512,140,63960,6,0,P|515:90|493:46,1,100,2|10,3:2|0:0,0:0:0:0:
399,9,64613,1,2,3:2:0:0:
317,66,64939,1,10,3:2:0:0:
231,14,65265,2,0,L|132:31,1,100,0|0,3:2|3:0,0:0:0:0:
70,109,65917,2,0,P|78:132|94:151,1,50,8|8,3:2|0:0,0:0:0:0:
107,202,66243,2,0,P|130:208|155:206,1,50,8|8,3:2|0:0,0:0:0:0:
203,194,66569,6,0,L|183:305,1,100,4|0,3:2|0:0,0:0:0:0:
94,335,67221,2,0,L|102:384,2,50
18,269,67874,2,0,L|35:170,1,100
121,118,68526,2,0,L|112:68,2,50
207,168,69178,6,0,P|256:171|300:149,1,100
368,75,69830,2,0,L|357:12,2,50
455,123,70482,2,0,L|435:234,1,100
347,264,71134,2,0,L|355:313,1,50,8|8,3:2|3:0,0:0:0:0:
366,361,71460,1,8,3:2:0:0:
268,339,71787,6,0,P|218:342|174:320,1,100,4|8,3:2|0:0,0:0:0:0:
114,239,72439,2,0,L|133:129,1,100,2|10,3:2|0:0,0:0:0:0:
140,94,72928,1,2,0:0:0:0:
140,94,73091,1,2,3:2:0:0:
218,32,73417,1,8,0:0:0:0:
302,84,73743,2,0,L|321:194,1,100,2|10,3:2|0:0,0:0:0:0:
335,235,74232,1,2,0:0:0:0:
335,235,74395,5,2,3:2:0:0:
278,317,74721,1,8,0:0:0:0:
358,376,75047,2,0,P|407:379|451:357,1,100,2|10,3:2|0:0,0:0:0:0:
483,318,75537,1,2,0:0:0:0:
483,318,75700,1,2,3:2:0:0:
415,244,76026,1,8,0:0:0:0:
473,162,76352,2,0,P|465:139|449:120,1,50,2|10,3:2|0:0,0:0:0:0:
436,69,76678,2,0,P|413:63|388:65,1,50,10|8,0:0|0:0,0:0:0:0:
348,32,77004,6,0,L|238:51,1,100,4|8,3:2|0:0,0:0:0:0:
155,21,77656,2,0,P|151:70|174:113,1,100,2|10,3:2|0:0,0:0:0:0:
217,149,78145,1,2,0:0:0:0:
217,149,78308,1,2,3:2:0:0:
172,238,78634,1,8,0:0:0:0:
236,315,78960,2,0,P|192:338|143:334,1,100,2|10,3:2|0:0,0:0:0:0:
104,311,79450,1,2,0:0:0:0:
104,311,79613,5,2,3:2:0:0:
45,230,79939,1,8,0:0:0:0:
118,161,80265,2,0,L|135:62,1,100,2|10,3:2|3:2,0:0:0:0:
144,16,80754,1,10,0:0:0:0:
144,16,80917,1,0,3:2:0:0:
227,72,81243,1,0,3:0:0:0:
296,0,81569,2,0,P|320:9|339:25,1,50,0|8,3:2|0:0,0:0:0:0:
389,37,81895,2,0,P|396:61|394:86,1,50,8|8,3:2|0:0,0:0:0:0:
373,130,82221,5,6,3:2:0:0:
438,204,82547,2,0,L|487:195,2,50,0|0|2,3:2|0:0|3:2,0:0:0:0:
383,289,83200,1,0,3:2:0:0:
383,289,83363,2,0,L|272:269,1,100,2|2,0:0|0:0,0:0:0:0:
236,259,83852,1,0,3:2:0:0:
157,320,84178,1,0,3:2:0:0:
81,253,84504,2,0,L|70:190,1,50,0|0,3:2|0:0,0:0:0:0:
95,159,84830,6,0,P|45:162|2:139,2,100,2|0|2,3:2|3:2|3:2,0:0:0:0:
169,91,85808,1,0,3:2:0:0:
169,91,85971,2,0,L|280:111,1,100,2|2,0:0|0:0,0:0:0:0:
316,118,86460,1,0,3:2:0:0:
366,31,86787,2,0,P|409:7|458:10,1,100,0|0,0:0|3:2,0:0:0:0:
512,96,87439,5,2,3:2:0:0:
452,177,87765,1,2,3:2:0:0:
502,264,88091,1,2,3:2:0:0:
442,345,88417,1,0,3:2:0:0:
442,345,88580,2,0,P|392:349|349:326,1,100,2|2,0:0|0:0,0:0:0:0:
296,242,89232,2,0,L|315:132,1,100,2|2,0:0|0:0,0:0:0:0:
233,92,89884,1,2,0:0:0:0:
233,92,90047,6,0,P|236:42|213:-1,2,100,0|0|2,3:2|3:2|3:2,0:0:0:0:
155,156,91026,2,0,L|163:205,2,50,2|0|0,3:2|0:0|3:2,0:0:0:0:
331,314,92004,2,0,P|354:306|373:290,1,50,8|8,3:0|3:0,0:0:0:0:
424,277,92330,2,0,P|430:254|428:229,1,50,8|8,3:0|3:0,0:0:0:0:
403,185,92656,6,0,L|293:166,1,100,6|8,3:2|0:0,0:0:0:0:
260,159,93145,1,0,0:0:0:0:
260,159,93308,1,0,3:2:0:0:
175,212,93634,1,8,0:0:0:0:
86,165,93960,2,0,P|64:120|68:71,1,100,2|8,3:2|0:0,0:0:0:0:
93,30,94450,1,0,0:0:0:0:
93,30,94613,1,0,3:2:0:0:
188,0,94939,1,8,0:0:0:0:
259,69,95265,6,0,L|357:86,1,100,2|10,3:2|0:0,0:0:0:0:
453,60,95917,2,0,P|456:109|434:153,1,100,2|10,3:2|0:0,0:0:0:0:
338,181,96569,2,0,L|358:291,1,100,2|8,3:2|0:0,0:0:0:0:
366,332,97058,1,2,0:0:0:0:
366,332,97221,2,0,L|303:321,1,50,2|10,3:2|0:0,0:0:0:0:
284,361,97547,2,0,L|234:369,1,50,10|10,0:0|0:0,0:0:0:0:
185,377,97874,5,2,3:2:0:0:
124,297,98200,1,8,0:0:0:0:
196,228,98526,2,0,L|207:165,1,50,0|0,3:2|0:0,0:0:0:0:
212,132,98852,1,8,0:0:0:0:
212,132,99015,2,0,P|167:110|118:113,1,100,2|0,0:0|0:0,0:0:0:0:
72,134,99504,2,0,L|80:183,1,50,8|0,0:0|0:0,0:0:0:0:
90,232,99830,1,0,3:2:0:0:
186,262,100156,2,0,L|174:325,1,50,8|0,0:0|0:0,0:0:0:0:
165,359,100482,6,0,P|209:380|258:377,1,100,2|8,3:2|0:0,0:0:0:0:
325,301,101134,1,2,3:2:0:0:
272,215,101460,1,10,0:0:0:0:
341,142,101787,2,0,L|321:32,1,100,2|8,3:2|3:3,0:0:0:0:
413,0,102439,2,0,P|436:8|455:24,1,50,8|8,3:2|3:3,0:0:0:0:
506,37,102765,2,0,P|512:60|510:85,1,50,0|8,3:2|3:3,0:0:0:0:
475,121,103091,6,0,L|456:231,1,100,6|10,3:2|0:0,0:0:0:0:
371,269,103743,1,2,3:2:0:0:
291,208,104069,1,8,0:0:0:0:
225,282,104395,2,0,P|175:278|132:301,1,100,2|10,3:2|0:0,0:0:0:0:
104,344,104884,1,2,0:0:0:0:
104,344,105047,1,2,3:2:0:0:
26,281,105374,1,10,0:0:0:0:
78,195,105700,6,0,L|60:96,1,100,2|10,3:2|0:0,0:0:0:0:
125,19,106352,1,2,3:2:0:0:
208,74,106678,1,8,0:0:0:0:
289,17,107004,2,0,P|338:13|381:36,1,100,2|10,3:2|0:0,0:0:0:0:
414,82,107493,1,2,0:0:0:0:
414,82,107656,2,0,L|403:145,1,50,2|10,3:2|0:0,0:0:0:0:
368,164,107982,2,0,L|379:227,1,50,10|8,0:0|0:0,0:0:0:0:
386,262,108308,6,0,P|342:285|293:281,1,100,6|10,3:2|0:0,0:0:0:0:
225,208,108960,1,2,3:2:0:0:
266,117,109287,1,8,0:0:0:0:
201,40,109613,2,0,L|151:48,1,50,2|2,3:2|0:0,0:0:0:0:
118,10,109939,2,0,L|55:-1,1,50,10|2,0:0|0:0,0:0:0:0:
28,30,110265,1,2,3:2:0:0:
74,118,110591,1,10,0:0:0:0:
12,196,110917,6,0,P|8:245|31:288,1,100,2|10,3:2|0:0,0:0:0:0:
115,344,111569,1,2,3:2:0:0:
202,296,111895,1,10,3:2:0:0:
276,362,112221,2,0,L|374:379,1,100,0|0,3:2|3:0,0:0:0:0:
421,357,112710,1,8,0:0:0:0:
421,357,112874,2,0,P|439:341|452:320,1,50,8|8,3:2|0:0,0:0:0:0:
495,290,113200,2,0,P|492:266|482:243,1,50,8|8,3:2|0:0,0:0:0:0:
446,207,113526,5,0,3:2:0:0:
356,251,113852,1,0,3:2:0:0:
285,180,114178,2,0,L|304:69,1,100,8|0,0:0|3:2,0:0:0:0:
234,7,114830,1,0,3:2:0:0:
148,59,115156,2,0,L|129:170,1,100,8|4,3:3|3:3,0:0:0:0:
124,210,115645,1,8,0:0:0:0:
124,210,115808,1,0,3:2:0:0:
196,279,116134,5,0,3:2:0:0:
286,236,116460,1,0,3:2:0:0:
358,305,116787,2,0,L|456:288,1,100,8|0,0:0|3:2,0:0:0:0:
511,204,117439,2,0,L|499:141,1,50,8|8,0:0|3:3,0:0:0:0:
492,105,117765,2,0,L|393:121,1,100,4|8,3:3|0:0,0:0:0:0:
346,209,118417,1,8,0:0:0:0:
414,283,118743,6,0,L|405:332,1,50,4|0,3:2|0:0,0:0:0:0:
395,380,119069,2,0,P|346:384|303:361,1,100,8|0,0:0|3:2,0:0:0:0:
258,267,119721,1,8,0:0:0:0:
157,280,120047,1,0,3:2:0:0:
113,190,120374,1,8,0:0:0:0:
185,119,120700,2,0,L|283:136,1,100,2|8,3:2|0:0,0:0:0:0:
336,150,121189,1,0,0:0:0:0:
336,150,121352,6,2,L|327:100,2,50,0|2|10,3:2|0:0|0:0,0:0:0:0:
424,197,122004,2,0,P|428:246|405:289,1,100,2|8,3:2|0:0,0:0:0:0:
367,321,122493,1,2,0:0:0:0:
367,321,122656,2,0,L|304:310,1,50,2|0,3:2|0:0,0:0:0:0:
268,303,122982,1,8,0:0:0:0:
219,215,123308,1,0,3:2:0:0:
271,130,123634,1,8,0:0:0:0:
222,42,123960,6,0,L|123:59,1,100,6|10,3:2|0:0,0:0:0:0:
77,68,124450,1,2,0:0:0:0:
77,68,124613,2,0,P|73:117|96:160,1,100,2|8,3:2|0:0,0:0:0:0:
139,196,125102,1,0,0:0:0:0:
139,196,125265,2,0,L|238:179,1,100,2|8,3:2|0:0,0:0:0:0:
273,214,125754,2,0,L|372:231,1,100,2|0,0:0|0:0,0:0:0:0:
419,242,126243,1,10,0:0:0:0:
499,182,126569,6,0,P|503:133|480:90,1,100,0|8,3:2|0:0,0:0:0:0:
441,65,127058,1,0,0:0:0:0:
441,65,127221,2,0,L|330:84,1,100,0|8,3:2|0:0,0:0:0:0:
262,142,127874,2,0,L|253:191,1,50,2|2,3:2|0:0,0:0:0:0:
242,239,128200,1,8,0:0:0:0:
330,286,128526,2,0,L|338:335,1,50,0|2,3:2|0:0,0:0:0:0:
348,384,128852,1,8,0:0:0:0:
253,352,129178,6,0,P|209:328|160:332,1,100,6|8,3:2|0:0,0:0:0:0:
121,363,129667,1,2,0:0:0:0:
50,291,129993,2,0,L|-13:280,2,50,0|8|0,0:0|0:0|0:0,0:0:0:0:
89,260,130482,2,0,L|70:150,1,100,0|8,3:2|0:0,0:0:0:0:
63,112,130971,1,0,0:0:0:0:
130,38,131297,2,0,P|179:34|222:57,1,100,2|2,0:0|0:0,0:0:0:0:
251,98,131787,6,0,L|240:161,1,50,2|2,3:2|0:0,0:0:0:0:
236,200,132113,1,10,0:0:0:0:
236,200,132276,1,2,0:0:0:0:
309,267,132602,2,0,L|317:316,2,50,0|8|0,0:0|0:0|0:0,0:0:0:0:
345,232,133091,2,0,P|388:255|437:251,1,100,0|8,3:2|0:0,0:0:0:0:
484,169,133743,1,0,3:2:0:0:
420,99,134069,1,8,0:0:0:0:
333,138,134395,6,0,L|324:88,2,50,6|2|10,3:2|0:0|0:0,0:0:0:0:
303,177,134884,1,2,0:0:0:0:
229,108,135210,2,0,L|130:90,1,100,2|2,0:0|0:0,0:0:0:0:
81,80,135700,2,0,P|57:123|61:172,1,100,2|10,3:2|0:0,0:0:0:0:
85,216,136189,1,2,0:0:0:0:
11,283,136515,1,2,3:2:0:0:
11,283,136678,2,0,L|23:346,1,50,2|2,0:0|0:0,0:0:0:0:
56,366,137004,6,0,L|154:383,1,100,2|8,3:2|0:0,0:0:0:0:
192,350,137493,2,0,L|290:333,1,100,0|8,3:2|3:3,0:0:0:0:
338,320,137982,2,0,P|342:270|318:227,1,100,4|4,3:3|3:3,0:0:0:0:
278,197,138471,2,0,P|253:153|258:104,1,100,4|4,3:3|3:3,0:0:0:0:
286,63,138960,1,4,3:3:0:0:
379,99,139287,1,8,0:0:0:0:
450,28,139613,5,2,3:2:0:0:
256,192,139694,12,0,144830,0:0:0:0:
297,30,155265,6,0,L|407:49,1,100,6|10,3:2|0:0,0:0:0:0:
445,134,155917,1,2,3:2:0:0:
384,214,156243,1,8,0:0:0:0:
451,287,156569,2,0,L|500:278,2,50,2|2|10,3:2|0:0|0:0,0:0:0:0:
432,335,157058,1,2,0:0:0:0:
432,335,157221,1,2,3:2:0:0:
342,380,157547,1,10,0:0:0:0:
259,323,157874,6,0,P|255:273|277:229,1,100,2|10,3:2|0:0,0:0:0:0:
347,157,158526,1,2,3:2:0:0:
302,68,158852,1,8,0:0:0:0:
203,83,159178,2,0,L|194:132,2,50,2|2|10,3:2|0:0|0:0,0:0:0:0:
176,46,159667,1,2,0:0:0:0:
176,46,159830,2,0,P|152:41|127:45,1,50,2|10,3:2|0:0,0:0:0:0:
76,31,160156,2,0,P|59:47|48:70,1,50,8|10,0:0|0:0,0:0:0:0:
2,91,160482,6,0,L|18:191,1,100,6|10,3:2|0:0,0:0:0:0:
95,253,161134,1,2,3:2:0:0:
182,205,161460,1,8,0:0:0:0:
239,287,161787,2,0,L|289:295,1,50,2|2,3:2|0:0,0:0:0:0:
317,335,162113,2,0,L|366:326,1,50,10|2,0:0|0:0,0:0:0:0:
415,316,162439,1,2,3:2:0:0:
470,232,162765,1,10,0:0:0:0:
392,168,163091,6,0,P|343:164|300:187,1,100,2|10,3:2|0:0,0:0:0:0:
258,278,163743,1,2,3:2:0:0:
159,267,164069,1,10,3:2:0:0:
139,171,164395,2,0,L|122:73,1,100,0|0,3:2|3:0,0:0:0:0:
153,35,164884,1,8,0:0:0:0:
153,35,165047,2,0,P|175:27|200:26,1,50,8|8,3:2|0:0,0:0:0:0:
247,4,165374,2,0,P|266:18|281:38,1,50,8|8,3:2|0:0,0:0:0:0:
294,88,165700,6,0,L|343:79,1,50,2|0,3:2|0:0,0:0:0:0:
392,71,166026,1,10,0:0:0:0:
465,138,166352,2,0,P|468:187|445:230,1,100,2|10,3:2|0:0,0:0:0:0:
358,279,167004,2,0,L|308:270,1,50,2|0,3:2|0:0,0:0:0:0:
260,262,167330,1,10,0:0:0:0:
164,288,167656,2,0,P|160:239|184:196,1,100,2|10,3:2|0:0,0:0:0:0:
273,151,168308,6,0,L|322:142,1,50,2|0,3:2|0:0,0:0:0:0:
371,134,168634,1,10,0:0:0:0:
466,160,168960,2,0,P|469:110|446:67,1,100,2|10,3:2|0:0,0:0:0:0:
359,18,169613,2,0,L|309:9,1,50,2|0,3:2|0:0,0:0:0:0:
261,1,169939,1,10,0:0:0:0:
206,84,170265,2,0,P|225:98|240:118,1,50,10|0,0:0|3:2,0:0:0:0:
254,167,170591,1,10,3:2:0:0:
341,216,170917,6,0,L|321:326,1,100,6|10,3:2|0:0,0:0:0:0:
237,366,171569,1,2,3:2:0:0:
152,312,171895,1,10,0:0:0:0:
61,353,172221,2,0,L|43:254,1,100,2|10,3:2|0:0,0:0:0:0:
75,218,172710,1,2,0:0:0:0:
75,218,172874,2,0,P|98:210|123:212,1,50,2|2,3:2|0:0,0:0:0:0:
172,192,173200,2,0,P|190:207|203:228,1,50,10|10,0:0|0:0,0:0:0:0:
227,274,173526,6,0,L|325:291,1,100,0|8,3:2|0:0,0:0:0:0:
403,229,174178,2,0,L|394:179,1,50,0|0,3:2|3:2,0:0:0:0:
385,130,174504,1,10,0:0:0:0:
285,116,174830,1,2,3:2:0:0:
240,206,175156,1,2,3:2:0:0:
311,276,175482,2,0,P|305:299|291:320,1,50,10|8,3:2|0:0,0:0:0:0:
285,373,175808,2,0,P|262:381|237:381,1,50,10|8,3:2|0:0,0:0:0:0:
189,364,176134,6,0,L|169:253,1,100,4|0,3:2|3:2,0:0:0:0:
95,200,176787,2,0,L|32:189,2,50,0|0|0,3:2|0:0|3:2,0:0:0:0:
161,125,177439,2,0,P|204:101|253:105,1,100,0|0,3:2|3:2,0:0:0:0:
341,57,178091,2,0,L|352:-6,2,50,0|0|0,3:2|0:0|3:2,0:0:0:0:
418,120,178743,6,0,L|438:231,1,100,0|0,3:2|3:2,0:0:0:0:
357,281,179395,2,0,L|348:330,2,50,0|0|0,3:2|0:0|3:2,0:0:0:0:
278,218,180047,2,0,P|234:241|185:237,1,100,0|0,3:2|3:2,0:0:0:0:
120,161,180700,2,0,L|131:98,1,50,0|0,3:2|0:0,0:0:0:0:
138,62,181026,1,0,3:2:0:0:
219,4,181352,6,0,P|268:0|311:23,2,100,2|0|2,3:2|0:0|0:0,0:0:0:0:
138,62,182330,1,2,0:0:0:0:
191,146,182656,2,0,L|173:244,2,100,2|0|2,0:0|0:0|0:0,0:0:0:0:
287,120,183634,1,2,0:0:0:0:
364,183,183960,6,0,P|407:159|456:163,2,100,2|0|2,0:0|0:0|0:0,0:0:0:0:
301,260,184939,1,2,0:0:0:0:
217,205,185265,2,0,L|197:94,1,100,2|0,0:0|0:0,0:0:0:0:
117,49,185917,2,0,L|128:-14,2,50,2|0|2,0:0|0:0|0:0,0:0:0:0:
