osu file format v14

[General]
AudioFilename: audio.mp3
AudioLeadIn: 0
PreviewTime: 56053
Countdown: 0
SampleSet: Soft
StackLeniency: 0.7
Mode: 0
LetterboxInBreaks: 0
WidescreenStoryboard: 1

[Editor]
Bookmarks: 79613
DistanceSpacing: 1.6
BeatDivisor: 4
GridSize: 16
TimelineZoom: 1.82

[Metadata]
Title:Moua
TitleUnicode:モア
Artist:After the Rain
ArtistUnicode:After the Rain
Creator:nemidnight
Version:KoldNoodl's Insane
Source:
Tags:そらる×まふまふ モア みず希 Aちき rock jrock japanese koldnoodl crissa xen xenon soraru x mafumafu
BeatmapID:3272148
BeatmapSetID:1594928

[Difficulty]
HPDrainRate:5
CircleSize:4
OverallDifficulty:8
ApproachRate:9
SliderMultiplier:1.72
SliderTickRate:1

[Events]
//Background and Video events
0,0,"imgonline-com-ua-Resize-4E2NFZzKyImQxgs.jpg",0,0
//Break Periods
2,66769,70534
2,144830,154665
//Storyboard Layer 0 (Background)
//Storyboard Layer 1 (Fail)
//Storyboard Layer 2 (Pass)
//Storyboard Layer 3 (Foreground)
//Storyboard Layer 4 (Overlay)
//Storyboard Sound Samples

[TimingPoints]
3961,326.086956521739,4,2,1,70,1,0
14069,-100,4,2,1,70,0,0
14395,-100,4,2,1,55,0,0
14640,-100,4,2,1,5,0,0
14721,-100,4,2,1,55,0,0
15944,-100,4,2,1,5,0,0
16026,-100,4,2,1,55,0,0
17249,-100,4,2,1,5,0,0
17330,-100,4,2,1,55,0,0
18553,-100,4,2,1,5,0,0
18634,-100,4,2,1,55,0,0
19857,-100,4,2,1,5,0,0
19939,-100,4,2,1,55,0,0
21162,-100,4,2,1,5,0,0
21243,-100,4,2,1,55,0,0
22466,-100,4,2,1,5,0,0
22547,-100,4,2,1,55,0,0
24830,-100,4,2,1,30,0,0
25319,-125,4,2,1,30,0,0
34613,-111.111111111111,4,2,1,30,0,0
35265,-111.111111111111,4,2,1,50,0,0
45700,-1000,4,2,1,20,0,0
49287,-166.666666666667,4,2,1,20,0,0
50917,-1000,4,2,1,20,0,0
54830,-200,4,2,1,20,0,0
55482,-125,4,2,1,20,0,0
56134,-100,4,2,1,70,0,0
57357,-100,4,2,1,5,0,0
57439,-100,4,2,1,70,0,0
58662,-100,4,2,1,5,0,0
58743,-100,4,2,1,70,0,0
62575,-100,4,2,1,5,0,0
62656,-100,4,2,1,70,0,0
66569,-100,4,2,1,40,0,0
71460,-166.666666666667,4,2,1,40,0,0
71787,-100,4,2,1,55,0,0
72032,-100,4,2,1,5,0,0
72113,-100,4,2,1,55,0,0
73336,-100,4,2,1,5,0,0
73418,-100,4,2,1,55,0,0
74641,-100,4,2,1,5,0,0
74722,-100,4,2,1,55,0,0
75945,-100,4,2,1,5,0,0
76026,-100,4,2,1,55,0,0
77249,-100,4,2,1,5,0,0
77331,-100,4,2,1,55,0,0
78554,-100,4,2,1,5,0,0
78635,-100,4,2,1,55,0,0
79858,-100,4,2,1,5,0,0
79939,-100,4,2,1,55,0,0
82221,-125,4,2,1,30,0,0
92004,-111.111111111111,4,2,1,30,0,0
92656,-111.111111111111,4,2,1,40,0,0
95509,-111.111111111111,4,2,1,5,0,0
95591,-111.111111111111,4,2,1,40,0,0
98118,-111.111111111111,4,2,1,5,0,0
98200,-111.111111111111,4,2,1,40,0,0
102928,-100,4,2,1,40,0,0
103091,-100,4,2,1,70,0,0
104314,-100,4,2,1,5,0,0
104395,-100,4,2,1,70,0,0
105618,-100,4,2,1,5,0,0
105700,-100,4,2,1,70,0,0
109531,-100,4,2,1,5,0,0
109613,-100,4,2,1,70,0,0
113526,-100,4,2,1,60,0,0
113770,-100,4,2,1,5,0,0
113852,-100,4,2,1,60,0,0
114749,-100,4,2,1,5,0,0
114830,-100,4,2,1,60,0,0
116379,-100,4,2,1,5,0,0
116460,-100,4,2,1,60,0,0
117357,-100,4,2,1,5,0,0
117439,-100,4,2,1,60,0,0
118743,-111.111111111111,4,2,1,55,0,0
155265,-100,4,2,1,70,0,0
156488,-100,4,2,1,5,0,0
156569,-100,4,2,1,70,0,0
157792,-100,4,2,1,5,0,0
157874,-100,4,2,1,70,0,0
159096,-100,4,2,1,5,0,0
159178,-100,4,2,1,70,0,0
161705,-100,4,2,1,5,0,0
161787,-100,4,2,1,70,0,0
167249,-100,4,2,1,70,0,0
167330,-100,4,2,1,70,0,0
169857,-100,4,2,1,70,0,0
169939,-100,4,2,1,70,0,0
176134,-125,4,2,1,30,0,0
183471,-166.666666666667,4,2,1,30,0,0

[Colours]
Combo1 : 150,233,250
Combo2 : 135,149,245
Combo3 : 140,200,236
Combo4 : 172,155,238

[HitObjects]
16,279,14069,5,8,0:0:0:0:
44,265,14150,1,8,0:0:0:0:
76,267,14232,1,8,0:0:0:0:
102,285,14313,1,8,0:0:0:0:
116,314,14395,6,0,P|158:306|200:297,1,86,4|0,3:2|0:0,0:0:0:0:
365,352,14721,2,0,B|320:362|320:362|274:343|292:264,1,129,8|0,0:0|0:0,0:0:0:0:
293,258,15047,1,2,3:2:0:0:
152,193,15210,1,2,0:0:0:0:
278,82,15374,1,10,0:0:0:0:
236,189,15537,5,2,0:0:0:0:
236,189,15618,1,0,0:0:0:0:
236,189,15700,2,0,P|293:176|326:169,1,86,2|0,3:2|0:0,0:0:0:0:
188,65,16026,2,0,P|146:111|84:108,1,129,8|0,0:0|0:0,0:0:0:0:
50,92,16352,2,0,P|33:148|20:214,1,86,2|2,3:2|0:0,0:0:0:0:
163,238,16678,1,10,0:0:0:0:
58,328,16841,5,2,0:0:0:0:
58,328,16922,1,0,0:0:0:0:
58,328,17004,2,0,P|110:343|149:349,1,86,2|0,3:2|0:0,0:0:0:0:
278,216,17330,2,0,P|242:265|283:336,1,129,8|0,0:0|0:0,0:0:0:0:
279,347,17656,1,2,3:2:0:0:
445,250,17819,1,2,0:0:0:0:
375,384,17982,2,0,P|366:330|356:277,1,86,10|2,0:0|0:0,0:0:0:0:
356,263,18227,1,0,0:0:0:0:
356,263,18308,6,0,P|365:209|375:156,1,86,2|0,3:2|0:0,0:0:0:0:
481,75,18634,2,0,P|495:140|511:221,1,129,8|0,0:0|0:0,0:0:0:0:
512,236,18960,2,0,P|469:228|450:224,1,43,2|8,3:2|0:0,0:0:0:0:
355,98,19124,1,10,0:0:0:0:
155,248,19287,2,0,P|188:222|230:221,1,86,10|8,0:0|0:0,0:0:0:0:
261,241,19531,1,8,0:0:0:0:
261,241,19613,6,0,P|248:290|237:337,1,86,4|0,3:2|0:0,0:0:0:0:
70,287,19939,2,0,P|59:245|35:150,1,129,8|0,0:0|0:0,0:0:0:0:
30,123,20265,1,2,3:2:0:0:
156,31,20428,1,2,0:0:0:0:
124,175,20591,1,10,0:0:0:0:
251,87,20754,5,2,0:0:0:0:
251,87,20835,1,0,0:0:0:0:
251,87,20917,2,0,P|290:76|345:66,1,86,2|0,3:2|0:0,0:0:0:0:
479,46,21243,2,0,B|440:44|417:77|417:77|424:104|403:145,1,129,8|0,0:0|0:0,0:0:0:0:
382,160,21569,2,0,P|401:219|412:256,1,86,2|2,3:2|0:0,0:0:0:0:
488,164,21895,1,10,0:0:0:0:
336,290,22058,5,2,0:0:0:0:
336,290,22140,1,0,0:0:0:0:
336,290,22221,2,0,P|288:282|223:268,1,86,2|0,3:2|0:0,0:0:0:0:
136,372,22547,2,0,B|172:342|172:342|158:297|144:264,1,129,8|0,0:0|0:0,0:0:0:0:
131,234,22874,1,2,3:2:0:0:
161,113,23037,1,2,0:0:0:0:
268,193,23200,1,10,3:2:0:0:
184,28,23363,5,10,0:0:0:0:
184,28,23444,1,8,0:0:0:0:
184,28,23526,2,0,P|121:40|86:49,1,86,0|8,3:2|3:0,0:0:0:0:
73,58,23770,1,4,3:0:0:0:
73,58,23852,2,0,P|51:117|94:169,1,129,0|0,3:0|0:0,0:0:0:0:
118,181,24178,6,0,P|155:169|180:163,2,43,0|8|8,3:2|0:0|0:0,0:0:0:0:
313,126,24504,1,8,3:2:0:0:
266,42,24667,5,8,0:0:0:0:
266,42,24749,1,8,0:0:0:0:
266,42,24830,2,0,B|293:26|318:20|318:20|362:82|298:140,1,172,6|2,3:2|3:2,0:0:0:0:
323,214,25319,1,2,0:0:0:0:
323,214,25482,2,0,P|270:200|239:193,1,68.8,2|0,3:2|0:0,0:0:0:0:
156,279,25808,2,0,P|184:325|282:318,1,137.6,0|0,3:2|3:2,0:0:0:0:
334,296,26297,1,0,0:0:0:0:
484,368,26624,5,2,0:0:0:0:
484,368,26787,2,0,P|464:313|451:287,1,68.8,2|2,3:2|0:0,0:0:0:0:
395,181,27113,2,0,P|444:187|508:198,1,103.2,2|0,3:2|0:0,0:0:0:0:
497,195,27439,2,0,P|477:140|464:114,1,68.8,2|2,3:2|0:0,0:0:0:0:
428,29,27765,2,0,P|485:39|514:40,1,68.8,2|2,3:2|0:0,0:0:0:0:
370,99,28091,2,0,P|335:95|302:87,1,68.8,2|0,3:2|0:0,0:0:0:0:
239,21,28417,1,0,3:2:0:0:
172,183,28743,5,0,3:2:0:0:
172,183,28906,2,0,P|163:136|158:89,1,68.8,0|0,0:0|3:2,0:0:0:0:
59,186,29232,1,2,0:0:0:0:
171,273,29395,2,0,P|203:261|235:249,1,68.8,2|2,3:2|0:0,0:0:0:0:
87,324,29721,2,0,P|85:273|113:240,1,68.8,2|2,3:2|0:0,0:0:0:0:
258,170,30047,6,0,P|326:190|421:212,1,137.6,2|2,3:2|3:2,0:0:0:0:
505,129,30537,1,2,0:0:0:0:
406,215,30700,2,0,P|395:175|414:143,1,68.8,2|0,3:2|0:0,0:0:0:0:
498,277,31026,1,0,3:2:0:0:
498,277,31352,6,0,P|445:294|357:328,1,137.6,0|0,3:2|3:2,0:0:0:0:
231,286,31841,1,2,0:0:0:0:
231,286,32004,2,0,P|239:240|250:193,1,68.8,2|2,3:2|0:0,0:0:0:0:
329,186,32330,2,0,P|321:219|316:253,1,68.8,2|2,3:2|0:0,0:0:0:0:
160,217,32656,6,0,P|145:166|202:102,1,137.6,2|2,3:2|3:2,0:0:0:0:
67,217,33145,1,2,0:0:0:0:
67,217,33308,2,0,P|19:199|-19:189,1,68.8,2|0,3:2|0:0,0:0:0:0:
53,62,33634,1,0,3:2:0:0:
53,62,33960,6,0,P|64:105|71:144,1,68.8,0|0,3:2|0:0,0:0:0:0:
209,37,34287,2,0,P|198:80|191:119,1,68.8,0|0,3:2|0:0,0:0:0:0:
294,238,34613,5,0,3:2:0:0:
327,231,34694,1,8,0:0:0:0:
361,224,34776,1,8,0:0:0:0:
395,217,34857,1,8,0:0:0:0:
428,209,34939,2,0,P|428:188|425:170,3,38.6999988189698,8|8|8|8,3:2|0:0|0:0|0:0,0:0:0:0:
416,129,35265,6,0,P|356:146|300:73,1,154.799995275879,6|10,3:2|0:0,0:0:0:0:
120,153,35754,1,2,0:0:0:0:
193,103,35917,2,0,P|203:54|216:5,1,77.3999976379395,2|0,3:2|0:0,0:0:0:0:
246,183,36243,2,0,P|236:220|229:258,1,77.3999976379395,10|2,0:0|0:0,0:0:0:0:
88,293,36569,6,0,B|70:282|40:276|40:276|88:266|142:251,1,154.799995275879,2|8,3:2|0:0,0:0:0:0:
252,350,37058,1,2,0:0:0:0:
252,350,37221,2,0,P|196:340|146:330,1,77.3999976379395,2|2,3:2|0:0,0:0:0:0:
323,284,37547,2,0,P|346:239|317:172,1,116.099996456909,10|0,0:0|0:0,0:0:0:0:
301,145,37874,6,0,P|357:135|407:125,1,77.3999976379395,2|0,3:2|0:0,0:0:0:0:
437,0,38200,5,10,0:0:0:0:
366,56,38363,1,2,0:0:0:0:
281,41,38526,1,2,3:2:0:0:
448,75,38852,5,10,0:0:0:0:
377,131,39015,1,2,0:0:0:0:
292,116,39178,1,2,3:2:0:0:
432,229,39504,6,0,P|472:217|522:197,1,77.3999976379395,8|2,0:0|0:0,0:0:0:0:
404,343,39830,1,2,3:2:0:0:
404,343,39912,1,8,0:0:0:0:
404,343,39993,1,10,0:0:0:0:
497,298,40156,1,10,0:0:0:0:
322,216,40319,5,10,0:0:0:0:
322,216,40401,1,8,0:0:0:0:
322,216,40482,2,0,B|233:228|286:274|170:286,1,154.799995275879,2|10,3:2|0:0,0:0:0:0:
151,207,40971,1,2,0:0:0:0:
68,341,41134,2,0,P|79:289|92:243,1,77.3999976379395,2|0,3:2|0:0,0:0:0:0:
15,108,41460,1,8,0:0:0:0:
15,108,41787,6,0,P|84:88|116:79,1,77.3999976379395,0|0,3:2|0:0,0:0:0:0:
179,50,42113,1,10,0:0:0:0:
311,131,42276,1,2,0:0:0:0:
354,53,42439,2,0,P|306:39|276:31,1,77.3999976379395,2|2,3:2|0:0,0:0:0:0:
170,138,42765,2,0,P|217:128|248:93,1,77.3999976379395,10|2,0:0|0:0,0:0:0:0:
336,245,43091,6,0,B|255:222|255:222|210:249|234:296,1,154.799995275879,2|10,3:2|0:0,0:0:0:0:
393,353,43580,1,2,0:0:0:0:
393,353,43743,2,0,P|342:365|303:379,1,77.3999976379395,2|0,3:2|0:0,0:0:0:0:
448,270,44069,2,0,P|483:308|515:334,1,77.3999976379395,8|0,0:0|0:0,0:0:0:0:
336,245,44395,5,2,3:2:0:0:
421,112,44558,1,8,3:3:0:0:
421,112,44640,1,0,0:0:0:0:
421,112,44721,2,0,P|409:158|404:180,1,38.6999988189698,10|8,3:2|0:0,0:0:0:0:
286,86,44884,1,8,0:0:0:0:
286,86,44966,1,8,0:0:0:0:
286,86,45047,2,0,P|281:67|276:48,1,38.6999988189698,10|8,3:2|0:0,0:0:0:0:
331,165,45210,1,8,0:0:0:0:
184,86,45374,1,2,3:2:0:0:
184,86,45700,6,0,P|178:106|174:122,3,34.4,2|2|2|2,0:0|0:0|0:0|0:0,0:0:0:0:
123,180,48308,1,2,0:0:0:0:
47,365,49287,6,0,P|37:322|28:298,1,51.599998425293,2|2,0:0|0:0,0:0:0:0:
149,282,49613,2,0,P|141:327|126:402,1,103.199996850586,2|2,0:0|0:0,0:0:0:0:
291,206,50265,2,0,P|298:251|310:326,1,103.199996850586,2|2,0:0|0:0,0:0:0:0:
363,361,50917,6,0,P|385:353|397:350,3,34.4,2|2|2|2,0:0|0:0|0:0|0:0,0:0:0:0:
447,295,53526,1,2,0:0:0:0:
290,36,54830,6,0,P|299:76|310:128,1,86,2|2,0:0|0:0,0:0:0:0:
375,178,55482,6,0,P|364:242|352:324,1,137.6,2|6,0:0|3:0,0:0:0:0:
352,312,56134,6,0,P|312:298|270:290,1,86,6|0,3:2|0:0,0:0:0:0:
122,367,56460,2,0,P|170:356|198:318,1,86,10|0,0:0|0:0,0:0:0:0:
145,160,56787,2,0,P|134:223|127:287,1,129,2|0,3:2|0:0,0:0:0:0:
127,287,57113,6,0,P|76:274|41:263,1,86,8|0,0:0|0:0,0:0:0:0:
227,136,57439,2,0,P|185:148|144:159,1,86,2|2,3:2|0:0,0:0:0:0:
0,88,57765,1,10,0:0:0:0:
142,43,57928,1,2,0:0:0:0:
70,198,58091,2,0,P|66:144|92:101,1,86,2|0,3:2|0:0,0:0:0:0:
257,0,58417,6,0,B|219:37|219:37|232:68|249:131,1,129,10|0,0:0|0:0,0:0:0:0:
226,135,58743,2,0,P|267:124|308:112,1,86,2|0,3:2|0:0,0:0:0:0:
457,125,59069,2,0,P|438:80|423:31,1,86,10|0,0:0|0:0,0:0:0:0:
379,264,59395,2,0,P|355:208|412:154,1,129,2|0,3:2|0:0,0:0:0:0:
392,158,59721,6,0,P|445:174|481:192,1,86,8|0,0:0|0:0,0:0:0:0:
296,312,60047,2,0,P|283:258|280:217,1,86,2|2,3:2|0:0,0:0:0:0:
478,319,60374,2,0,P|437:356|404:379,1,86,10|2,0:0|0:0,0:0:0:0:
281,227,60700,5,2,3:2:0:0:
281,227,60781,1,8,0:0:0:0:
281,227,60863,1,10,0:0:0:0:
140,348,61026,2,0,P|129:306|124:263,1,86,10|8,0:0|0:0,0:0:0:0:
140,232,61270,1,8,0:0:0:0:
140,232,61352,6,0,P|150:190|155:147,1,86,6|0,3:2|0:0,0:0:0:0:
13,20,61678,2,0,P|44:57|105:62,1,86,10|0,0:0|0:0,0:0:0:0:
281,123,62004,2,0,P|208:137|130:151,1,129,2|0,3:2|0:0,0:0:0:0:
129,173,62330,6,0,P|87:162|45:153,1,86,8|0,0:0|0:0,0:0:0:0:
206,280,62656,2,0,P|247:289|289:299,1,86,2|2,3:2|0:0,0:0:0:0:
140,348,62982,1,10,0:0:0:0:
261,211,63145,1,2,0:0:0:0:
389,384,63308,2,0,B|421:358|421:358|398:273,1,129,2|0,3:2|0:0,0:0:0:0:
373,247,63634,6,0,P|384:191|393:135,1,86,10|0,0:0|0:0,0:0:0:0:
321,19,63960,2,0,P|298:54|306:96,1,86,2|0,3:2|0:0,0:0:0:0:
488,141,64287,2,0,P|510:105|502:63,1,86,10|0,0:0|0:0,0:0:0:0:
306,96,64613,2,0,P|232:116|141:136,1,129,2|0,3:2|0:0,0:0:0:0:
158,153,64939,2,0,P|174:200|185:237,1,86,10|8,3:2|0:0,0:0:0:0:
16,94,65265,5,0,3:2:0:0:
142,26,65428,1,8,3:0:0:0:
71,172,65591,1,0,3:0:0:0:
271,238,65754,5,8,0:0:0:0:
271,238,65835,1,8,0:0:0:0:
271,238,65917,2,0,P|259:206|248:177,1,43,8|8,3:2|0:0,0:0:0:0:
148,300,66080,1,8,0:0:0:0:
148,300,66161,1,8,0:0:0:0:
148,300,66243,2,0,P|160:268|171:239,1,43,8|8,3:2|0:0,0:0:0:0:
296,346,66406,1,8,0:0:0:0:
296,346,66488,1,8,0:0:0:0:
296,346,66569,1,4,3:2:0:0:
128,348,71134,5,8,3:2:0:0:
128,348,71216,1,8,0:0:0:0:
128,348,71297,1,8,3:0:0:0:
275,191,71460,2,0,P|221:210|187:220,1,77.3999976379395,8|0,3:2|0:0,0:0:0:0:
190,247,71787,6,0,P|199:289|209:330,1,86,4|0,3:2|0:0,0:0:0:0:
47,202,72113,2,0,P|110:201|152:131,1,129,8|0,0:0|0:0,0:0:0:0:
161,116,72439,1,2,3:2:0:0:
30,24,72602,1,2,0:0:0:0:
77,132,72766,1,10,0:0:0:0:
223,38,72929,5,2,0:0:0:0:
223,38,73010,1,0,0:0:0:0:
223,38,73092,2,0,P|280:25|313:18,1,86,2|0,3:2|0:0,0:0:0:0:
443,84,73417,2,0,P|401:101|382:188,1,129,8|0,0:0|0:0,0:0:0:0:
366,198,73743,2,0,P|317:185|277:173,1,86,2|2,3:2|0:0,0:0:0:0:
455,169,74070,1,10,0:0:0:0:
343,308,74233,5,2,0:0:0:0:
343,308,74314,1,0,0:0:0:0:
343,308,74396,2,0,P|395:293|434:287,1,86,2|0,3:2|0:0,0:0:0:0:
258,248,74721,2,0,B|223:274|223:274|167:283|128:221,1,129,8|0,0:0|0:0,0:0:0:0:
120,219,75048,1,2,3:2:0:0:
207,134,75211,1,2,0:0:0:0:
123,10,75374,2,0,P|130:52|137:94,1,86,10|2,0:0|0:0,0:0:0:0:
84,145,75619,1,0,0:0:0:0:
84,145,75700,6,0,P|42:136|0:129,1,86,2|0,3:2|0:0,0:0:0:0:
206,52,76026,2,0,P|275:68|360:82,1,129,8|0,0:0|0:0,0:0:0:0:
361,88,76352,2,0,P|354:120|348:146,1,43,2|8,3:2|0:0,0:0:0:0:
253,203,76515,1,10,0:0:0:0:
460,300,76679,2,0,P|426:273|384:273,1,86,10|8,0:0|0:0,0:0:0:0:
358,297,76923,1,8,0:0:0:0:
358,297,77005,6,0,P|347:255|336:213,1,86,4|0,3:2|0:0,0:0:0:0:
455,78,77330,2,0,B|490:106|490:106|502:151|459:182,1,129,8|0,0:0|0:0,0:0:0:0:
443,203,77657,1,2,3:2:0:0:
361,88,77820,1,2,0:0:0:0:
248,156,77983,1,10,0:0:0:0:
266,4,78145,5,2,0:0:0:0:
266,4,78227,1,0,0:0:0:0:
266,4,78308,2,0,P|278:54|285:98,1,86,2|0,3:2|0:0,0:0:0:0:
148,255,78634,2,0,B|119:228|119:228|110:178|154:147,1,129,8|0,0:0|0:0,0:0:0:0:
166,129,78960,2,0,P|214:147|259:157,1,86,2|2,3:2|0:0,0:0:0:0:
279,268,79287,1,10,0:0:0:0:
433,169,79450,5,2,0:0:0:0:
433,169,79531,1,0,0:0:0:0:
433,169,79613,2,0,P|385:187|340:197,1,86,2|0,3:2|0:0,0:0:0:0:
226,316,79939,2,0,P|288:305|335:367,1,129,8|0,0:0|0:0,0:0:0:0:
349,371,80265,1,2,3:2:0:0:
231,229,80428,1,2,0:0:0:0:
382,270,80591,1,10,3:2:0:0:
209,343,80754,5,10,0:0:0:0:
209,343,80835,1,8,0:0:0:0:
209,343,80917,2,0,P|149:333|85:321,1,86,0|8,3:2|3:0,0:0:0:0:
90,318,81162,1,4,3:0:0:0:
90,318,81243,2,0,P|66:259|116:201,1,129,0|0,3:0|0:0,0:0:0:0:
106,173,81569,6,0,P|138:167|157:163,2,43,0|8|8,3:2|0:0|0:0,0:0:0:0:
317,211,81895,2,0,P|361:210|380:148,1,86,8|8,3:2|0:0,0:0:0:0:
381,147,82140,1,8,0:0:0:0:
381,147,82221,6,0,P|329:134|245:116,1,137.6,6|0,3:2|3:2,0:0:0:0:
182,32,82710,1,0,0:0:0:0:
118,91,82874,2,0,P|136:137|145:185,2,68.8,2|0|0,3:2|0:0|3:2,0:0:0:0:
12,204,83363,2,0,P|73:206|92:276,1,137.6,2|2,0:0|0:0,0:0:0:0:
108,350,83852,6,0,P|73:345|40:337,1,68.8,0|0,3:2|0:0,0:0:0:0:
237,279,84178,2,0,P|202:283|169:291,1,68.8,0|0,3:2|0:0,0:0:0:0:
218,362,84504,1,0,3:2:0:0:
336,305,84667,5,0,0:0:0:0:
336,305,84830,2,0,P|321:257|311:221,1,68.8,2|0,3:2|0:0,0:0:0:0:
245,189,85156,1,0,3:2:0:0:
245,189,85319,1,0,0:0:0:0:
326,117,85482,2,0,B|403:123|366:168|463:186,1,137.6,2|0,3:2|3:2,0:0:0:0:
507,129,85971,1,2,0:0:0:0:
376,24,86134,6,0,P|320:37|288:40,1,68.8,0|2,3:2|0:0,0:0:0:0:
228,111,86460,1,0,3:2:0:0:
228,111,86624,2,0,P|173:100|85:74,1,137.6
39,17,87113,1,0,3:2:0:0:
159,175,87276,5,0,0:0:0:0:
88,237,87439,2,0,P|81:203|72:169,1,68.8,2|0,3:2|0:0,0:0:0:0:
197,270,87765,2,0,P|188:303|181:337,1,68.8,2|0,3:2|0:0,0:0:0:0:
287,218,88091,2,0,P|366:214|399:287,1,137.6,2|0,3:2|3:2,0:0:0:0:
461,322,88580,6,0,P|404:342|372:348,1,68.8,2|0,0:0|3:2,0:0:0:0:
305,380,88906,2,0,P|316:320|326:289,1,68.8,2|0,0:0|3:2,0:0:0:0:
393,142,89232,2,0,P|408:196|416:264,1,103.2,2|0,0:0|0:0,0:0:0:0:
397,255,89558,2,0,P|343:244|325:228,1,68.8,2|0,0:0|3:2,0:0:0:0:
287,165,89884,1,2,0:0:0:0:
170,205,90047,6,0,P|186:271|200:339,1,137.6,0|0,3:2|3:2,0:0:0:0:
258,240,90537,1,0,0:0:0:0:
180,120,90700,2,0,P|146:127|113:137,1,68.8,2|0,3:2|0:0,0:0:0:0:
56,204,91026,1,2,3:2:0:0:
121,48,91189,1,0,0:0:0:0:
225,57,91352,5,0,3:2:0:0:
325,178,92004,5,8,3:0:0:0:
292,185,92085,1,8,3:0:0:0:
258,192,92167,1,8,3:0:0:0:
224,199,92248,1,8,0:0:0:0:
191,207,92330,2,0,P|191:228|193:245,3,38.6999988189698,8|8|8|8,3:0|3:0|3:0|3:0,0:0:0:0:
201,290,92656,6,0,P|261:273|317:346,1,154.799995275879,6|8,3:2|0:0,0:0:0:0:
452,306,93145,1,0,0:0:0:0:
379,256,93308,2,0,P|369:207|356:158,1,77.3999976379395,0|0,3:2|0:0,0:0:0:0:
471,94,93634,2,0,P|461:131|454:169,1,77.3999976379395,8|0,0:0|0:0,0:0:0:0:
334,91,93960,6,0,B|252:101|292:158|191:167,1,154.799995275879,2|8,3:2|0:0,0:0:0:0:
90,98,94450,1,0,0:0:0:0:
180,21,94613,2,0,P|170:75|165:114,1,77.3999976379395,0|0,3:2|0:0,0:0:0:0:
141,251,94939,1,8,0:0:0:0:
31,193,95102,1,0,0:0:0:0:
164,265,95265,6,0,P|220:255|270:245,1,77.3999976379395,2|0,3:2|0:0,0:0:0:0:
258,339,95591,2,0,P|219:346|181:352,1,77.3999976379395,10|2,0:0|0:0,0:0:0:0:
340,183,95917,6,0,P|378:190|417:197,1,77.3999976379395,2|0,3:2|0:0,0:0:0:0:
399,284,96243,2,0,P|361:278|322:271,1,77.3999976379395,10|0,0:0|0:0,0:0:0:0:
286,266,96488,1,0,0:0:0:0:
286,266,96569,2,0,P|245:208|280:117,1,154.799995275879,2|8,3:2|0:0,0:0:0:0:
408,59,97058,5,2,0:0:0:0:
303,9,97221,1,2,3:2:0:0:
303,9,97303,1,8,0:0:0:0:
303,9,97384,1,10,0:0:0:0:
341,116,97547,1,10,0:0:0:0:
197,84,97710,5,10,0:0:0:0:
197,84,97792,1,8,0:0:0:0:
197,84,97873,2,0,B|108:96|161:142|45:154,1,154.799995275879,2|8,3:2|0:0,0:0:0:0:
66,75,98363,1,0,0:0:0:0:
49,240,98526,1,0,3:2:0:0:
49,240,98689,1,0,0:0:0:0:
189,169,98851,1,8,0:0:0:0:
209,265,99015,2,0,P|140:245|108:236,1,77.3999976379395,2|0,0:0|3:2,0:0:0:0:
262,200,99341,5,0,0:0:0:0:
308,305,99504,1,8,0:0:0:0:
191,352,99667,1,0,0:0:0:0:
338,230,99830,2,0,P|407:210|439:201,1,77.3999976379395,0|0,3:2|0:0,0:0:0:0:
262,200,100156,1,8,0:0:0:0:
321,70,100319,5,0,0:0:0:0:
321,70,100401,1,0,0:0:0:0:
321,70,100482,2,0,B|240:47|240:47|195:74|219:121,1,154.799995275879,2|8,3:2|0:0,0:0:0:0:
119,180,100971,1,0,0:0:0:0:
119,180,101134,2,0,P|68:192|29:206,1,77.3999976379395,2|0,3:2|0:0,0:0:0:0:
71,39,101460,2,0,P|106:77|138:103,1,77.3999976379395,10|0,0:0|0:0,0:0:0:0:
224,203,101786,5,2,3:2:0:0:
354,98,101949,1,8,3:3:0:0:
354,98,102031,1,0,0:0:0:0:
354,98,102112,2,0,P|342:144|337:166,1,38.6999988189698,8|8,3:3|3:3,0:0:0:0:
315,266,102275,1,8,3:3:0:0:
315,266,102357,1,8,3:3:0:0:
315,266,102439,2,0,P|310:247|305:228,1,38.6999988189698,8|8,3:2|3:3,0:0:0:0:
446,197,102602,1,8,3:3:0:0:
446,197,102683,1,8,3:3:0:0:
446,197,102765,2,0,P|441:216|436:235,1,38.6999988189698,0|8,3:2|3:3,0:0:0:0:
342,354,102928,5,8,3:3:0:0:
342,354,103009,1,8,3:3:0:0:
342,354,103091,2,0,P|280:338|241:325,1,86,6|0,3:2|0:0,0:0:0:0:
115,270,103417,2,0,P|96:310|113:360,1,86,10|0,0:0|0:0,0:0:0:0:
226,245,103743,2,0,P|210:188|190:116,1,129,2|0,3:2|0:0,0:0:0:0:
191,120,104069,6,0,P|133:109|87:102,1,86,8|0,0:0|0:0,0:0:0:0:
0,276,104395,2,0,P|58:265|104:258,1,86,2|2,3:2|0:0,0:0:0:0:
242,232,104721,1,10,0:0:0:0:
87,182,104884,1,2,0:0:0:0:
185,328,105047,2,0,P|166:258|151:210,1,86,2|0,3:2|0:0,0:0:0:0:
337,119,105374,6,0,P|391:146|389:207,1,129,10|0,0:0|0:0,0:0:0:0:
381,205,105700,6,0,P|338:196|296:189,1,86,2|0,3:2|0:0,0:0:0:0:
182,87,106026,2,0,P|165:126|152:167,1,86,10|0,0:0|0:0,0:0:0:0:
337,119,106352,2,0,P|358:62|306:6,1,129,2|0,3:2|0:0,0:0:0:0:
320,10,106678,2,0,P|264:23|215:30,1,86,8|0,0:0|0:0,0:0:0:0:
200,53,106922,1,0,0:0:0:0:
200,53,107004,6,0,P|157:45|115:35,1,86,2|2,3:2|0:0,0:0:0:0:
67,115,107330,1,10,0:0:0:0:
28,35,107494,5,2,0:0:0:0:
0,197,107656,1,2,3:2:0:0:
0,197,107738,1,8,0:0:0:0:
0,197,107819,1,10,0:0:0:0:
200,176,107982,2,0,P|181:132|144:118,1,86,10|8,0:0|0:0,0:0:0:0:
67,115,108227,1,8,0:0:0:0:
67,115,108308,6,0,P|82:159|93:206,1,86,6|0,3:2|0:0,0:0:0:0:
24,360,108634,2,0,P|13:318|0:277,1,86,10|0,0:0|0:0,0:0:0:0:
221,334,108960,2,0,P|181:337|137:258,1,129,2|0,3:2|0:0,0:0:0:0:
136,271,109287,6,0,P|195:252|239:241,1,86,8|0,0:0|0:0,0:0:0:0:
298,110,109613,2,0,P|239:91|195:80,1,86,2|2,3:2|0:0,0:0:0:0:
328,226,109939,1,10,0:0:0:0:
417,142,110102,1,2,0:0:0:0:
417,142,110183,1,0,0:0:0:0:
417,142,110265,2,0,P|401:91|387:47,1,86,2|0,3:2|0:0,0:0:0:0:
489,223,110591,2,0,P|476:263|445:356,1,129,10|0,0:0|0:0,0:0:0:0:
448,345,110917,6,0,P|402:353|349:366,1,86,2|0,3:2|0:0,0:0:0:0:
251,224,111243,2,0,P|296:219|336:273,1,86,10|0,0:0|0:0,0:0:0:0:
180,325,111569,2,0,P|136:274|164:203,1,129,2|0,3:2|0:0,0:0:0:0:
148,218,111895,2,0,P|137:169|125:129,1,86,10|8,3:2|0:0,0:0:0:0:
168,35,112221,5,0,3:2:0:0:
57,177,112384,1,8,3:0:0:0:
4,8,112547,1,0,3:0:0:0:
147,147,112710,5,8,0:0:0:0:
147,147,112792,1,8,0:0:0:0:
147,147,112874,2,0,P|191:136|201:135,1,43,8|8,3:2|0:0,0:0:0:0:
301,32,113037,1,8,0:0:0:0:
301,32,113119,1,8,0:0:0:0:
301,32,113201,2,0,P|257:21|247:20,1,43,8|8,3:2|0:0,0:0:0:0:
296,158,113363,1,8,0:0:0:0:
296,158,113444,1,8,0:0:0:0:
296,158,113526,6,0,P|336:109|416:137,1,129,0|0,3:2|0:0,0:0:0:0:
456,167,113852,6,0,P|443:229|430:308,1,129,0|0,3:2|0:0,0:0:0:0:
385,354,114178,6,0,P|344:339|333:336,3,43,8|8|8|8,0:0|0:0|0:0|0:0,0:0:0:0:
316,314,114504,6,0,B|236:327|279:368|171:380,1,129,0|0,3:2|0:0,0:0:0:0:
136,333,114830,1,0,3:2:0:0:
205,225,114993,5,8,0:0:0:0:
205,225,115075,1,8,0:0:0:0:
205,225,115156,2,0,L|196:273,3,43,8|8|4|4,3:3|3:3|3:3|3:3,0:0:0:0:
77,213,115482,1,4,3:3:0:0:
151,140,115645,5,8,0:0:0:0:
153,125,115726,1,8,0:0:0:0:
156,111,115808,1,0,3:2:0:0:
158,97,115889,1,8,0:0:0:0:
161,83,115971,1,8,3:2:0:0:
163,69,116052,1,8,0:0:0:0:
166,55,116134,6,0,B|211:67|211:67|229:99|229:99|273:111,1,129,0|0,3:2|0:0,0:0:0:0:
381,107,116460,6,0,B|344:140|344:140|362:235,1,129,0|0,3:2|0:0,0:0:0:0:
305,278,116787,6,0,P|268:264|246:257,3,43,8|8|8|8,0:0|0:0|0:0|0:0,0:0:0:0:
238,290,117113,6,0,P|226:331|218:373,1,86,0|0,3:2|0:0,0:0:0:0:
117,276,117439,2,0,P|137:270|158:264,1,43,8|4,0:0|3:3,0:0:0:0:
289,195,117602,2,0,P|283:174|277:153,1,43,8|8,3:3|3:3,0:0:0:0:
203,30,117765,5,4,3:3:0:0:
161,38,117846,1,4,3:3:0:0:
134,71,117928,1,4,3:3:0:0:
133,113,118009,1,4,3:3:0:0:
159,147,118091,2,0,P|192:134|217:122,3,43,8|8|8|4,0:0|0:0|3:3|3:3,0:0:0:0:
277,153,118417,6,0,P|296:232|311:312,1,129,8|0,0:0|0:0,0:0:0:0:
376,370,118743,5,4,3:2:0:0:
470,312,118906,1,0,0:0:0:0:
371,198,119069,2,0,P|382:250|390:299,1,77.3999976379395,8|0,0:0|0:0,0:0:0:0:
480,190,119395,6,0,P|490:130|507:53,1,116.099996456909,0|0,3:2|0:0,0:0:0:0:
505,44,119721,2,0,P|462:31|412:10,1,77.3999976379395,8|0,0:0|0:0,0:0:0:0:
329,103,120047,5,0,3:2:0:0:
228,85,120210,2,0,P|239:121|250:159,1,77.3999976379395,0|8,0:0|0:0,0:0:0:0:
290,27,120537,1,0,0:0:0:0:
154,137,120700,6,0,L|109:128,3,38.6999988189698,2|2|2|2,3:2|0:0|0:0|0:0,0:0:0:0:
43,225,121026,6,0,L|88:216,3,38.6999988189698,8|0|0|0,0:0|0:0|0:0|0:0,0:0:0:0:
29,128,121352,5,0,3:2:0:0:
220,300,121515,5,2,0:0:0:0:
233,205,121678,2,2,P|165:222|135:237,1,77.3999976379395,10|2,0:0|0:0,0:0:0:0:
321,234,122004,5,2,3:2:0:0:
321,234,122085,1,2,0:0:0:0:
321,234,122167,1,2,0:0:0:0:
251,130,122330,2,0,L|258:89,3,38.6999988189698,8|0|2|2,0:0|0:0|0:0|0:0,0:0:0:0:
313,36,122656,6,0,B|400:37|358:91|481:101,1,154.799995275879,2|8,3:2|0:0,0:0:0:0:
329,129,123145,1,0,0:0:0:0:
426,245,123308,2,0,P|416:198|407:152,1,77.3999976379395,0|0,3:2|0:0,0:0:0:0:
279,305,123634,2,0,P|287:267|294:229,1,77.3999976379395,8|0,0:0|0:0,0:0:0:0:
166,110,123960,5,6,3:2:0:0:
138,117,124041,1,2,0:0:0:0:
109,125,124123,1,2,0:0:0:0:
81,132,124204,1,2,0:0:0:0:
53,139,124286,1,10,0:0:0:0:
85,236,124450,5,2,0:0:0:0:
98,239,124531,1,2,0:0:0:0:
113,243,124613,1,2,3:2:0:0:
127,247,124694,1,2,0:0:0:0:
141,250,124776,1,2,0:0:0:0:
277,332,124939,6,0,P|269:307|263:279,3,38.6999988189698,8|0|0|0,0:0|0:0|0:0|0:0,0:0:0:0:
237,272,125265,6,0,P|247:224|264:168,1,77.3999976379395,2|0,3:2|0:0,0:0:0:0:
268,163,125509,1,0,0:0:0:0:
268,163,125591,1,8,0:0:0:0:
424,112,125754,1,2,0:0:0:0:
424,112,125835,1,2,0:0:0:0:
424,112,125917,1,0,3:2:0:0:
312,29,126080,5,0,0:0:0:0:
324,65,126161,1,0,0:0:0:0:
335,102,126243,1,10,0:0:0:0:
343,140,126324,1,2,0:0:0:0:
350,178,126406,2,0,L|354:233,1,38.6999988189698
422,349,126569,6,0,P|465:306|428:222,1,154.799995275879,0|8,3:2|0:0,0:0:0:0:
265,297,127058,1,0,0:0:0:0:
265,297,127221,2,0,P|307:304|350:318,1,77.3999976379395,0|0,3:2|0:0,0:0:0:0:
179,222,127547,1,8,0:0:0:0:
125,326,127710,1,0,0:0:0:0:
21,224,127874,5,2,3:2:0:0:
21,224,127955,2,0,P|33:170|47:130,1,77.3999976379395,2|0,0:0|0:0,0:0:0:0:
69,123,128200,5,8,0:0:0:0:
69,123,128281,2,0,P|57:69|43:29,1,77.3999976379395,2|0,0:0|0:0,0:0:0:0:
72,16,128526,6,0,L|111:22,3,38.6999988189698,0|2|2|2,3:2|0:0|0:0|0:0,0:0:0:0:
184,15,128852,6,0,P|216:61|301:50,1,116.099996456909,8|0,0:0|0:0,0:0:0:0:
339,32,129178,6,0,P|324:88|316:137,1,77.3999976379395,6|0,3:2|0:0,0:0:0:0:
297,249,129504,1,8,0:0:0:0:
482,213,129667,2,0,P|440:164|367:184,1,116.099996456909,2|0,0:0|0:0,0:0:0:0:
372,184,129993,5,0,0:0:0:0:
278,170,130156,1,8,0:0:0:0:
184,156,130319,1,0,0:0:0:0:
125,260,130482,6,0,P|168:253|209:242,1,77.3999976379395,0|0,3:2|0:0,0:0:0:0:
145,341,130808,1,8,0:0:0:0:
35,304,130971,2,0,P|25:254|37:178,1,116.099996456909
32,157,131297,5,2,0:0:0:0:
152,92,131460,1,10,0:0:0:0:
41,33,131624,5,2,0:0:0:0:
41,33,131705,1,0,0:0:0:0:
41,33,131787,1,2,3:2:0:0:
112,162,131950,1,2,0:0:0:0:
224,38,132113,1,10,0:0:0:0:
313,144,132276,2,0,P|260:132|211:123,1,77.3999976379395,2|0,0:0|3:2,0:0:0:0:
146,252,132602,5,0,0:0:0:0:
289,215,132765,1,8,0:0:0:0:
182,351,132928,1,0,0:0:0:0:
367,265,133091,2,0,P|423:272|455:356,2,154.799995275879,0|8|0,3:2|0:0|3:2,0:0:0:0:
296,347,133906,1,0,0:0:0:0:
461,263,134069,6,0,P|450:213|439:146,1,116.099996456909,8|0,0:0|0:0,0:0:0:0:
432,111,134395,2,0,P|490:126|529:132,1,77.3999976379395,6|2,3:2|0:0,0:0:0:0:
356,178,134721,1,10,0:0:0:0:
261,40,134884,2,0,P|191:50|170:104,1,116.099996456909,2|0,0:0|0:0,0:0:0:0:
126,107,135210,6,0,P|144:170|163:275,1,154.799995275879,2|2,0:0|0:0,0:0:0:0:
52,352,135700,2,0,P|56:302|95:267,1,77.3999976379395,2|0,3:2|0:0,0:0:0:0:
245,322,136026,1,10,0:0:0:0:
245,322,136189,1,2,0:0:0:0:
146,378,136352,5,0,3:2:0:0:
146,378,136433,1,8,0:0:0:0:
146,378,136515,1,2,3:2:0:0:
236,239,136678,1,2,0:0:0:0:
402,356,136841,1,2,0:0:0:0:
332,240,137004,5,2,3:2:0:0:
245,322,137167,2,0,P|255:360|261:385,2,38.6999988189698,8|8|8,0:0|0:0|0:0,0:0:0:0:
149,170,137493,5,0,3:2:0:0:
332,240,137656,2,0,P|322:278|316:303,2,38.6999988189698,8|8|8,0:0|0:0|3:3,0:0:0:0:
429,55,137982,5,4,3:3:0:0:
457,61,138063,1,4,3:3:0:0:
478,80,138145,1,4,3:3:0:0:
487,107,138226,1,4,3:3:0:0:
482,135,138308,1,4,3:3:0:0:
307,165,138471,5,4,3:3:0:0:
279,171,138552,1,4,3:3:0:0:
258,190,138634,1,4,3:3:0:0:
249,217,138715,1,4,3:3:0:0:
254,245,138797,1,4,3:3:0:0:
425,361,138960,6,0,L|413:319,3,38.6999988189698,4|8|4|8,3:3|0:0|3:3|0:0,0:0:0:0:
384,299,139287,2,0,P|395:244|406:202,1,77.3999976379395,8|8,0:0|0:0,0:0:0:0:
412,192,139531,1,8,0:0:0:0:
412,192,139613,1,2,3:2:0:0:
256,192,139694,12,2,142221,0:0:0:0:
356,191,155265,6,0,P|342:150|323:111,1,86,6|0,3:2|0:0,0:0:0:0:
463,33,155591,2,0,P|444:71|430:112,1,86,10|0,0:0|0:0,0:0:0:0:
364,276,155917,2,0,P|298:259|279:176,1,129,2|0,3:2|0:0,0:0:0:0:
273,207,156243,6,0,P|220:231|177:248,1,86,8|0,0:0|0:0,0:0:0:0:
88,345,156569,2,0,P|59:298|72:250,1,86,2|2,3:2|0:0,0:0:0:0:
172,162,156895,1,10,0:0:0:0:
224,316,157058,1,2,0:0:0:0:
81,181,157221,2,0,P|19:202|-23:211,1,86,2|0,3:2|0:0,0:0:0:0:
231,223,157547,6,0,B|264:185|264:185|235:77,1,129,10|0,0:0|0:0,0:0:0:0:
243,109,157874,2,0,P|309:127|336:139,1,86,2|0,3:2|0:0,0:0:0:0:
474,195,158200,2,0,P|458:137|453:92,1,86,10|0,0:0|0:0,0:0:0:0:
343,234,158526,2,0,B|323:295|323:295|373:351,1,129,2|0,3:2|0:0,0:0:0:0:
374,369,158852,6,0,P|421:350|466:338,1,86,8|0,0:0|0:0,0:0:0:0:
245,266,159178,2,0,P|237:316|225:361,1,86,2|2,3:2|0:0,0:0:0:0:
398,205,159504,2,0,P|358:173|325:140,1,86,10|2,0:0|0:0,0:0:0:0:
346,278,159830,1,2,3:2:0:0:
346,278,159912,1,8,0:0:0:0:
346,278,159993,1,10,0:0:0:0:
140,206,160156,2,0,P|181:196|223:185,1,86,8|10,0:0|0:0,0:0:0:0:
241,160,160401,1,8,0:0:0:0:
241,160,160482,6,0,P|223:108|213:68,1,86,6|0,3:2|0:0,0:0:0:0:
45,218,160808,2,0,P|63:166|73:126,1,86,10|0,0:0|0:0,0:0:0:0:
188,279,161134,2,0,P|145:323|182:398,1,129,2|0,3:2|0:0,0:0:0:0:
161,384,161460,2,0,P|207:369|263:356,1,86,8|0,0:0|0:0,0:0:0:0:
407,338,161787,1,2,3:2:0:0:
271,253,161950,1,2,0:0:0:0:
381,192,162113,2,0,P|358:244|346:295,1,86,10|2,0:0|0:0,0:0:0:0:
481,139,162439,2,0,P|457:91|378:79,1,129,2|0,3:2|0:0,0:0:0:0:
387,75,162765,6,0,P|374:33|366:-7,1,86,10|0,0:0|0:0,0:0:0:0:
230,0,163091,2,0,P|221:42|208:82,1,86,2|0,3:2|0:0,0:0:0:0:
315,215,163417,2,0,P|301:174|293:132,1,86,10|0,0:0|0:0,0:0:0:0:
128,103,163743,2,0,P|151:155|245:161,1,129,2|0,3:2|0:0,0:0:0:0:
216,173,164069,2,0,P|207:215|194:255,1,86,10|8,3:2|0:0,0:0:0:0:
33,354,164395,5,0,3:2:0:0:
112,238,164558,1,8,3:0:0:0:
259,325,164721,1,0,3:0:0:0:
304,219,164884,5,8,0:0:0:0:
304,219,164966,1,8,0:0:0:0:
304,219,165047,2,0,P|294:178|289:156,1,43,8|8,3:2|0:0,0:0:0:0:
193,257,165210,2,0,P|188:277|182:298,1,43,8|8,0:0|0:0,0:0:0:0:
351,338,165374,1,8,3:2:0:0:
386,315,165455,1,8,0:0:0:0:
406,277,165537,1,8,0:0:0:0:
404,235,165618,1,8,0:0:0:0:
380,199,165700,6,0,P|388:156|400:115,1,86,2|0,3:2|0:0,0:0:0:0:
256,53,166026,2,0,P|268:94|275:136,1,86,10|0,0:0|0:0,0:0:0:0:
55,241,166352,6,0,P|47:198|35:157,1,86,2|0,3:2|0:0,0:0:0:0:
179,95,166678,2,0,P|166:136|159:178,1,86,10|0,0:0|0:0,0:0:0:0:
125,339,167004,5,2,3:2:0:0:
205,257,167167,1,0,0:0:0:0:
112,355,167330,2,0,P|64:342|21:333,1,86,10|0,0:0|0:0,0:0:0:0:
218,243,167656,2,0,P|266:230|309:221,1,86,2|0,3:2|0:0,0:0:0:0:
121,89,167982,2,0,B|93:118|93:118|141:101|190:92,1,129,10|0,0:0|0:0,0:0:0:0:
178,94,168308,6,0,P|214:136|209:176,1,86,2|0,3:2|0:0,0:0:0:0:
86,252,168634,2,0,P|104:200|141:184,1,86,10|0,0:0|0:0,0:0:0:0:
301,222,168960,1,2,3:2:0:0:
218,243,169124,1,0,0:0:0:0:
304,127,169287,2,0,P|369:144|442:161,1,129,10|0,0:0|0:0,0:0:0:0:
465,165,169613,6,0,P|450:114|445:74,1,86,2|0,3:2|0:0,0:0:0:0:
281,305,169939,2,0,P|293:264|300:221,1,86,10|0,0:0|0:0,0:0:0:0:
362,358,170265,1,10,0:0:0:0:
362,358,170346,1,8,0:0:0:0:
362,358,170428,1,0,3:2:0:0:
218,243,170591,1,10,3:2:0:0:
131,304,170754,5,0,3:0:0:0:
131,304,170835,1,0,3:0:0:0:
131,304,170917,2,0,P|72:289|12:277,1,86,6|0,3:2|0:0,0:0:0:0:
193,128,171243,2,0,P|209:186|229:244,1,86,10|0,0:0|0:0,0:0:0:0:
74,154,171569,2,0,P|46:110|76:26,1,129,2|0,3:2|0:0,0:0:0:0:
62,38,171895,6,0,P|115:53|157:64,1,86,10|2,0:0|0:0,0:0:0:0:
302,62,172221,5,2,3:2:0:0:
193,128,172384,1,2,0:0:0:0:
312,55,172547,1,10,0:0:0:0:
183,136,172710,1,2,0:0:0:0:
365,187,172874,5,2,3:2:0:0:
281,147,173037,1,2,0:0:0:0:
341,286,173200,1,10,0:0:0:0:
429,118,173363,5,10,0:0:0:0:
429,118,173444,1,8,0:0:0:0:
429,118,173526,2,0,P|483:127|524:136,1,86,0|0,3:2|3:2,0:0:0:0:
341,286,173852,2,0,P|285:303|231:318,1,86,8|0,0:0|0:0,0:0:0:0:
210,367,174096,1,0,0:0:0:0:
210,367,174178,6,0,P|171:354|154:348,1,43,0|0,3:2|0:0,0:0:0:0:
54,283,174341,2,0,P|93:270|110:264,1,43,0|0,3:2|0:0,0:0:0:0:
193,189,174504,2,0,P|179:138|166:84,1,86,10|0,0:0|0:0,0:0:0:0:
164,70,174749,1,0,0:0:0:0:
164,70,174830,5,2,3:2:0:0:
259,108,174993,1,0,3:2:0:0:
104,183,175156,1,2,3:2:0:0:
281,220,175319,1,8,0:0:0:0:
281,220,175401,1,8,0:0:0:0:
281,220,175482,6,0,L|328:204,3,43,10|8|8|8,3:2|0:0|0:0|0:0,0:0:0:0:
395,121,175808,2,0,L|348:105,3,43,10|8|8|8,3:2|0:0|0:0|0:0,0:0:0:0:
488,197,176134,6,0,P|475:247|458:342,2,137.6,4|0|0,3:2|3:2|3:2,0:0:0:0:
380,285,176950,1,0,0:0:0:0:
357,302,177113,1,0,3:2:0:0:
329,301,177276,1,0,0:0:0:0:
203,235,177439,6,0,P|142:247|108:321,2,137.6,0|0|0,3:2|3:2|3:2,0:0:0:0:
288,182,178254,1,0,0:0:0:0:
275,157,178417,1,0,3:2:0:0:
249,146,178580,1,0,0:0:0:0:
112,15,178743,6,0,P|127:75|154:168,2,137.6,0|0|0,3:2|3:2|3:2,0:0:0:0:
60,148,179558,1,0,0:0:0:0:
44,171,179721,1,0,3:2:0:0:
48,199,179884,1,0,0:0:0:0:
185,314,180047,6,0,P|241:297|275:289,1,68.8,0|0,3:2|0:0,0:0:0:0:
312,227,180374,2,0,P|377:243|450:269,1,137.6,0|0,3:2|3:2,0:0:0:0:
443,266,180863,1,0,0:0:0:0:
511,176,181026,2,0,P|498:133|481:67,1,103.2,0|0,3:2|0:0,0:0:0:0:
477,42,181352,5,2,3:2:0:0:
477,42,181515,1,0,3:2:0:0:
361,127,181841,1,0,3:2:0:0:
217,349,182656,5,2,3:2:0:0:
217,349,182819,1,0,3:2:0:0:
104,279,183145,1,0,3:2:0:0:
104,278,183471,6,0,P|107:253|112:228,2,51.599998425293,0|2|0,3:2|3:2|3:2,0:0:0:0:
60,157,183960,5,2,3:2:0:0:
60,157,184124,1,0,3:2:0:0:
178,68,184450,1,0,3:2:0:0:
326,191,185265,5,2,3:2:0:0:
326,191,185428,1,0,3:2:0:0:
222,277,185754,1,0,3:2:0:0:
355,292,185917,6,0,P|323:276|305:269,1,51.599998425293,2|0,0:0|0:0,0:0:0:0:
394,364,186243,1,2,0:0:0:0:
