osu file format v14

[General]
AudioFilename: audio.mp3
AudioLeadIn: 0
PreviewTime: 56053
Countdown: 0
SampleSet: Soft
StackLeniency: 0.7
Mode: 0
LetterboxInBreaks: 0
WidescreenStoryboard: 1

[Editor]
Bookmarks: 14395,24830,35265,45700,56134,66569,71787,82221,92656,103091,113526,118743,129178,139613,155265,165700,170917,176134,181352
DistanceSpacing: 1.2
BeatDivisor: 4
GridSize: 16
TimelineZoom: 1.82

[Metadata]
Title:Moua
TitleUnicode:モア
Artist:After the Rain
ArtistUnicode:After the Rain
Creator:nemidnight
Version:Crissa's Hard
Source:
Tags:そらる×まふまふ モア みず希 Aちき rock jrock japanese koldnoodl crissa xen xenon soraru x mafumafu
BeatmapID:3337995
BeatmapSetID:1594928

[Difficulty]
HPDrainRate:4.5
CircleSize:3.4
OverallDifficulty:7
ApproachRate:8
SliderMultiplier:1.5
SliderTickRate:1

[Events]
//Background and Video events
0,0,"imgonline-com-ua-Resize-4E2NFZzKyImQxgs.jpg",0,0
//Break Periods
2,45900,54080
2,145030,151580
//Storyboard Layer 0 (Background)
//Storyboard Layer 1 (Fail)
//Storyboard Layer 2 (Pass)
//Storyboard Layer 3 (Foreground)
//Storyboard Layer 4 (Overlay)
//Storyboard Sound Samples

[TimingPoints]
3961,326.086956521739,4,2,1,70,1,0
14395,-100,4,2,1,55,0,0
14640,-100,4,2,1,5,0,0
14721,-100,4,2,1,55,0,0
15944,-100,4,2,1,5,0,0
16026,-100,4,2,1,55,0,0
17249,-100,4,2,1,5,0,0
17330,-100,4,2,1,55,0,0
18553,-100,4,2,1,5,0,0
18634,-100,4,2,1,55,0,0
19857,-100,4,2,1,5,0,0
19939,-100,4,2,1,55,0,0
21162,-100,4,2,1,5,0,0
21243,-100,4,2,1,55,0,0
22466,-100,4,2,1,5,0,0
22547,-100,4,2,1,55,0,0
24830,-125,4,2,1,30,0,0
35265,-111.111111111111,4,2,1,50,0,0
45700,-111.111111111111,4,2,1,20,0,0
56134,-90.9090909090909,4,2,1,70,0,1
57357,-90.9090909090909,4,2,1,5,0,1
57439,-90.9090909090909,4,2,1,70,0,1
58662,-90.9090909090909,4,2,1,5,0,1
58743,-90.9090909090909,4,2,1,70,0,1
62575,-90.9090909090909,4,2,1,5,0,1
62656,-90.9090909090909,4,2,1,70,0,1
66569,-111.111111111111,4,2,1,40,0,0
71787,-99.9999999999999,4,2,1,55,0,0
72032,-99.9999999999999,4,2,1,5,0,0
72113,-99.9999999999999,4,2,1,55,0,0
73336,-99.9999999999999,4,2,1,5,0,0
73418,-99.9999999999999,4,2,1,55,0,0
74641,-99.9999999999999,4,2,1,5,0,0
74722,-99.9999999999999,4,2,1,55,0,0
75945,-99.9999999999999,4,2,1,5,0,0
76026,-99.9999999999999,4,2,1,55,0,0
77249,-99.9999999999999,4,2,1,5,0,0
77331,-99.9999999999999,4,2,1,55,0,0
78554,-99.9999999999999,4,2,1,5,0,0
78635,-99.9999999999999,4,2,1,55,0,0
79858,-99.9999999999999,4,2,1,5,0,0
79939,-99.9999999999999,4,2,1,55,0,0
82221,-125,4,2,1,30,0,0
92004,-100,4,2,1,30,0,0
92656,-100,4,2,1,40,0,0
95509,-100,4,2,1,5,0,0
95591,-100,4,2,1,40,0,0
98118,-100,4,2,1,5,0,0
98200,-100,4,2,1,40,0,0
103091,-90.9090909090909,4,2,1,70,0,1
104314,-90.9090909090909,4,2,1,5,0,1
104395,-90.9090909090909,4,2,1,70,0,1
105618,-90.9090909090909,4,2,1,5,0,1
105700,-90.9090909090909,4,2,1,70,0,1
109531,-90.9090909090909,4,2,1,5,0,1
109613,-90.9090909090909,4,2,1,70,0,1
113526,-100,4,2,1,60,0,0
113770,-100,4,2,1,5,0,0
113852,-100,4,2,1,60,0,0
114749,-100,4,2,1,5,0,0
114830,-100,4,2,1,60,0,0
116379,-100,4,2,1,5,0,0
116460,-100,4,2,1,60,0,0
117357,-100,4,2,1,5,0,0
117439,-100,4,2,1,60,0,0
118743,-111.111111111111,4,2,1,55,0,0
136678,-99.9999999999999,4,2,1,55,0,0
152330,-125,4,2,1,55,0,0
155265,-90.9090909090909,4,2,1,70,0,1
156488,-90.9090909090909,4,2,1,5,0,1
156569,-90.9090909090909,4,2,1,70,0,1
157792,-90.9090909090909,4,2,1,5,0,1
157874,-90.9090909090909,4,2,1,70,0,1
159096,-90.9090909090909,4,2,1,5,0,1
159178,-90.9090909090909,4,2,1,70,0,1
161705,-90.9090909090909,4,2,1,5,0,1
161787,-90.9090909090909,4,2,1,70,0,1
165700,-86.9565217391304,4,2,1,70,0,0
167249,-86.9565217391304,4,2,1,70,0,0
167330,-86.9565217391304,4,2,1,70,0,0
169857,-86.9565217391304,4,2,1,70,0,0
169939,-86.9565217391304,4,2,1,70,0,0
170917,-90.9090909090909,4,2,1,70,0,1
176134,-111.111111111111,4,2,1,30,0,0
181352,-125,4,2,1,30,0,0

[Colours]
Combo1 : 150,233,250
Combo2 : 135,149,245
Combo3 : 140,200,236
Combo4 : 172,155,238

[HitObjects]
83,297,14069,5,8,0:0:0:0:
161,252,14232,1,8,0:0:0:0:
161,252,14314,1,8,0:0:0:0:
161,252,14395,6,0,L|141:116,1,112.5,4|0,3:2|0:0,0:0:0:0:
118,119,14721,2,0,P|112:84|140:48,1,75,8|0,0:0|0:0,0:0:0:0:
262,29,15047,1,2,3:2:0:0:
235,110,15210,1,2,0:0:0:0:
282,29,15374,2,0,P|308:63|312:103,1,75,10|2,0:0|0:0,0:0:0:0:
308,197,15700,6,0,B|343:217|373:201|370:194|404:187|430:205,1,112.5,2|0,3:2|0:0,0:0:0:0:
445,220,16026,2,0,L|459:129,1,75,8|0,0:0|0:0,0:0:0:0:
387,23,16352,1,2,3:2:0:0:
309,69,16515,1,2,0:0:0:0:
340,154,16678,2,0,P|351:189|355:233,1,75,10|2,0:0|0:0,0:0:0:0:
276,296,17004,6,0,P|240:258|159:265,1,112.5,2|0,3:2|0:0,0:0:0:0:
162,273,17330,2,0,P|121:285|76:265,1,75,8|0,0:0|0:0,0:0:0:0:
44,151,17656,1,2,3:2:0:0:
124,192,17819,1,2,0:0:0:0:
25,161,17982,2,0,P|48:120|83:110,1,75,10|2,0:0|0:0,0:0:0:0:
172,123,18308,6,0,P|235:140|245:207,1,112.5,2|0,3:2|0:0,0:0:0:0:
257,209,18634,2,0,P|239:246|229:296,1,75,8|0,0:0|0:0,0:0:0:0:
148,315,18960,1,2,3:2:0:0:
148,315,19042,1,8,0:0:0:0:
148,315,19124,1,10,0:0:0:0:
53,340,19287,2,0,P|45:302|22:256,1,75,10|8,0:0|0:0,0:0:0:0:
8,256,19531,5,8,0:0:0:0:
8,256,19613,2,0,P|12:204|79:185,1,112.5,4|0,3:2|0:0,0:0:0:0:
76,200,19939,2,0,P|118:216|159:203,1,75,8|0,0:0|0:0,0:0:0:0:
245,128,20265,1,2,3:2:0:0:
333,144,20428,1,2,0:0:0:0:
342,233,20591,2,0,P|335:263|311:312,1,75,10|2,0:0|0:0,0:0:0:0:
408,361,20917,6,0,P|443:355|458:268,1,112.5,2|0,3:2|0:0,0:0:0:0:
483,265,21243,2,0,L|466:170,1,75,8|0,0:0|0:0,0:0:0:0:
346,142,21569,1,2,3:2:0:0:
427,104,21732,1,2,0:0:0:0:
356,163,21895,2,0,L|332:245,1,75,10|2,0:0|0:0,0:0:0:0:
389,327,22221,6,0,L|255:347,1,112.5,2|0,3:2|0:0,0:0:0:0:
263,365,22547,2,0,P|215:364|191:328,1,75,8|0,0:0|0:0,0:0:0:0:
185,220,22874,1,2,3:2:0:0:
261,267,23037,1,2,0:0:0:0:
322,201,23200,2,0,P|326:155|309:120,1,75,10|10,3:2|0:0,0:0:0:0:
290,113,23444,5,8,0:0:0:0:
290,113,23526,2,0,L|197:105,1,75,0|8,3:2|3:0,0:0:0:0:
97,220,23852,2,0,B|109:202|109:202|224:196,1,112.5,0|0,3:0|0:0,0:0:0:0:
220,214,24178,2,0,L|205:282,2,37.5,0|8|8,3:2|0:0|0:0,0:0:0:0:
303,168,24504,1,8,3:2:0:0:
399,206,24667,5,8,0:0:0:0:
399,206,24749,1,8,0:0:0:0:
399,206,24830,2,0,P|445:186|435:102,1,120,6|2,3:2|3:2,0:0:0:0:
407,39,25319,1,2,0:0:0:0:
407,39,25482,6,0,L|268:57,2,120,2|0|0,3:2|3:2|3:2,0:0:0:0:
314,134,26460,2,0,L|241:141,1,60,0|2,0:0|0:0,0:0:0:0:
187,198,26787,2,0,P|144:155|92:155,1,90,2|0,3:2|0:0,0:0:0:0:
99,168,27113,2,0,P|60:185|50:225,1,60,2|0,3:2|0:0,0:0:0:0:
98,312,27439,6,0,P|124:287|129:242,2,60,2|2|2,3:2|0:0|3:2,0:0:0:0:
17,364,27928,1,2,0:0:0:0:
17,364,28091,2,0,P|70:341|145:355,2,120,2|0|0,3:2|3:2|3:2,0:0:0:0:
91,256,29069,2,0,P|119:243|153:241,1,60,0|2,3:2|0:0,0:0:0:0:
235,260,29395,1,2,3:2:0:0:
219,349,29558,2,0,P|183:348|144:320,2,60,2|2|2,0:0|3:2|0:0,0:0:0:0:
334,319,30047,6,0,P|356:267|326:203,1,120,2|2,3:2|3:2,0:0:0:0:
257,170,30537,1,2,0:0:0:0:
257,170,30700,2,0,P|250:126|316:91,2,120,2|0|0,3:2|3:2|3:2,0:0:0:0:
179,328,31678,2,0,L|185:260,1,60,0|2,3:2|0:0,0:0:0:0:
107,217,32004,1,2,3:2:0:0:
19,247,32167,1,2,0:0:0:0:
89,207,32330,2,0,L|78:131,1,60,2|2,3:2|0:0,0:0:0:0:
58,17,32656,6,0,P|70:44|167:52,1,120,2|2,3:2|3:2,0:0:0:0:
231,12,33145,1,2,0:0:0:0:
231,12,33308,2,0,P|296:7|336:55,2,120,2|0|0,3:2|3:2|3:2,0:0:0:0:
189,179,34287,2,0,L|261:172,1,60,0|0,3:2|0:0,0:0:0:0:
340,150,34613,2,0,L|332:196,2,30,0|8|8,3:2|0:0|0:0,0:0:0:0:
413,102,34939,1,8,3:2:0:0:
430,106,35020,1,8,0:0:0:0:
444,109,35102,1,8,0:0:0:0:
499,199,35265,6,0,P|453:195|405:270,1,134.999995880127,6|10,3:2|0:0,0:0:0:0:
415,351,35754,1,2,0:0:0:0:
385,261,35917,2,0,P|331:235|256:287,1,134.999995880127,2|10,3:2|0:0,0:0:0:0:
191,330,36406,1,2,0:0:0:0:
191,330,36569,6,0,L|171:173,1,134.999995880127,2|8,3:2|0:0,0:0:0:0:
85,193,37058,1,2,0:0:0:0:
85,193,37221,2,0,L|100:101,2,67.4999979400635,2|2|10,3:2|0:0|0:0,0:0:0:0:
8,342,37874,6,0,L|155:320,1,134.999995880127,2|10,3:2|0:0,0:0:0:0:
214,269,38363,1,2,0:0:0:0:
214,269,38526,2,0,L|302:285,1,67.4999979400635,2|0,3:2|0:0,0:0:0:0:
350,351,38852,2,0,L|371:275,1,67.4999979400635,10|2,0:0|0:0,0:0:0:0:
343,200,39178,6,0,P|389:249|471:236,1,134.999995880127,2|8,3:2|0:0,0:0:0:0:
507,167,39667,1,2,0:0:0:0:
484,77,39830,2,0,P|447:96|436:126,1,67.4999979400635,2|10,3:2|0:0,0:0:0:0:
343,117,40156,2,0,P|340:158|362:185,1,67.4999979400635,10|10,0:0|0:0,0:0:0:0:
452,247,40482,6,0,B|413:232|387:263|392:265|374:295|328:284,1,134.999995880127,2|10,3:2|0:0,0:0:0:0:
261,338,40971,1,2,0:0:0:0:
261,338,41134,2,0,P|216:319|218:223,2,134.999995880127,2|8|0,3:2|0:0|3:2,0:0:0:0:
390,205,42113,1,10,0:0:0:0:
303,234,42276,1,2,0:0:0:0:
266,149,42439,2,0,P|281:117|319:101,1,67.4999979400635,2|2,3:2|0:0,0:0:0:0:
357,30,42765,2,0,P|392:26|425:51,1,67.4999979400635,10|2,0:0|0:0,0:0:0:0:
478,139,43091,6,0,P|409:140|371:204,1,134.999995880127,2|10,3:2|0:0,0:0:0:0:
381,290,43580,1,2,0:0:0:0:
381,290,43743,2,0,P|337:344|271:339,1,134.999995880127,2|8,3:2|0:0,0:0:0:0:
167,204,44395,5,2,3:2:0:0:
256,226,44558,1,8,3:3:0:0:
233,134,44721,2,0,B|209:130|209:130|175:153|175:153|138:144,1,101.249996910095,10|8,3:2|0:0,0:0:0:0:
110,151,45047,2,0,L|102:102,3,33.7499989700318,10|8|8|8,3:2|0:0|0:0|0:0,0:0:0:0:
81,160,45374,2,0,B|64:196|96:228|100:223|122:248|117:284,1,134.999995880127,2|2,3:2|0:0,0:0:0:0:
380,358,54830,6,0,L|393:231,1,101.249996910095,2|0,0:0|0:0,0:0:0:0:
408,239,55156,2,0,L|396:124,1,101.249996910095,2|0,0:0|0:0,0:0:0:0:
408,119,55482,2,0,L|246:102,1,134.999995880127,2|6,0:0|3:0,0:0:0:0:
30,52,56134,6,0,P|95:62|115:129,1,123.75000377655,6|0,3:2|0:0,0:0:0:0:
144,136,56460,2,0,L|123:231,1,82.5000025177003,10|0,0:0|0:0,0:0:0:0:
24,344,56787,2,0,P|96:314|171:308,1,123.75000377655,2|0,3:2|0:0,0:0:0:0:
175,292,57113,2,0,P|213:304|252:333,1,82.5000025177003,8|0,0:0|0:0,0:0:0:0:
342,384,57439,6,0,L|349:289,1,82.5000025177003,2|2,3:2|0:0,0:0:0:0:
321,173,57765,1,10,0:0:0:0:
416,208,57928,1,2,0:0:0:0:
311,190,58091,2,0,L|212:200,1,82.5000025177003,2|0,3:2|0:0,0:0:0:0:
177,115,58417,2,0,L|259:106,1,82.5000025177003,10|0,0:0|0:0,0:0:0:0:
406,123,58743,6,0,P|349:105|345:45,1,123.75000377655,2|0,3:2|0:0,0:0:0:0:
368,20,59069,2,0,L|458:11,1,82.5000025177003,10|0,0:0|0:0,0:0:0:0:
509,150,59395,2,0,P|466:205|451:284,1,123.75000377655,2|0,3:2|0:0,0:0:0:0:
419,274,59721,2,0,P|426:325|443:358,1,82.5000025177003,8|0,0:0|0:0,0:0:0:0:
319,315,60047,6,0,P|302:274|356:200,1,123.75000377655,2|0,3:2|0:0,0:0:0:0:
373,200,60374,1,10,0:0:0:0:
434,124,60537,1,2,0:0:0:0:
392,34,60700,2,0,P|357:63|359:111,1,82.5000025177003,2|10,3:2|0:0,0:0:0:0:
446,133,61026,1,10,0:0:0:0:
500,218,61189,5,8,0:0:0:0:
494,235,61270,1,8,0:0:0:0:
488,252,61352,2,0,P|436:220|359:212,1,123.75000377655,6|0,3:2|0:0,0:0:0:0:
345,187,61678,2,0,P|285:201|262:221,1,82.5000025177003,10|0,0:0|0:0,0:0:0:0:
195,356,62004,2,0,L|170:208,1,123.75000377655,2|0,3:2|0:0,0:0:0:0:
144,211,62330,2,0,L|149:119,1,82.5000025177003,8|0,0:0|0:0,0:0:0:0:
78,20,62656,6,0,P|26:30|8:103,1,123.75000377655,2|0,3:2|0:0,0:0:0:0:
21,124,62982,1,10,0:0:0:0:
96,191,63145,1,2,0:0:0:0:
32,269,63308,2,0,L|23:351,1,82.5000025177003,2|0,3:2|0:0,0:0:0:0:
108,372,63634,2,0,L|116:289,1,82.5000025177003,10|0,0:0|0:0,0:0:0:0:
188,181,63960,6,0,B|231:209|231:258|218:254|207:302|247:329,2,165.000005035401,2|10|2,3:2|0:0|3:2,0:0:0:0:
278,36,64939,2,0,P|265:82|231:100,1,82.5000025177003,10|8,3:2|0:0,0:0:0:0:
139,90,65265,1,0,3:2:0:0:
77,17,65428,1,8,3:0:0:0:
0,73,65591,2,0,P|20:107|34:163,1,82.5000025177003,0|8,3:0|0:0,0:0:0:0:
66,173,65835,1,8,0:0:0:0:
66,173,65917,2,0,L|55:223,3,41.2500012588501,8|8|8|8,3:2|0:0|0:0|0:0,0:0:0:0:
92,247,66243,2,0,L|65:296,2,41.2500012588501,8|8|8,3:2|0:0|0:0,0:0:0:0:
146,316,66569,6,0,P|183:337|254:280,1,134.999995880127,4|0,3:2|0:0,0:0:0:0:
329,336,67221,2,0,P|366:313|351:224,1,134.999995880127
229,168,67874,6,0,L|375:143,1,134.999995880127
372,24,68526,2,0,L|518:49,1,134.999995880127
491,171,69178,6,0,P|446:206|425:288,1,134.999995880127
316,221,69830,2,0,P|313:321|335:364,1,134.999995880127
187,374,70482,6,0,L|52:354,1,134.999995880127
21,232,71134,1,8,3:2:0:0:
39,239,71216,1,8,0:0:0:0:
57,246,71297,1,8,3:0:0:0:
141,192,71460,1,8,3:2:0:0:
310,291,71787,6,0,P|332:240|336:169,1,112.5,4|0,3:2|0:0,0:0:0:0:
361,160,72113,2,0,P|349:120|323:86,1,75,8|0,0:0|0:0,0:0:0:0:
184,80,72439,1,2,3:2:0:0:
261,33,72602,1,2,0:0:0:0:
200,99,72765,2,0,P|186:132|182:186,1,75,10|2,0:0|0:0,0:0:0:0:
256,274,73091,6,0,P|194:252|142:273,1,112.5,2|0,3:2|0:0,0:0:0:0:
132,292,73417,2,0,L|113:375,1,75,8|0,0:0|0:0,0:0:0:0:
33,271,73743,1,2,3:2:0:0:
42,181,73906,1,2,0:0:0:0:
131,173,74069,2,0,L|212:189,1,75,10|2,0:0|0:0,0:0:0:0:
317,242,74395,6,0,B|295:219|301:187|305:188|316:158|294:135,1,112.5,2|0,3:2|0:0,0:0:0:0:
264,121,74721,2,0,P|257:85|273:46,1,75,8|0,0:0|0:0,0:0:0:0:
385,6,75047,1,2,3:2:0:0:
467,52,75210,1,2,0:0:0:0:
388,26,75374,2,0,P|361:60|363:108,1,75,10|2,0:0|0:0,0:0:0:0:
469,169,75700,6,0,L|327:189,1,112.5,2|0,3:2|0:0,0:0:0:0:
333,209,76026,2,0,L|244:197,1,75,8|0,0:0|0:0,0:0:0:0:
170,224,76352,1,2,3:2:0:0:
170,224,76433,1,8,0:0:0:0:
170,224,76515,1,10,0:0:0:0:
156,127,76678,2,0,L|71:130,1,75,10|8,0:0|0:0,0:0:0:0:
54,146,76922,5,8,0:0:0:0:
54,146,77004,2,0,P|22:196|60:249,1,112.5,4|0,3:2|0:0,0:0:0:0:
52,269,77330,2,0,P|116:272|135:251,1,75,8|0,0:0|0:0,0:0:0:0:
186,170,77656,1,2,3:2:0:0:
275,161,77819,1,2,0:0:0:0:
300,247,77982,2,0,P|263:278|242:312,1,75,10|2,0:0|0:0,0:0:0:0:
324,384,78308,6,0,P|349:346|429:338,1,112.5,2|0,3:2|0:0,0:0:0:0:
437,353,78634,2,0,P|476:357|511:337,1,75,8|0,0:0|0:0,0:0:0:0:
495,206,78960,1,2,3:2:0:0:
410,238,79124,1,2,0:0:0:0:
505,189,79287,2,0,P|511:145|496:111,1,75,10|2,0:0|0:0,0:0:0:0:
489,7,79613,6,0,P|437:10|403:64,1,112.5,2|0,3:2|0:0,0:0:0:0:
375,74,79939,2,0,L|383:170,1,75,8|0,0:0|0:0,0:0:0:0:
290,241,80265,1,2,3:2:0:0:
204,211,80428,1,2,0:0:0:0:
199,121,80591,2,0,L|216:41,1,75,10|10,3:2|0:0,0:0:0:0:
224,18,80835,1,8,0:0:0:0:
224,18,80917,2,0,L|145:26,1,75,0|8,3:2|3:0,0:0:0:0:
11,30,81243,6,0,P|61:51|81:123,1,112.5,0|0,3:0|0:0,0:0:0:0:
112,135,81569,2,0,L|96:186,2,37.5,0|8|8,3:2|0:0|0:0,0:0:0:0:
192,192,81895,1,8,3:2:0:0:
278,138,82058,1,8,0:0:0:0:
278,138,82140,1,8,0:0:0:0:
278,138,82221,6,0,P|266:97|191:85,1,120,6|0,3:2|3:2,0:0:0:0:
136,23,82710,1,0,0:0:0:0:
136,23,82874,2,0,P|101:51|94:136,1,120,2|0,3:2|3:2,0:0:0:0:
36,199,83363,6,0,P|83:215|111:278,2,120,2|2|0,0:0|0:0|0:0,0:0:0:0:
6,112,84178,1,0,3:2:0:0:
144,151,84504,2,0,L|206:140,1,60,0|0,3:2|0:0,0:0:0:0:
264,78,84830,6,0,L|326:89,2,60,2|0|0,3:2|0:0|3:2,0:0:0:0:
190,9,85319,1,0,0:0:0:0:
190,9,85482,2,0,L|170:134,1,120,2|0,3:2|3:2,0:0:0:0:
106,200,85971,6,0,P|109:242|184:266,2,120,2|2|0,0:0|0:0|0:0,0:0:0:0:
171,127,86787,1,0,0:0:0:0:
265,235,87113,2,0,L|338:244,1,60,0|0,3:2|0:0,0:0:0:0:
376,312,87439,6,0,P|366:258|403:189,2,120,2|2|2,3:2|3:2|3:2,0:0:0:0:
481,213,88417,1,0,3:2:0:0:
481,213,88580,2,0,P|480:180|459:139,1,60,2|0,0:0|3:2,0:0:0:0:
475,67,88906,2,0,P|436:38|356:44,2,120,2|2|2,0:0|0:0|0:0,0:0:0:0:
353,141,89884,5,2,0:0:0:0:
353,141,90047,2,0,P|303:134|278:63,1,120,0|0,3:2|3:2,0:0:0:0:
195,22,90537,1,0,0:0:0:0:
195,22,90700,2,0,L|181:101,2,60,2|0|2,3:2|0:0|3:2,0:0:0:0:
101,44,91189,2,0,L|35:54,1,60,0|0,0:0|3:2,0:0:0:0:
41,52,91841,5,0,0:0:0:0:
59,147,92004,2,0,L|71:236,1,75,8|8,3:0|3:0,0:0:0:0:
98,242,92249,1,8,0:0:0:0:
98,242,92330,2,0,L|93:280,2,37.5,8|8|8,3:0|3:0|3:0,0:0:0:0:
173,170,92656,6,0,P|177:113|272:84,1,150,6|8,3:2|0:0,0:0:0:0:
338,124,93145,1,0,0:0:0:0:
399,199,93308,2,0,P|394:251|365:275,1,75,0|0,3:2|0:0,0:0:0:0:
300,322,93634,2,0,P|279:291|281:254,1,75,8|0,0:0|0:0,0:0:0:0:
338,124,93960,6,0,P|296:149|202:113,1,150,2|8,3:2|0:0,0:0:0:0:
110,98,94450,2,0,P|97:56|111:16,2,75,0|0|0,0:0|3:2|0:0,0:0:0:0:
53,177,94939,2,0,P|91:193|115:227,1,75,8|0,0:0|0:0,0:0:0:0:
123,315,95265,2,0,P|129:255|224:214,1,150,2|10,3:2|0:0,0:0:0:0:
280,266,95754,1,2,0:0:0:0:
371,233,95917,2,0,P|394:203|394:158,1,75,2|0,3:2|0:0,0:0:0:0:
461,94,96243,2,0,P|446:59|407:36,1,75,10|0,0:0|0:0,0:0:0:0:
389,4,96488,5,0,0:0:0:0:
389,4,96569,2,0,P|344:4|336:112,1,150,2|8,3:2|0:0,0:0:0:0:
389,153,97058,1,2,0:0:0:0:
326,227,97221,2,0,L|272:237,2,37.5,2|8|10,3:2|0:0|0:0,0:0:0:0:
399,290,97547,1,10,0:0:0:0:
464,218,97710,5,10,0:0:0:0:
471,200,97792,1,8,0:0:0:0:
478,182,97874,2,0,P|468:131|383:108,1,150,2|8,3:2|0:0,0:0:0:0:
333,192,98363,1,0,0:0:0:0:
244,151,98526,2,0,P|223:121|224:77,1,75,0|0,3:2|0:0,0:0:0:0:
166,3,98852,1,8,0:0:0:0:
69,19,99015,2,0,P|40:43|28:80,1,75,2|0,0:0|3:2,0:0:0:0:
73,163,99341,6,0,P|103:137|113:100,2,75,0|8|0,0:0|0:0|0:0,0:0:0:0:
23,247,99830,2,0,P|69:251|100:275,1,75,0|0,3:2|0:0,0:0:0:0:
185,236,100156,2,0,P|223:283|224:312,1,75,8|0,0:0|0:0,0:0:0:0:
276,378,100482,6,0,P|262:327|331:255,1,150,2|8,3:2|0:0,0:0:0:0:
492,346,101134,2,0,P|451:357|400:311,1,112.5,2|0,3:2|0:0,0:0:0:0:
412,291,101460,2,0,P|404:247|422:218,1,75,10|0,0:0|0:0,0:0:0:0:
503,182,101787,6,0,P|518:148|508:112,1,75,2|8,3:2|3:3,0:0:0:0:
446,40,102113,2,0,B|415:35|415:35|374:65|374:65|317:54,1,112.5,8|8,3:3|3:3,0:0:0:0:
300,81,102439,2,0,L|290:21,2,37.5,8|8|8,3:2|3:3|3:3,0:0:0:0:
213,64,102765,1,0,3:2:0:0:
213,64,102847,1,8,3:3:0:0:
213,64,102928,1,8,3:3:0:0:
121,80,103091,6,0,B|103:99|103:99|132:212|132:212|112:237,2,165.000005035401,6|10|2,3:2|0:0|3:2,0:0:0:0:
218,4,104069,2,0,P|270:27|272:100,1,123.75000377655,8|0,0:0|0:0,0:0:0:0:
299,118,104395,6,0,P|267:146|260:198,1,82.5000025177003,2|2,3:2|0:0,0:0:0:0:
287,312,104721,1,10,0:0:0:0:
371,268,104884,1,2,0:0:0:0:
270,300,105047,2,0,P|232:295|197:269,1,82.5000025177003,2|0,3:2|0:0,0:0:0:0:
121,173,105374,6,0,L|107:304,1,123.75000377655,10|0,0:0|0:0,0:0:0:0:
127,327,105700,2,0,L|37:344,1,82.5000025177003,2|0,3:2|0:0,0:0:0:0:
0,234,106026,2,0,L|90:251,1,82.5000025177003,10|0,0:0|0:0,0:0:0:0:
219,161,106352,2,0,B|199:175|199:175|80:152,1,123.75000377655,2|0,3:2|0:0,0:0:0:0:
65,166,106678,2,0,L|58:70,1,82.5000025177003,8|0,0:0|0:0,0:0:0:0:
134,4,107004,6,0,L|145:158,1,123.75000377655,2|0,3:2|0:0,0:0:0:0:
174,146,107330,1,10,0:0:0:0:
265,89,107493,1,2,0:0:0:0:
362,155,107656,1,2,3:2:0:0:
362,155,107738,1,8,0:0:0:0:
362,155,107819,2,0,L|461:142,1,82.5000025177003,10|10,0:0|0:0,0:0:0:0:
490,49,108145,1,8,0:0:0:0:
490,49,108227,5,8,0:0:0:0:
490,49,108308,2,0,L|361:63,1,123.75000377655,6|0,3:2|0:0,0:0:0:0:
344,40,108634,2,0,L|330:146,1,82.5000025177003,10|0,0:0|0:0,0:0:0:0:
261,243,108960,2,0,L|240:91,1,123.75000377655,2|0,3:2|0:0,0:0:0:0:
235,83,109287,2,0,P|191:67|156:89,1,82.5000025177003,8|0,0:0|0:0,0:0:0:0:
92,195,109613,5,2,3:2:0:0:
48,99,109776,1,2,0:0:0:0:
113,194,109939,2,0,P|112:250|89:275,1,82.5000025177003,10|2,0:0|0:0,0:0:0:0:
5,309,110265,2,0,P|62:304|112:354,1,123.75000377655,2|0,3:2|0:0,0:0:0:0:
120,381,110591,2,0,L|230:364,1,82.5000025177003,10|0,0:0|0:0,0:0:0:0:
329,374,110917,6,0,B|304:354|304:354|326:244,1,123.75000377655,2|0,3:2|0:0,0:0:0:0:
357,251,111243,2,0,L|346:157,1,82.5000025177003,10|0,0:0|0:0,0:0:0:0:
240,82,111569,2,0,B|258:98|258:98|378:74,1,123.75000377655,2|0,3:2|0:0,0:0:0:0:
378,48,111895,2,0,L|468:59,1,82.5000025177003,10|8,3:2|0:0,0:0:0:0:
512,159,112221,5,0,3:2:0:0:
491,247,112384,1,8,3:0:0:0:
411,203,112547,2,0,L|329:192,1,82.5000025177003,0|8,3:0|0:0,0:0:0:0:
303,209,112792,1,8,0:0:0:0:
303,209,112874,2,0,L|291:162,3,41.2500012588501,8|8|8|8,3:2|0:0|0:0|0:0,0:0:0:0:
263,155,113200,2,0,L|274:111,2,41.2500012588501,8|8|8,3:2|0:0|0:0,0:0:0:0:
210,59,113526,6,0,B|101:40|101:40|58:64,1,150,0|0,3:2|3:2,0:0:0:0:
0,211,114178,1,8,0:0:0:0:
81,278,114341,1,8,0:0:0:0:
81,278,114422,1,8,0:0:0:0:
81,278,114504,2,0,P|139:261|145:182,1,150,0|0,3:2|3:2,0:0:0:0:
64,116,114993,5,8,0:0:0:0:
64,116,115075,1,8,0:0:0:0:
64,116,115156,2,0,L|158:95,1,75,8|4,3:3|3:3,0:0:0:0:
216,30,115482,2,0,L|232:123,1,75,4|8,3:3|0:0,0:0:0:0:
308,172,115808,2,0,L|320:98,1,75,0|0,3:2|0:0,0:0:0:0:
417,56,116134,6,0,B|442:86|442:86|416:221,1,150,0|0,3:2|3:2,0:0:0:0:
339,320,116787,1,8,0:0:0:0:
253,278,116950,1,8,0:0:0:0:
253,278,117031,1,8,0:0:0:0:
253,278,117113,2,0,P|233:229|270:170,1,112.5,0|0,3:2|0:0,0:0:0:0:
289,165,117439,6,0,L|326:159,4,37.5,8|4|8|8|4,0:0|3:3|3:3|3:3|3:3,0:0:0:0:
184,60,118091,2,0,P|147:70|128:104,1,75,8|8,0:0|3:3,0:0:0:0:
139,137,118335,1,4,3:3:0:0:
139,137,118417,1,8,0:0:0:0:
198,255,118743,6,0,L|124:267,1,67.4999979400635,4|0,3:2|0:0,0:0:0:0:
59,339,119069,2,0,L|163:357,1,101.249996910095,8|0,0:0|0:0,0:0:0:0:
176,381,119395,2,0,L|242:370,1,67.4999979400635,0|0,3:2|0:0,0:0:0:0:
336,280,119721,1,8,0:0:0:0:
357,370,119884,1,0,0:0:0:0:
316,290,120047,6,0,L|326:207,2,67.4999979400635,0|0|8,3:2|0:0|0:0,0:0:0:0:
243,194,120537,1,0,0:0:0:0:
317,116,120700,2,0,L|333:80,3,33.7499989700318,2|2|2|2,3:2|0:0|0:0|0:0,0:0:0:0:
379,72,121026,2,0,L|286:55,1,67.4999979400635,8|0,0:0|0:0,0:0:0:0:
212,42,121352,6,2,L|133:27,1,67.4999979400635,0|2,3:2|0:0,0:0:0:0:
126,60,121596,1,2,0:0:0:0:
126,60,121678,2,2,L|47:75,1,67.4999979400635,10|2,0:0|0:0,0:0:0:0:
1,155,122004,1,2,3:2:0:0:
32,251,122167,2,0,L|110:259,1,67.4999979400635,2|8,0:0|0:0,0:0:0:0:
200,228,122493,5,2,0:0:0:0:
200,228,122575,1,2,0:0:0:0:
200,228,122656,2,0,B|209:201|209:201|178:121|178:121|186:93,1,134.999995880127,2|8,3:2|0:0,0:0:0:0:
384,127,123308,2,0,L|309:146,1,67.4999979400635,0|0,3:2|0:0,0:0:0:0:
394,210,123634,2,0,L|459:193,1,67.4999979400635,8|0,0:0|0:0,0:0:0:0:
493,28,123960,5,6,3:2:0:0:
473,32,124042,1,2,0:0:0:0:
453,36,124124,2,0,L|462:92,2,33.7499989700318,2|2|10,0:0|0:0|0:0,0:0:0:0:
379,106,124450,5,2,0:0:0:0:
311,48,124613,2,0,L|320:-8,2,33.7499989700318,2|2|2,3:2|0:0|0:0,0:0:0:0:
226,12,124939,2,0,L|147:26,1,67.4999979400635,8|0,0:0|0:0,0:0:0:0:
60,1,125265,6,0,P|32:36|35:71,1,67.4999979400635,2|0,3:2|0:0,0:0:0:0:
73,149,125591,2,0,L|139:137,1,67.4999979400635,8|2,0:0|0:0,0:0:0:0:
191,153,125835,1,2,0:0:0:0:
191,153,125917,2,0,L|179:221,1,67.4999979400635,0|0,3:2|0:0,0:0:0:0:
130,304,126243,2,0,L|142:372,1,67.4999979400635,10|0,0:0|0:0,0:0:0:0:
6,356,126569,6,0,P|31:310|41:235,1,101.249996910095,0|0,3:2|0:0,0:0:0:0:
64,243,126895,2,0,P|57:192|31:144,1,101.249996910095,8|0,0:0|0:0,0:0:0:0:
47,123,127221,2,0,P|41:71|87:36,1,101.249996910095,0|0,3:2|0:0,0:0:0:0:
90,19,127547,2,0,P|127:20|157:52,1,67.4999979400635,8|0,0:0|0:0,0:0:0:0:
215,125,127874,6,0,L|203:204,1,67.4999979400635,2|2,3:2|0:0,0:0:0:0:
173,216,128118,1,0,0:0:0:0:
173,216,128200,2,0,L|185:295,1,67.4999979400635,8|2,0:0|0:0,0:0:0:0:
135,364,128526,5,0,3:2:0:0:
229,383,128689,2,0,P|250:348|343:330,1,134.999995880127,2|0,0:0|0:0,0:0:0:0:
441,366,129178,6,0,B|417:339|429:306|433:308|451:274|422:236,1,134.999995880127,6|8,3:2|0:0,0:0:0:0:
455,148,129667,2,0,P|422:110|339:137,1,134.999995880127,2|0,0:0|0:0,0:0:0:0:
311,211,130156,2,0,L|229:204,1,67.4999979400635,8|0,0:0|0:0,0:0:0:0:
151,280,130482,6,0,B|169:260|169:260|150:180,1,101.249996910095,0|0,3:2|0:0,0:0:0:0:
126,178,130808,1,8,0:0:0:0:
32,205,130971,2,0,L|41:64,1,134.999995880127,0|2,0:0|0:0,0:0:0:0:
122,5,131460,2,0,P|152:24|163:64,1,67.4999979400635,10|2,0:0|0:0,0:0:0:0:
263,117,131787,6,0,P|227:130|210:166,2,67.4999979400635,2|2|10,3:2|0:0|0:0,0:0:0:0:
302,26,132276,2,0,P|345:33|382:121,1,134.999995880127,2|0,0:0|0:0,0:0:0:0:
459,163,132765,2,0,B|465:177|465:177|463:199|434:226,1,67.4999979400635,8|0,0:0|0:0,0:0:0:0:
425,323,133091,6,0,B|406:337|406:337|378:336|362:314|364:306|339:285|300:290,2,134.999995880127,0|8|0,3:2|0:0|3:2,0:0:0:0:
352,202,134069,2,0,B|328:186|296:195|296:195|274:217,1,67.4999979400635,8|0,0:0|0:0,0:0:0:0:
204,237,134395,6,0,L|221:313,2,67.4999979400635,6|2|10,3:2|0:0|0:0,0:0:0:0:
114,238,134884,2,0,L|132:112,1,101.249996910095,2|0,0:0|0:0,0:0:0:0:
155,122,135210,2,0,B|171:111|171:111|145:55|65:68,1,134.999995880127,2|2,0:0|0:0,0:0:0:0:
23,149,135700,6,0,B|16:167|1:178|1:178|35:272,1,134.999995880127,2|10,3:2|0:0,0:0:0:0:
39,373,136189,2,0,B|27:361|27:361|82:364|150:342,1,134.999995880127,2|2,0:0|3:2,0:0:0:0:
234,289,136678,2,0,P|239:253|209:214,1,75,2|2,0:0|0:0,0:0:0:0:
122,175,137004,6,0,P|111:126|131:97,1,75,2|8,3:2|0:0,0:0:0:0:
151,92,137249,1,8,0:0:0:0:
151,92,137330,2,0,L|233:82,1,75,8|0,0:0|3:2,0:0:0:0:
323,52,137656,1,8,0:0:0:0:
323,52,137738,1,8,0:0:0:0:
323,52,137819,2,0,L|309:128,1,75,8|4,3:3|3:3,0:0:0:0:
245,189,138145,6,0,L|207:193,2,37.5,4|4|4,3:3|3:3|3:3,0:0:0:0:
320,237,138471,2,0,L|415:217,1,75,4|4,3:3|3:3,0:0:0:0:
419,198,138716,1,4,3:3:0:0:
419,198,138797,2,0,L|514:218,1,75,4|4,3:3|3:3,0:0:0:0:
508,302,139124,1,4,3:3:0:0:
439,359,139287,2,0,L|350:337,1,75,8|8,0:0|0:0,0:0:0:0:
281,372,139613,5,2,3:2:0:0:
256,192,139694,12,0,144830,0:0:0:0:
344,303,152330,6,0,L|358:207,1,90,2|0,0:0|0:0,0:0:0:0:
374,203,152656,2,0,L|369:136,1,60,2|0,0:0|0:0,0:0:0:0:
408,51,152982,2,0,B|402:41|402:41|362:27|321:51,1,90,2|0,0:0|0:0,0:0:0:0:
302,41,153308,2,0,P|268:56|237:52,1,60,2|0,0:0|0:0,0:0:0:0:
157,11,153634,2,0,B|146:15|137:29|137:29|159:113,1,90,2|0,0:0|0:0,0:0:0:0:
163,114,153960,5,2,0:0:0:0:
187,225,154287,2,0,L|125:218,1,60
49,187,154613,2,0,P|85:189|106:266,1,120,2|2,0:0|0:0,0:0:0:0:
188,376,155265,6,0,B|199:356|199:356|299:347,1,123.75000377655,6|0,3:2|0:0,0:0:0:0:
327,364,155591,2,0,L|340:273,1,82.5000025177003,10|0,0:0|0:0,0:0:0:0:
257,176,155917,2,0,L|245:257,1,82.5000025177003,2|0,3:2|0:0,0:0:0:0:
96,326,156243,2,0,P|87:259|144:233,1,123.75000377655,8|0,0:0|0:0,0:0:0:0:
156,238,156569,5,2,3:2:0:0:
172,141,156732,2,0,P|144:99|109:92,1,82.5000025177003,2|10,0:0|0:0,0:0:0:0:
24,132,157058,1,2,0:0:0:0:
0,34,157221,2,0,P|30:4|81:7,1,82.5000025177003,2|0,3:2|0:0,0:0:0:0:
172,26,157547,2,0,L|154:165,1,123.75000377655,10|0,0:0|0:0,0:0:0:0:
165,176,157874,6,0,B|201:197|201:197|253:176,1,82.5000025177003,2|0,3:2|0:0,0:0:0:0:
289,98,158200,2,0,B|326:82|326:82|362:103,1,82.5000025177003,10|0,0:0|0:0,0:0:0:0:
437,170,158526,2,0,L|418:259,1,82.5000025177003,2|0,3:2|0:0,0:0:0:0:
462,345,158852,6,0,B|442:349|431:362|431:362|348:326,1,123.75000377655,8|0,0:0|0:0,0:0:0:0:
331,337,159178,1,2,3:2:0:0:
297,243,159341,1,2,0:0:0:0:
214,297,159504,2,0,L|106:304,1,82.5000025177003,10|2,0:0|0:0,0:0:0:0:
36,276,159830,2,0,L|28:320,2,41.2500012588501,2|8|10,3:2|0:0|0:0,0:0:0:0:
0,183,160156,2,0,L|104:199,1,82.5000025177003,8|10,0:0|0:0,0:0:0:0:
113,217,160401,5,8,0:0:0:0:
113,217,160482,2,0,P|146:174|117:111,1,123.75000377655,6|0,3:2|0:0,0:0:0:0:
96,105,160808,2,0,L|14:92,1,82.5000025177003,10|0,0:0|0:0,0:0:0:0:
81,12,161134,2,0,L|162:24,1,82.5000025177003,2|0,3:2|0:0,0:0:0:0:
274,95,161460,6,0,P|210:91|177:151,1,123.75000377655,8|0,0:0|0:0,0:0:0:0:
183,161,161787,2,0,P|217:189|229:235,2,82.5000025177003,2|2|10,3:2|0:0|0:0,0:0:0:0:
136,249,162276,1,2,0:0:0:0:
209,318,162439,2,0,P|240:281|320:283,1,123.75000377655,2|0,3:2|0:0,0:0:0:0:
342,302,162765,6,0,L|427:293,1,82.5000025177003,10|0,0:0|0:0,0:0:0:0:
506,183,163091,2,0,B|489:206|489:206|377:217,1,123.75000377655,2|0,3:2|0:0,0:0:0:0:
372,218,163417,2,0,L|384:129,1,82.5000025177003,10|0,0:0|0:0,0:0:0:0:
288,27,163743,2,0,B|307:46|307:46|291:156,1,123.75000377655,2|0,3:2|0:0,0:0:0:0:
289,168,164069,2,0,L|191:187,1,82.5000025177003,10|8,3:2|0:0,0:0:0:0:
115,164,164395,6,0,L|102:82,1,82.5000025177003,0|8,3:2|3:0,0:0:0:0:
160,13,164721,1,0,3:0:0:0:
250,58,164884,1,8,0:0:0:0:
250,58,164966,1,8,0:0:0:0:
250,58,165047,2,0,L|241:100,3,41.2500012588501,8|8|8|8,3:2|0:0|0:0|0:0,0:0:0:0:
211,123,165374,2,0,L|215:170,2,41.2500012588501,8|8|8,3:2|0:0|0:0,0:0:0:0:
155,218,165700,6,0,B|116:237|116:237|73:171|0:180,1,172.500003290176,2|10,3:2|0:0,0:0:0:0:
42,28,166352,2,0,B|84:32|84:32|101:50|101:50|165:57,1,129.375002467632,2|0,3:2|0:0,0:0:0:0:
183,47,166678,2,0,L|167:140,1,86.2500016450882,10|0,0:0|0:0,0:0:0:0:
254,275,167004,6,0,B|228:254|228:254|247:148,1,129.375002467632,2|0,3:2|0:0,0:0:0:0:
262,144,167330,2,0,L|356:134,1,86.2500016450882,10|0,0:0|0:0,0:0:0:0:
474,67,167656,2,0,B|452:80|452:80|336:43|336:43|325:14,1,172.500003290176,2|10,3:2|0:0,0:0:0:0:
176,43,168308,6,0,B|207:50|207:50|228:153,1,129.375002467632,2|0,3:2|0:0,0:0:0:0:
244,159,168634,2,0,L|225:245,1,86.2500016450882,10|0,0:0|0:0,0:0:0:0:
191,368,168960,1,2,3:2:0:0:
128,296,169124,1,0,0:0:0:0:
39,324,169287,2,0,L|26:222,1,86.2500016450882,10|0,0:0|0:0,0:0:0:0:
11,103,169613,6,0,B|20:129|20:129|121:149,1,129.375002467632,2|0,3:2|0:0,0:0:0:0:
132,168,169939,2,0,L|227:150,1,86.2500016450882,10|0,0:0|0:0,0:0:0:0:
295,66,170265,1,10,0:0:0:0:
274,60,170346,1,8,0:0:0:0:
252,55,170428,1,0,3:2:0:0:
216,151,170591,2,0,L|230:251,1,86.2500016450882,10|0,3:2|3:0,0:0:0:0:
238,279,170835,5,0,3:0:0:0:
238,279,170917,2,0,B|286:299|312:268|309:262|344:230|395:258,2,165.000005035401,6|10|2,3:2|0:0|3:2,0:0:0:0:
88,358,171895,2,0,P|87:298|150:256,1,123.75000377655,10|0,0:0|0:0,0:0:0:0:
134,228,172221,6,0,P|160:187|151:148,2,82.5000025177003,2|2|10,3:2|0:0|0:0,0:0:0:0:
39,229,172710,1,2,0:0:0:0:
6,143,172874,2,0,P|18:105|55:84,1,82.5000025177003,2|2,3:2|0:0,0:0:0:0:
87,0,173200,2,0,P|134:9|160:52,1,82.5000025177003,10|10,0:0|0:0,0:0:0:0:
167,67,173444,5,8,0:0:0:0:
167,67,173526,2,0,L|146:160,1,82.5000025177003,0|0,3:2|3:2,0:0:0:0:
250,176,173852,2,0,L|191:251,1,82.5000025177003,8|0,0:0|0:0,0:0:0:0:
188,281,174096,1,0,0:0:0:0:
188,281,174178,2,0,L|88:260,1,82.5000025177003,0|0,3:2|3:2,0:0:0:0:
0,337,174504,2,0,B|18:327|18:327|127:350,1,123.75000377655,10|0,0:0|0:0,0:0:0:0:
136,375,174830,6,0,L|234:364,1,82.5000025177003,2|0,3:2|3:2,0:0:0:0:
356,305,175156,2,0,L|258:294,1,82.5000025177003,2|8,3:2|0:0,0:0:0:0:
257,278,175401,1,8,0:0:0:0:
257,278,175482,2,0,L|252:227,3,41.2500012588501,10|8|8|8,3:2|0:0|0:0|0:0,0:0:0:0:
229,211,175808,2,0,L|249:169,2,41.2500012588501,10|8|8,3:2|0:0|0:0,0:0:0:0:
212,99,176134,6,0,P|242:50|326:63,1,134.999995880127,4|0,3:2|3:2,0:0:0:0:
435,119,176787,2,0,L|365:129,1,67.4999979400635,0|0,3:2|0:0,0:0:0:0:
450,196,177113,2,0,L|380:206,1,67.4999979400635,0|0,3:2|0:0,0:0:0:0:
324,309,177439,6,0,P|300:249|219:243,1,134.999995880127,0|0,3:2|3:2,0:0:0:0:
159,338,178091,2,0,L|149:271,1,67.4999979400635,0|0,3:2|0:0,0:0:0:0:
79,352,178417,2,0,L|69:285,1,67.4999979400635,0|0,3:2|0:0,0:0:0:0:
11,153,178743,6,0,P|40:191|134:184,1,134.999995880127,0|0,3:2|3:2,0:0:0:0:
190,62,179395,2,0,L|184:130,1,67.4999979400635,0|0,3:2|0:0,0:0:0:0:
271,71,179721,2,0,L|265:139,1,67.4999979400635,0|0,3:2|0:0,0:0:0:0:
340,221,180047,6,0,P|338:174|410:122,1,134.999995880127,0|0,3:2|3:2,0:0:0:0:
512,217,180700,1,0,3:2:0:0:
451,277,180863,1,0,0:0:0:0:
508,355,181026,2,0,L|384:368,1,101.249996910095,0|0,3:2|0:0,0:0:0:0:
386,377,181352,6,0,P|332:358|324:295,1,120,2|0,3:2|0:0,0:0:0:0:
299,153,182004,2,0,L|277:223,1,60,2|0,0:0|0:0,0:0:0:0:
209,178,182330,2,0,L|226:120,1,60,2|0,0:0|0:0,0:0:0:0:
188,22,182656,6,0,P|139:15|106:81,1,120,2|0,0:0|0:0,0:0:0:0:
48,195,183308,2,0,L|116:182,1,60,2|0,0:0|0:0,0:0:0:0:
138,257,183634,2,0,L|80:269,1,60,2|0,0:0|0:0,0:0:0:0:
28,378,183960,6,0,P|80:355|159:360,1,120,2|0,0:0|0:0,0:0:0:0:
279,330,184613,2,0,L|213:307,1,60,2|0,0:0|0:0,0:0:0:0:
242,234,184939,2,0,L|298:253,1,60,2|0,0:0|0:0,0:0:0:0:
405,338,185265,6,0,P|397:272|426:209,1,120,2|0,0:0|0:0,0:0:0:0:
491,117,185917,2,0,L|429:127,1,60,2|0,0:0|0:0,0:0:0:0:
388,56,186243,2,0,L|523:34,1,120,2|0,0:0|0:0,0:0:0:0:
