osu file format v14

[General]
AudioFilename: audio.mp3
AudioLeadIn: 0
PreviewTime: 78148
Countdown: 0
SampleSet: None
StackLeniency: 0.4
Mode: 0
LetterboxInBreaks: 0
WidescreenStoryboard: 0

[Editor]
DistanceSpacing: 1
BeatDivisor: 4
GridSize: 32
TimelineZoom: 1

[Metadata]
Title:Marine Snow no Hanataba wo
TitleUnicode:マリンスノーの花束を
Artist:After the Rain
ArtistUnicode:After the Rain
Creator:William K
Version:Magnificence
Source:
Tags:そらる×まふまふ Soraru mafumafu
BeatmapID:1657510
BeatmapSetID:789803

[Difficulty]
HPDrainRate:6
CircleSize:4
OverallDifficulty:9
ApproachRate:9
SliderMultiplier:2
SliderTickRate:1

[Events]
//Background and Video events
0,0,"chrome_2018-05-20_17-08-55.jpg",0,0
//Break Periods
//Storyboard Layer 0 (Background)
//Storyboard Layer 1 (Fail)
//Storyboard Layer 2 (Pass)
//Storyboard Layer 3 (Foreground)
//Storyboard Sound Samples

[TimingPoints]
1418,329.67032967033,4,1,0,10,1,0
1418,-166.666666666667,4,1,0,10,0,0
1747,-111.111111111111,4,1,0,10,0,0
2077,-100,4,1,0,10,0,0
23835,-125,4,1,0,10,0,0
43286,-90.9090909090909,4,1,0,10,0,0
43615,-100,4,1,0,10,0,0
44934,-111.111111111111,4,1,0,10,0,0
48890,-100,4,1,0,10,0,0
49220,-111.111111111111,4,1,0,10,0,0
49549,-100,4,1,0,10,0,0
50209,-111.111111111111,4,1,0,10,0,0
54165,-99.9999999999999,4,1,0,10,0,0
55483,-111.111111111111,4,1,0,10,0,0
66033,-133.333333333333,4,1,0,10,0,0
71308,-181.818181818181,4,1,0,10,0,0
71967,-153.846153846153,4,1,0,10,0,0
72626,-133.333333333333,4,1,0,10,0,0
73945,-111.111111111111,4,1,0,10,0,0
79220,-95.2380952380952,4,1,0,10,0,1
94385,-100,4,1,0,10,0,0
95044,-100,4,1,0,10,0,1
108231,-133.333333333333,4,1,0,10,0,1
108890,-117.647058823529,4,1,0,10,0,1
109549,-100,4,1,0,10,0,0
118780,-125,4,1,0,10,0,0
119439,-111.111111111111,4,1,0,10,0,0
120428,-166.666666666667,4,1,0,10,0,0

[Colours]
Combo1 : 164,255,255
Combo2 : 209,164,255
Combo3 : 149,197,255
Combo4 : 165,74,255

[HitObjects]
62,42,1418,6,0,P|112:47|173:71,1,89.9999972534181
234,76,1747,6,0,P|166:82|103:103,1,134.999995880127
55,163,2077,5,0,0:0:0:0:
55,174,2159,1,0,0:0:0:0:
56,185,2242,2,0,P|63:211|92:249,1,50
179,285,2407,5,0,0:0:0:0:
154,283,2489,1,0,0:0:0:0:
130,290,2571,1,0,0:0:0:0:
130,290,2736,6,0,B|188:310|188:310|221:295|221:295|301:311,1,150
307,318,3066,1,0,0:0:0:0:
330,134,3231,2,0,B|313:182|313:182|331:241,1,100
236,124,3560,1,0,0:0:0:0:
418,92,3725,1,0,0:0:0:0:
198,202,3890,6,0,P|167:178|219:41,1,200
321,245,4385,1,0,0:0:0:0:
304,57,4549,1,0,0:0:0:0:
238,284,4714,1,0,0:0:0:0:
324,151,4879,1,0,0:0:0:0:
310,336,5044,1,0,0:0:0:0:
236,124,5209,1,0,0:0:0:0:
148,370,5374,6,0,B|163:334|163:334|130:198,1,150
74,326,5703,1,0,0:0:0:0:
238,284,5868,2,0,L|367:309,1,100
222,194,6198,1,0,0:0:0:0:
431,122,6363,1,0,0:0:0:0:
155,134,6527,6,0,P|213:105|313:204,1,200
136,226,7022,1,0,0:0:0:0:
136,226,7187,1,0,0:0:0:0:
282,260,7352,1,0,0:0:0:0:
282,260,7516,1,0,0:0:0:0:
119,310,7681,1,0,0:0:0:0:
155,134,7846,1,0,0:0:0:0:
275,352,8011,6,0,L|431:334,1,150
450,329,8341,1,0,0:0:0:0:
368,218,8505,2,0,L|486:253,1,100
301,168,8835,1,0,0:0:0:0:
275,352,9000,1,0,0:0:0:0:
383,134,9165,6,0,B|356:-11|356:-11|325:76,1,200
368,218,9659,1,0,0:0:0:0:
454,102,9824,2,0,L|443:46,1,50
301,168,9989,1,0,0:0:0:0:
435,268,10154,1,0,0:0:0:0:
292,252,10319,1,0,0:0:0:0:
445,185,10483,2,0,L|495:202,1,50
223,202,10648,6,0,B|158:189|158:189|147:196|147:196|55:175,1,150
129,112,10978,1,0,0:0:0:0:
204,285,11143,2,0,P|253:281|291:251,1,100
180,47,11472,1,0,0:0:0:0:
122,279,11637,1,0,0:0:0:0:
102,33,11802,6,0,L|337:15,1,200
223,202,12297,1,0,0:0:0:0:
323,206,12461,2,0,L|390:207,1,50
169,286,12626,1,0,0:0:0:0:
269,290,12790,2,0,L|336:291,1,50
123,197,12956,1,0,0:0:0:0:
123,197,13038,1,0,0:0:0:0:
123,197,13121,1,0,0:0:0:0:
418,295,13286,6,0,P|459:255|446:143,1,150
450,144,13615,1,0,0:0:0:0:
365,372,13780,1,0,0:0:0:0:
365,372,13863,1,0,0:0:0:0:
365,372,13945,1,0,0:0:0:0:
372,206,14110,1,0,0:0:0:0:
452,381,14275,1,0,0:0:0:0:
357,103,14439,6,0,L|153:79,1,200
271,208,14934,1,0,0:0:0:0:
103,242,15099,1,0,0:0:0:0:
103,242,15181,1,0,0:0:0:0:
103,242,15264,1,0,0:0:0:0:
325,289,15428,1,0,0:0:0:0:
129,156,15593,1,0,0:0:0:0:
342,52,15758,1,0,0:0:0:0:
342,52,15841,1,0,0:0:0:0:
342,52,15923,6,0,B|368:151|368:151|344:199,1,150
282,143,16253,5,0,0:0:0:0:
500,198,16418,1,0,0:0:0:0:
215,199,16582,5,0,0:0:0:0:
483,205,16747,1,0,0:0:0:0:
148,255,16912,5,0,0:0:0:0:
464,211,17077,6,0,L|474:43,1,150
475,34,17407,1,0,0:0:0:0:
390,270,17571,5,0,0:0:0:0:
341,91,17736,1,0,0:0:0:0:
309,313,17901,5,0,0:0:0:0:
350,67,18066,1,0,0:0:0:0:
387,362,18231,5,0,0:0:0:0:
359,43,18396,1,0,0:0:0:0:
359,43,18478,1,0,0:0:0:0:
359,43,18560,6,0,P|311:23|252:49,1,100
215,152,18890,2,0,P|220:123|211:88,3,50
134,50,19220,2,0,P|153:35|177:27,3,50
129,148,19549,2,0,P|106:138|88:122,3,50
285,207,19879,6,0,L|359:194,3,50
100,225,20209,2,0,L|26:212,3,50
259,288,20538,1,0,0:0:0:0:
283,292,20620,1,0,0:0:0:0:
308,296,20702,1,0,0:0:0:0:
332,300,20785,1,0,0:0:0:0:
357,304,20868,2,0,L|431:291,3,50
200,227,21198,5,0,0:0:0:0:
411,178,21363,1,0,0:0:0:0:
200,227,21527,2,0,P|164:222|127:236,3,50
186,140,21857,2,0,P|172:106|141:81,3,50
254,84,22187,2,0,P|276:55|282:16,3,50
283,259,22516,5,0,0:0:0:0:
197,13,22681,1,0,0:0:0:0:
213,313,22846,5,0,0:0:0:0:
254,84,23011,1,0,0:0:0:0:
293,346,23176,5,0,0:0:0:0:
163,96,23341,1,0,0:0:0:0:
144,362,23505,5,0,0:0:0:0:
339,66,23670,1,0,0:0:0:0:
400,120,23835,6,0,L|422:283,1,160
356,327,24330,1,0,0:0:0:0:
286,285,24494,2,0,P|351:245|420:278,1,160
431,359,24989,1,0,0:0:0:0:
287,368,25154,6,0,L|198:369,1,80
286,285,25483,2,0,L|206:284,1,80
288,198,25813,2,0,L|199:199,1,80
287,115,26142,2,0,L|207:114,1,80
319,39,26472,6,0,P|357:68|368:111,1,80
430,150,26802,2,0,P|445:113|478:91,1,80
511,167,27132,2,0,P|495:203|462:225,1,80
391,267,27461,2,0,P|423:288|439:325,1,80
505,384,27791,6,0,P|438:343|359:339,1,160
285,372,28286,1,0,0:0:0:0:
213,283,28450,1,0,0:0:0:0:
204,364,28615,1,0,0:0:0:0:
147,234,28780,1,0,0:0:0:0:
222,201,28945,1,0,0:0:0:0:
138,315,29110,6,0,P|89:291|95:170,1,160
145,151,29604,1,0,0:0:0:0:
131,70,29769,2,0,P|70:117|74:194,1,160
145,151,30264,1,0,0:0:0:0:
189,16,30428,6,0,P|160:-4|106:-4,1,80
207,94,30758,2,0,P|236:114|290:114,1,80
366,0,31088,2,0,L|350:77,1,80
430,203,31418,2,0,L|414:125,1,80
370,256,31747,6,0,P|401:280|440:284,1,80
352,177,32077,2,0,P|319:192|289:246,1,80
326,352,32407,2,0,P|303:320|268:303,1,80
157,290,32736,2,0,P|193:273|216:241,1,80
168,130,33066,6,0,L|155:318,1,160
81,317,33560,1,0,0:0:0:0:
4,211,33725,1,0,0:0:0:0:
80,238,33890,1,0,0:0:0:0:
145,131,34055,1,0,0:0:0:0:
69,158,34220,1,0,0:0:0:0:
196,63,34385,6,0,L|369:106,1,160
428,124,34879,1,0,0:0:0:0:
481,63,35044,2,0,P|405:47|350:100,1,160
367,179,35538,1,0,0:0:0:0:
469,260,35703,6,0,P|431:249|392:254,1,80
268,315,36033,2,0,P|306:326|346:321,1,80
324,165,36363,2,0,L|309:244,1,80
191,337,36692,2,0,L|175:258,1,80
52,206,37022,6,0,P|98:266|175:258,1,160
131,190,37516,1,0,0:0:0:0:
225,107,37681,2,0,L|210:186,1,80
132,27,38011,2,0,L|147:105,1,80
286,48,38341,6,0,P|253:26|214:22,1,80
303,126,38670,2,0,P|343:122|376:100,1,80
493,7,39000,2,0,P|454:11|421:33,1,80
422,167,39330,2,0,P|461:163|494:141,1,80
303,126,39659,6,0,P|349:184|306:277,1,160
271,202,40154,1,0,0:0:0:0:
231,80,40319,2,0,L|390:99,1,160
463,62,40813,1,0,0:0:0:0:
413,180,40978,5,0,0:0:0:0:
493,198,41143,1,0,0:0:0:0:
360,265,41308,2,0,L|440:258,1,80
333,162,41637,1,0,0:0:0:0:
413,180,41802,1,0,0:0:0:0:
280,247,41967,2,0,L|359:239,1,80
253,144,42297,5,0,0:0:0:0:
333,162,42462,1,0,0:0:0:0:
200,229,42627,2,0,L|279:221,1,80
150,146,42956,1,0,0:0:0:0:
150,146,43121,1,0,0:0:0:0:
243,302,43286,6,0,B|287:216|204:224|263:124,1,165.000005035401
334,312,43615,6,0,P|292:290|216:334,1,100
481,261,43945,1,0,0:0:0:0:
320,204,44110,2,0,P|373:219|447:139,1,150
371,117,44439,1,0,0:0:0:0:
369,129,44521,1,0,0:0:0:0:
368,141,44603,1,0,0:0:0:0:
248,262,44769,2,0,P|238:217|219:184,1,50
244,54,44934,6,0,P|264:80|255:166,1,89.9999972534181
182,117,45264,1,0,0:0:0:0:
318,16,45428,1,0,0:0:0:0:
318,16,45511,1,0,0:0:0:0:
318,16,45593,2,0,P|368:10|420:48,1,89.9999972534181
445,179,45923,1,0,0:0:0:0:
467,90,46088,1,0,0:0:0:0:
357,205,46253,6,0,P|374:252|369:324,1,89.9999972534181
215,359,46582,1,0,0:0:0:0:
284,299,46747,1,0,0:0:0:0:
284,299,46830,1,0,0:0:0:0:
284,299,46912,2,0,P|248:271|204:266,1,89.9999972534181
54,356,47242,2,0,P|98:351|134:324,1,89.9999972534181
52,175,47571,6,0,L|65:265,1,89.9999972534181
163,108,47901,1,0,0:0:0:0:
145,203,48066,1,0,0:0:0:0:
145,203,48148,1,0,0:0:0:0:
145,203,48231,1,0,0:0:0:0:
91,52,48396,1,0,0:0:0:0:
226,175,48560,2,0,P|261:189|329:168,1,89.9999972534181
411,99,48808,1,0,0:0:0:0:
411,99,48890,6,0,P|350:107|327:223,1,150
394,180,49220,2,0,P|429:191|464:257,1,89.9999972534181
419,355,49467,1,0,0:0:0:0:
419,355,49549,2,0,P|411:279|495:227,1,150
332,351,49879,1,0,0:0:0:0:
496,312,50044,2,0,L|511:366,1,50
247,365,50209,6,0,L|259:260,1,89.9999972534181
193,110,50538,1,0,0:0:0:0:
199,200,50703,1,0,0:0:0:0:
199,200,50786,1,0,0:0:0:0:
199,200,50868,2,0,P|245:186|282:124,1,89.9999972534181
120,156,51198,1,0,0:0:0:0:
123,246,51363,1,0,0:0:0:0:
193,110,51527,6,0,L|181:5,1,89.9999972534181
272,155,51857,1,0,0:0:0:0:
120,156,52022,1,0,0:0:0:0:
120,156,52104,1,0,0:0:0:0:
120,156,52187,2,0,L|24:136,1,89.9999972534181
278,64,52516,2,0,L|374:44,1,89.9999972534181
298,236,52846,6,0,P|273:199|279:134,1,89.9999972534181
380,281,53176,1,0,0:0:0:0:
303,327,53341,1,0,0:0:0:0:
303,327,53423,1,0,0:0:0:0:
303,327,53505,1,0,0:0:0:0:
378,188,53670,1,0,0:0:0:0:
461,323,53835,2,0,L|471:229,1,89.9999972534181
437,108,54165,6,0,P|419:158|486:237,1,150
502,158,54494,1,0,0:0:0:0:
370,59,54659,1,0,0:0:0:0:
370,59,54742,1,0,0:0:0:0:
370,59,54824,2,0,P|352:109|419:188,1,150
294,12,55154,1,0,0:0:0:0:
437,108,55319,2,0,P|455:71|452:43,1,50
229,68,55483,6,0,P|184:45|121:57,1,89.9999972534181
51,177,55813,1,0,0:0:0:0:
128,221,55978,1,0,0:0:0:0:
128,221,56060,1,0,0:0:0:0:
128,221,56143,2,0,P|140:178|132:135,1,89.9999972534181
50,266,56472,1,0,0:0:0:0:
63,91,56637,1,0,0:0:0:0:
126,308,56802,6,0,P|167:300|206:250,1,89.9999972534181
235,72,57132,2,0,L|225:180,1,89.9999972534181
246,194,57379,1,0,0:0:0:0:
246,194,57461,1,0,0:0:0:0:
145,46,57626,1,0,0:0:0:0:
299,6,57791,2,0,P|322:41|311:112,1,89.9999972534181
512,179,58121,6,0,P|461:140|396:146,1,134.999995880127
379,162,58450,1,0,0:0:0:0:
429,276,58615,2,0,P|434:254|436:232,1,44.999998626709
308,212,58780,2,0,P|324:250|320:338,1,89.9999972534181
232,150,59110,2,0,P|216:188|220:276,1,89.9999972534181
24,279,59439,6,0,P|69:266|139:299,1,89.9999972534181
187,320,59769,1,0,0:0:0:0:
72,174,59934,1,0,0:0:0:0:
72,174,60016,1,0,0:0:0:0:
72,174,60099,1,0,0:0:0:0:
72,356,60264,1,0,0:0:0:0:
156,186,60428,1,0,0:0:0:0:
155,152,60510,1,0,0:0:0:0:
142,121,60592,1,0,0:0:0:0:
119,97,60675,1,0,0:0:0:0:
88,84,60757,5,0,0:0:0:0:
72,174,60923,1,0,0:0:0:0:
177,38,61088,2,0,P|203:31|248:41,3,44.999998626709
281,124,61418,2,0,P|255:117|210:127,3,44.999998626709
209,134,61747,1,0,0:0:0:0:
343,187,61912,1,0,0:0:0:0:
343,187,61994,1,0,0:0:0:0:
343,187,62077,6,0,P|366:142|330:51,1,134.999995880127
328,47,62407,2,0,P|325:16|329:-6,3,44.999998626709
281,124,62736,1,0,0:0:0:0:
270,136,62818,1,0,0:0:0:0:
261,151,62900,1,0,0:0:0:0:
256,167,62983,1,0,0:0:0:0:
254,184,63065,1,0,0:0:0:0:
255,201,63148,1,0,0:0:0:0:
260,217,63230,1,0,0:0:0:0:
268,232,63312,1,0,0:0:0:0:
278,245,63395,5,0,0:0:0:0:
343,187,63560,1,0,0:0:0:0:
340,356,63725,1,0,0:0:0:0:
366,273,63890,1,0,0:0:0:0:
251,333,64055,1,0,0:0:0:0:
231,321,64137,1,0,0:0:0:0:
209,315,64219,1,0,0:0:0:0:
187,316,64302,1,0,0:0:0:0:
166,322,64385,2,0,P|163:273|156:253,1,44.999998626709
84,159,64549,1,0,0:0:0:0:
84,159,64632,1,0,0:0:0:0:
84,159,64714,5,0,0:0:0:0:
230,193,64879,1,0,0:0:0:0:
58,176,65044,5,0,0:0:0:0:
296,138,65209,1,0,0:0:0:0:
32,195,65374,5,0,0:0:0:0:
311,223,65538,1,0,0:0:0:0:
11,209,65703,5,0,0:0:0:0:
377,164,65868,1,0,0:0:0:0:
245,278,66033,6,0,L|257:366,1,75.0000028610231
328,307,66363,2,0,P|359:296|419:314,1,75.0000028610231
470,352,66692,2,0,P|438:323|453:211,1,150.000005722046
502,158,67187,1,0,0:0:0:0:
371,182,67352,6,0,L|372:96,1,75.0000028610231
441,223,67681,1,0,0:0:0:0:
310,242,67846,2,0,P|291:210|294:152,1,75.0000028610231
358,315,68176,2,0,P|332:281|213:292,1,150.000005722046
105,315,68670,6,0,P|177:324|231:275,1,150.000005722046
149,150,69165,1,0,0:0:0:0:
85,209,69330,2,0,P|115:231|152:238,1,75.0000028610231
241,118,69659,2,0,L|222:210,1,75.0000028610231
172,59,69989,5,0,0:0:0:0:
325,86,70154,1,0,0:0:0:0:
87,88,70319,5,0,0:0:0:0:
260,32,70483,1,0,0:0:0:0:
108,1,70648,5,0,0:0:0:0:
343,1,70813,1,0,0:0:0:0:
22,28,70978,5,0,0:0:0:0:
22,28,71060,1,0,0:0:0:0:
22,28,71143,1,0,0:0:0:0:
241,118,71308,6,0,B|336:168|332:84|432:128,1,192.500005874634
225,200,71967,6,0,B|335:258|330:160|447:211,1,227.499989585877
236,286,72626,6,0,B|335:338|331:250|435:296,1,187.500007152558
441,317,73121,2,0,P|467:325|485:324,3,25.0000009536744
246,204,73615,1,0,0:0:0:0:
200,210,73697,1,0,0:0:0:0:
165,241,73779,1,0,0:0:0:0:
151,285,73862,1,0,0:0:0:0:
163,329,73945,6,0,P|103:298|26:323,1,134.999995880127
24,329,74275,1,0,0:0:0:0:
41,135,74439,2,0,P|17:126|-15:139,1,44.999998626709
10,218,74604,2,0,P|52:222|112:183,1,89.9999972534181
75,46,74934,1,0,0:0:0:0:
129,119,75099,1,0,0:0:0:0:
247,58,75264,6,0,P|209:35|165:36,1,89.9999972534181
181,193,75593,1,0,0:0:0:0:
333,84,75758,1,0,0:0:0:0:
333,84,75841,1,0,0:0:0:0:
333,84,75923,1,0,0:0:0:0:
129,119,76088,1,0,0:0:0:0:
129,119,76170,1,0,0:0:0:0:
129,119,76253,2,0,P|96:163|96:210,1,89.9999972534181
180,279,76500,1,0,0:0:0:0:
180,279,76582,6,0,P|154:219|92:196,1,134.999995880127
93,282,76912,5,0,0:0:0:0:
316,241,77077,1,0,0:0:0:0:
22,245,77242,5,0,0:0:0:0:
358,314,77407,1,0,0:0:0:0:
20,164,77571,5,0,0:0:0:0:
280,318,77736,1,0,0:0:0:0:
25,328,77901,5,0,0:0:0:0:
394,237,78066,1,0,0:0:0:0:
22,245,78560,5,0,0:0:0:0:
436,310,78725,1,0,0:0:0:0:
436,310,79220,6,0,L|446:124,1,157.499995193482
447,124,79549,1,0,0:0:0:0:
316,241,79714,1,0,0:0:0:0:
280,69,79879,1,0,0:0:0:0:
347,144,80044,1,0,2:0:0:0:
217,261,80209,1,0,0:0:0:0:
248,164,80374,1,0,2:0:0:0:
285,338,80538,6,0,P|348:340|394:304,1,104.999996795654
217,261,80868,2,0,P|154:259|108:295,1,104.999996795654
330,136,81198,2,0,L|315:240,1,104.999996795654
127,63,81527,2,0,L|142:166,1,104.999996795654
322,41,81857,6,0,P|359:44|419:141,1,157.499995193482
413,163,82187,1,0,0:0:0:0:
235,160,82352,2,0,P|278:133|330:135,1,104.999996795654
364,318,82681,2,0,P|372:278|309:200,1,104.999996795654
444,369,83011,1,0,0:0:0:0:
231,260,83176,6,0,P|157:222|46:228,1,157.499995193482
59,229,83505,1,0,0:0:0:0:
235,344,83670,1,0,0:0:0:0:
261,343,83752,1,0,0:0:0:0:
283,330,83834,1,0,0:0:0:0:
99,312,84000,1,0,0:0:0:0:
317,246,84165,1,0,0:0:0:0:
59,229,84330,1,0,0:0:0:0:
355,163,84494,6,0,P|440:177|506:234,1,157.499995193482
505,243,84824,1,0,0:0:0:0:
266,176,84989,1,0,0:0:0:0:
403,88,85154,1,0,0:0:0:0:
317,246,85319,1,0,0:0:0:0:
290,28,85483,1,0,0:0:0:0:
226,260,85648,1,0,0:0:0:0:
157,33,85813,6,0,P|179:82|185:165,1,104.999996795654
403,88,86143,2,0,P|380:137|375:220,1,104.999996795654
131,222,86472,2,0,P|182:231|226:260,1,104.999996795654
436,275,86802,2,0,P|384:283|341:312,1,104.999996795654
63,285,87132,6,0,P|87:258|82:129,1,157.499995193482
74,122,87461,1,0,0:0:0:0:
173,280,87626,2,0,P|225:304|296:277,1,104.999996795654
335,115,87956,2,0,P|354:164|344:215,1,104.999996795654
242,191,88286,1,0,0:0:0:0:
326,23,88450,5,0,0:0:0:0:
243,93,88615,1,0,0:0:0:0:
414,58,88780,1,0,0:0:0:0:
235,0,88945,1,0,0:0:0:0:
422,138,89110,1,0,0:0:0:0:
447,132,89192,1,0,0:0:0:0:
469,118,89274,1,0,0:0:0:0:
243,93,89439,1,0,0:0:0:0:
502,35,89604,1,0,0:0:0:0:
264,178,89769,6,0,P|218:179|158:83,1,157.499995193482
161,77,90099,5,0,0:0:0:0:
121,216,90264,1,0,0:0:0:0:
167,60,90428,5,0,0:0:0:0:
192,275,90593,1,0,0:0:0:0:
172,47,90758,5,0,0:0:0:0:
110,237,90923,1,0,0:0:0:0:
392,230,91088,5,0,0:0:0:0:
101,259,91253,1,0,0:0:0:0:
457,292,91418,5,0,0:0:0:0:
159,186,91582,1,0,0:0:0:0:
476,205,91747,5,0,0:0:0:0:
130,345,91912,1,0,0:0:0:0:
415,135,92077,1,0,0:0:0:0:
435,119,92159,1,0,0:0:0:0:
461,114,92241,1,0,0:0:0:0:
286,370,92407,6,0,B|316:249|316:249|292:185,1,157.499995193482
295,193,92736,1,0,0:0:0:0:
99,367,92901,2,0,P|118:353|218:364,1,104.999996795654
495,327,93231,2,0,P|443:333|397:310,1,104.999996795654
137,211,93560,6,0,P|172:225|286:117,1,209.999993591309
186,123,94055,1,0,0:0:0:0:
252,354,94220,1,0,0:0:0:0:
252,354,94302,1,0,0:0:0:0:
252,354,94385,5,0,0:0:0:0:
281,22,94549,1,0,0:0:0:0:
281,22,94632,1,0,0:0:0:0:
281,22,94714,1,0,0:0:0:0:
164,310,94879,1,0,0:0:0:0:
436,223,95044,6,0,P|371:210|287:224,1,150
274,245,95374,1,0,0:0:0:0:
173,103,95538,1,0,0:0:0:0:
173,103,95621,1,0,0:0:0:0:
173,103,95703,1,0,0:0:0:0:
170,206,95868,1,0,0:0:0:0:
267,42,96033,1,0,0:0:0:0:
311,133,96198,1,0,0:0:0:0:
94,43,96363,6,0,P|78:74|85:149,1,100
245,265,96692,2,0,P|226:235|157:204,1,100
150,209,96939,1,0,0:0:0:0:
150,209,97022,1,0,0:0:0:0:
147,312,97187,1,0,0:0:0:0:
308,336,97352,2,0,P|339:284|323:212,1,100
233,81,97681,6,0,P|278:139|374:145,1,150
376,145,98011,1,0,0:0:0:0:
331,46,98176,1,0,0:0:0:0:
331,46,98258,1,0,0:0:0:0:
331,46,98341,1,0,0:0:0:0:
247,229,98505,1,0,0:0:0:0:
158,26,98670,2,0,P|142:64|137:133,1,100
19,266,99000,6,0,P|65:239|168:258,1,150
173,274,99330,1,0,0:0:0:0:
89,358,99494,1,0,0:0:0:0:
89,358,99577,1,0,0:0:0:0:
89,358,99659,1,0,0:0:0:0:
135,122,99824,1,0,0:0:0:0:
178,363,99989,1,0,0:0:0:0:
19,266,100154,1,0,0:0:0:0:
233,188,100319,6,0,P|300:175|406:201,1,150
394,209,100648,1,0,0:0:0:0:
470,35,100813,1,0,0:0:0:0:
470,35,100896,1,0,0:0:0:0:
470,35,100978,1,0,0:0:0:0:
371,73,101143,1,0,0:0:0:0:
480,246,101308,1,0,0:0:0:0:
499,146,101472,1,0,0:0:0:0:
405,301,101637,6,0,P|454:337|521:332,1,100
394,209,101967,2,0,P|345:216|307:248,1,100
302,278,102214,1,0,0:0:0:0:
302,278,102297,1,0,0:0:0:0:
242,159,102461,1,0,0:0:0:0:
203,340,102626,2,0,P|204:256|187:216,1,100
63,23,102956,6,0,P|88:71|98:195,1,150
96,191,103286,1,0,0:0:0:0:
181,46,103450,1,0,0:0:0:0:
181,46,103533,1,0,0:0:0:0:
181,46,103615,1,0,0:0:0:0:
242,159,103780,1,0,0:0:0:0:
327,15,103945,1,0,0:0:0:0:
331,205,104110,6,0,P|297:245|247:261,1,100
242,159,104439,1,0,0:0:0:0:
416,151,104604,2,0,P|433:200|415:262,1,100
408,273,104852,1,0,0:0:0:0:
408,273,104934,1,0,0:0:0:0:
295,81,105099,2,0,L|273:19,1,50
253,260,105264,1,0,0:0:0:0:
331,205,105428,1,0,0:0:0:0:
136,40,105593,6,0,B|172:145|172:145|164:202,1,150
90,159,105923,5,0,0:0:0:0:
357,105,106088,1,0,0:0:0:0:
104,239,106253,5,0,0:0:0:0:
321,31,106418,1,0,0:0:0:0:
76,79,106582,5,0,0:0:0:0:
393,179,106747,1,0,0:0:0:0:
27,211,106912,5,0,0:0:0:0:
357,105,107077,1,0,0:0:0:0:
13,131,107242,5,0,0:0:0:0:
429,253,107407,1,0,0:0:0:0:
41,291,107571,5,0,0:0:0:0:
439,110,107736,1,0,0:0:0:0:
55,371,107901,6,0,P|29:372|-1:359,3,50
104,239,108231,6,0,P|185:191|234:331,1,262.500010013581
366,193,108890,6,0,P|299:192|267:338,1,212.500004053116
253,333,109385,2,0,L|265:379,3,28.3333338737488
456,80,110209,2,0,B|369:54|369:54|312:75,1,150
296,93,110538,2,0,L|307:175,1,50
426,191,110703,2,0,L|415:273,1,50
241,203,110868,6,0,P|193:176|65:177,1,150
77,177,111198,1,0,0:0:0:0:
225,291,111363,1,0,0:0:0:0:
225,291,111445,1,0,0:0:0:0:
225,291,111527,2,0,P|282:284|326:233,1,100
235,103,111857,2,0,P|241:186|239:214,1,100
395,321,112187,6,0,P|393:264|420:158,1,150
428,153,112516,1,0,0:0:0:0:
314,345,112681,1,0,0:0:0:0:
314,345,112764,1,0,0:0:0:0:
314,345,112846,1,0,0:0:0:0:
488,302,113011,1,0,0:0:0:0:
260,261,113176,1,0,0:0:0:0:
240,275,113258,1,0,0:0:0:0:
226,296,113340,1,0,0:0:0:0:
59,114,113505,6,0,P|121:187|202:183,1,150
197,187,113835,1,0,0:0:0:0:
155,107,114000,1,0,0:0:0:0:
155,107,114082,1,0,0:0:0:0:
155,107,114165,1,0,0:0:0:0:
141,282,114330,1,0,0:0:0:0:
243,106,114494,2,0,P|225:37|202:-10,1,100
58,305,114824,5,0,0:0:0:0:
304,220,114989,1,0,0:0:0:0:
328,224,115071,1,0,0:0:0:0:
352,230,115153,1,0,0:0:0:0:
82,220,115319,1,0,0:0:0:0:
388,326,115483,1,0,0:0:0:0:
274,134,115648,1,0,0:0:0:0:
297,313,115813,1,0,0:0:0:0:
373,149,115978,1,0,0:0:0:0:
220,359,116143,6,0,P|203:287|191:177,1,150
274,154,116472,5,0,0:0:0:0:
112,244,116637,1,0,0:0:0:0:
361,186,116802,5,0,0:0:0:0:
37,201,116967,1,0,0:0:0:0:
448,218,117132,5,0,0:0:0:0:
111,157,117297,1,0,0:0:0:0:
433,127,117461,5,0,0:0:0:0:
38,288,117626,1,0,0:0:0:0:
346,95,117791,5,0,0:0:0:0:
113,331,117956,1,0,0:0:0:0:
418,36,118121,5,0,0:0:0:0:
39,375,118286,1,0,0:0:0:0:
433,127,118450,6,0,P|465:125|516:152,3,50
346,95,118780,6,0,B|256:64|256:64|174:109|174:109|66:63,1,280
115,54,119439,6,0,B|183:81|183:81|265:36|265:36|340:64,1,224.999993133545
342,67,119934,2,0,L|393:89,3,29.9999990844727
441,30,120428,6,0,P|454:63|430:141,2,119.999996337891
256,192,121253,12,0,122736,0:0:0:0:
