osu file format v14

[General]
AudioFilename: audio.mp3
AudioLeadIn: 0
PreviewTime: 54940
Countdown: 0
SampleSet: Normal
StackLeniency: 0.2
Mode: 1
LetterboxInBreaks: 0
WidescreenStoryboard: 0

[Editor]
Bookmarks: 517,8593,9747,28209,46670,55901,75805,76670,95132,113593,118209,122824,141286,159747,168978,178209,207343
DistanceSpacing: 0.7
BeatDivisor: 1
GridSize: 32
TimelineZoom: 0.9

[Metadata]
Title:Kaisei no Bus ni Noru
TitleUnicode:快晴のバスに乗る
Artist:After the Rain
ArtistUnicode:After the Rain
Creator:Serizawa Haruki
Version:Nelliel's Kantan
Source:
Tags:まふまふ mafumafu そらる soraru イザナワレトラベラー Izanaware Traveller Jack J_a_c_k Nelliel Faputa Whats Skill
BeatmapID:1820350
BeatmapSetID:869523

[Difficulty]
HPDrainRate:7
CircleSize:2
OverallDifficulty:3
ApproachRate:10
SliderMultiplier:1.4
SliderTickRate:3

[Events]
//Background and Video events
0,0,"bg.jpg",0,100
//Break Periods
2,169178,172855
2,173793,177759
//Storyboard Layer 0 (Background)
//Storyboard Layer 1 (Fail)
//Storyboard Layer 2 (Pass)
//Storyboard Layer 3 (Foreground)
//Storyboard Sound Samples

[TimingPoints]
517,288.461538461538,4,1,0,70,1,0
517,-125,4,1,0,70,0,0
28209,-125,4,1,0,55,0,0
46670,-125,4,1,0,70,0,0
55901,-125,4,1,0,85,0,1
75805,-125,4,1,0,85,0,0
76670,-125,4,1,0,70,0,0
95132,-125,4,1,0,55,0,0
118209,-125,4,1,0,70,0,0
122824,-125,4,1,0,85,0,1
141286,-125,4,1,0,55,0,0
159747,-125,4,1,0,70,0,0
168978,-125,4,1,0,55,0,0
178209,-125,4,1,0,85,0,1
207343,-125,4,1,0,85,0,0

[Colours]
Combo1 : 0,128,64
Combo2 : 253,203,2
Combo3 : 5,52,122
Combo4 : 251,156,142

[HitObjects]
256,192,8593,5,0,0:0:0:0:
256,192,9170,1,0,0:0:0:0:
256,192,9747,1,12,0:0:0:0:
256,192,10324,1,0,0:0:0:0:
256,192,10901,1,8,0:0:0:0:
256,192,11190,1,0,0:0:0:0:
256,192,11478,1,0,0:0:0:0:
256,192,12055,1,0,0:0:0:0:
256,192,12632,1,0,0:0:0:0:
256,192,13209,1,8,0:0:0:0:
256,192,14363,1,8,0:0:0:0:
256,192,14940,1,0,0:0:0:0:
256,192,15516,1,8,0:0:0:0:
256,192,15805,1,0,0:0:0:0:
256,192,16093,1,0,0:0:0:0:
256,192,16670,1,8,0:0:0:0:
256,192,17247,1,8,0:0:0:0:
256,192,17824,1,0,0:0:0:0:
256,192,18978,1,12,0:0:0:0:
256,192,19555,1,0,0:0:0:0:
256,192,20132,1,8,0:0:0:0:
256,192,20420,1,0,0:0:0:0:
256,192,20709,1,0,0:0:0:0:
256,192,21286,1,0,0:0:0:0:
256,192,21863,1,0,0:0:0:0:
256,192,22440,1,8,0:0:0:0:
256,192,23593,1,8,0:0:0:0:
256,192,24170,1,0,0:0:0:0:
256,192,24747,1,8,0:0:0:0:
256,192,25036,1,0,0:0:0:0:
256,192,25324,1,0,0:0:0:0:
256,192,25901,1,8,0:0:0:0:
256,192,26478,1,0,0:0:0:0:
256,192,27055,1,8,0:0:0:0:
256,192,28209,1,8,0:0:0:0:
256,192,28497,5,0,0:0:0:0:
256,192,29363,1,0,0:0:0:0:
256,192,29651,1,0,0:0:0:0:
256,192,29940,1,0,0:0:0:0:
256,192,30516,1,8,0:0:0:0:
256,192,31093,1,0,0:0:0:0:
256,192,31670,1,8,0:0:0:0:
256,192,32824,1,8,0:0:0:0:
256,192,33113,1,0,0:0:0:0:
256,192,33978,1,8,0:0:0:0:
256,192,34266,1,0,0:0:0:0:
256,192,34555,1,8,0:0:0:0:
256,192,35132,1,0,0:0:0:0:
256,192,37440,1,12,0:0:0:0:
256,192,37728,1,0,0:0:0:0:
256,192,38593,1,8,0:0:0:0:
256,192,38882,1,0,0:0:0:0:
256,192,39170,1,0,0:0:0:0:
256,192,39747,1,8,0:0:0:0:
256,192,40324,1,0,0:0:0:0:
256,192,40901,1,8,0:0:0:0:
256,192,42055,1,8,0:0:0:0:
256,192,42343,1,0,0:0:0:0:
256,192,43209,1,8,0:0:0:0:
256,192,43497,1,0,0:0:0:0:
256,192,43786,1,8,0:0:0:0:
256,192,44363,1,0,0:0:0:0:
256,192,46670,1,12,0:0:0:0:
256,192,47247,1,0,0:0:0:0:
256,192,47824,1,0,0:0:0:0:
256,192,48401,1,0,0:0:0:0:
256,192,48978,1,8,0:0:0:0:
256,192,49555,1,0,0:0:0:0:
256,192,50132,1,0,0:0:0:0:
256,192,51286,1,12,0:0:0:0:
256,192,51863,1,0,0:0:0:0:
256,192,52440,1,8,0:0:0:0:
256,192,53016,1,8,0:0:0:0:
256,192,53305,1,8,0:0:0:0:
256,192,53593,1,0,0:0:0:0:
256,192,54747,1,0,0:0:0:0:
256,192,55901,5,12,0:0:0:0:
256,192,56478,1,0,0:0:0:0:
256,192,57055,1,8,0:0:0:0:
256,192,57343,1,8,0:0:0:0:
256,192,58209,1,8,0:0:0:0:
256,192,58497,1,0,0:0:0:0:
256,192,58786,1,8,0:0:0:0:
256,192,59074,1,8,0:0:0:0:
256,192,60228,1,8,0:0:0:0:
256,192,60516,5,0,0:0:0:0:
256,192,61093,1,0,0:0:0:0:
256,192,61670,1,8,0:0:0:0:
256,192,62247,1,8,0:0:0:0:
256,192,62824,1,0,0:0:0:0:
256,192,63401,1,8,0:0:0:0:
256,192,63690,1,0,0:0:0:0:
256,192,65132,1,12,0:0:0:0:
256,192,65709,1,0,0:0:0:0:
256,192,66286,1,8,0:0:0:0:
256,192,66574,1,8,0:0:0:0:
256,192,67440,1,8,0:0:0:0:
256,192,67728,1,8,0:0:0:0:
256,192,68016,1,0,0:0:0:0:
256,192,68305,1,8,0:0:0:0:
256,192,69459,1,8,0:0:0:0:
256,192,70036,1,0,0:0:0:0:
256,192,70613,1,8,0:0:0:0:
256,192,71190,1,8,0:0:0:0:
256,192,71766,1,0,0:0:0:0:
256,192,72055,12,0,74074,0:0:0:0:
256,192,74363,5,8,0:0:0:0:
256,192,75516,1,12,0:0:0:0:
256,192,75805,1,12,0:0:0:0:
256,192,76670,1,12,0:0:0:0:
256,192,77247,1,0,0:0:0:0:
256,192,77824,1,8,0:0:0:0:
256,192,78113,1,0,0:0:0:0:
256,192,78401,1,0,0:0:0:0:
256,192,78978,1,0,0:0:0:0:
256,192,79555,1,0,0:0:0:0:
256,192,80132,1,8,0:0:0:0:
256,192,81286,1,8,0:0:0:0:
256,192,81863,1,0,0:0:0:0:
256,192,82439,1,8,0:0:0:0:
256,192,82728,1,0,0:0:0:0:
256,192,83016,1,0,0:0:0:0:
256,192,83593,1,0,0:0:0:0:
256,192,84170,1,0,0:0:0:0:
256,192,84747,1,8,0:0:0:0:
256,192,85901,1,12,0:0:0:0:
256,192,86478,1,0,0:0:0:0:
256,192,87055,1,8,0:0:0:0:
256,192,87343,1,0,0:0:0:0:
256,192,87632,1,0,0:0:0:0:
256,192,88209,1,0,0:0:0:0:
256,192,88786,1,0,0:0:0:0:
256,192,89363,1,8,0:0:0:0:
256,192,90516,1,8,0:0:0:0:
256,192,91093,1,0,0:0:0:0:
256,192,91670,1,8,0:0:0:0:
256,192,91959,1,0,0:0:0:0:
256,192,92247,1,0,0:0:0:0:
256,192,92824,1,0,0:0:0:0:
256,192,93401,1,8,0:0:0:0:
256,192,93978,1,0,0:0:0:0:
256,192,95132,1,8,0:0:0:0:
256,192,95420,5,0,0:0:0:0:
256,192,95997,1,0,0:0:0:0:
256,192,96286,1,8,0:0:0:0:
256,192,96863,1,0,0:0:0:0:
256,192,97439,1,8,0:0:0:0:
256,192,98016,1,0,0:0:0:0:
256,192,98593,1,8,0:0:0:0:
256,192,99747,1,8,0:0:0:0:
256,192,100036,1,0,0:0:0:0:
256,192,100613,1,0,0:0:0:0:
256,192,100901,1,8,0:0:0:0:
256,192,101478,1,0,0:0:0:0:
256,192,102055,1,8,0:0:0:0:
256,192,104363,1,8,0:0:0:0:
256,192,104651,1,0,0:0:0:0:
256,192,105228,1,0,0:0:0:0:
256,192,105516,1,8,0:0:0:0:
256,192,106093,1,0,0:0:0:0:
256,192,106670,1,8,0:0:0:0:
256,192,107247,1,0,0:0:0:0:
256,192,107824,1,8,0:0:0:0:
256,192,108978,1,8,0:0:0:0:
256,192,109266,1,0,0:0:0:0:
256,192,109843,1,0,0:0:0:0:
256,192,110132,1,8,0:0:0:0:
256,192,110709,1,0,0:0:0:0:
256,192,111286,1,8,0:0:0:0:
256,192,112440,1,0,0:0:0:0:
256,192,113593,1,8,0:0:0:0:
256,192,114747,1,8,0:0:0:0:
256,192,115901,1,8,0:0:0:0:
256,192,116478,1,0,0:0:0:0:
256,192,117055,1,8,0:0:0:0:
256,192,118209,1,8,0:0:0:0:
256,192,118786,1,0,0:0:0:0:
256,192,119363,1,8,0:0:0:0:
256,192,119939,1,0,0:0:0:0:
256,192,120516,1,8,0:0:0:0:
256,192,121093,1,8,0:0:0:0:
256,192,121382,1,8,0:0:0:0:
256,192,121670,1,0,0:0:0:0:
256,192,122824,5,12,0:0:0:0:
256,192,123401,1,0,0:0:0:0:
256,192,123978,1,8,0:0:0:0:
256,192,124266,1,8,0:0:0:0:
256,192,124555,1,0,0:0:0:0:
256,192,125132,1,8,0:0:0:0:
256,192,125709,1,8,0:0:0:0:
256,192,125997,1,0,0:0:0:0:
256,192,127151,1,8,0:0:0:0:
256,192,127440,1,0,0:0:0:0:
256,192,128016,1,0,0:0:0:0:
256,192,128593,1,8,0:0:0:0:
256,192,129170,1,8,0:0:0:0:
256,192,129747,1,0,0:0:0:0:
256,192,130324,1,8,0:0:0:0:
256,192,130613,1,0,0:0:0:0:
256,192,132055,1,12,0:0:0:0:
256,192,132632,1,0,0:0:0:0:
256,192,133209,1,8,0:0:0:0:
256,192,133497,1,8,0:0:0:0:
256,192,134363,1,8,0:0:0:0:
256,192,134940,1,0,0:0:0:0:
256,192,135228,1,8,0:0:0:0:
256,192,136382,1,8,0:0:0:0:
256,192,136959,1,0,0:0:0:0:
256,192,137536,1,8,0:0:0:0:
256,192,138113,1,8,0:0:0:0:
256,192,138690,1,0,0:0:0:0:
256,192,138978,12,0,140132,0:0:0:0:
256,192,141286,5,0,0:0:0:0:
256,192,141863,1,0,0:0:0:0:
256,192,142440,1,8,0:0:0:0:
256,192,142728,1,8,0:0:0:0:
256,192,143305,1,0,0:0:0:0:
256,192,143593,1,0,0:0:0:0:
256,192,144170,1,8,0:0:0:0:
256,192,144747,1,8,0:0:0:0:
256,192,145901,1,8,0:0:0:0:
256,192,146478,1,0,0:0:0:0:
256,192,147055,1,8,0:0:0:0:
256,192,147343,1,8,0:0:0:0:
256,192,147920,1,0,0:0:0:0:
256,192,148209,1,8,0:0:0:0:
256,192,148786,1,8,0:0:0:0:
256,192,149363,1,8,0:0:0:0:
256,192,150228,1,0,0:0:0:0:
256,192,150516,1,8,0:0:0:0:
256,192,151093,1,0,0:0:0:0:
256,192,151670,1,8,0:0:0:0:
256,192,151959,1,8,0:0:0:0:
256,192,152536,1,0,0:0:0:0:
256,192,152824,1,8,0:0:0:0:
256,192,153401,1,8,0:0:0:0:
256,192,153978,1,8,0:0:0:0:
256,192,154555,1,0,0:0:0:0:
256,192,155132,1,8,0:0:0:0:
256,192,155709,1,0,0:0:0:0:
256,192,156286,1,8,0:0:0:0:
256,192,156574,1,8,0:0:0:0:
256,192,157151,1,0,0:0:0:0:
256,192,157440,1,8,0:0:0:0:
256,192,158016,1,8,0:0:0:0:
256,192,158593,1,8,0:0:0:0:
256,192,159459,1,0,0:0:0:0:
256,192,159747,1,12,0:0:0:0:
256,192,160036,1,12,0:0:0:0:
256,192,160901,1,12,0:0:0:0:
256,192,161190,1,12,0:0:0:0:
256,192,162055,1,4,0:0:0:0:
256,192,162632,1,4,0:0:0:0:
256,192,163209,1,4,0:0:0:0:
256,192,164074,1,0,0:0:0:0:
256,192,164363,1,8,0:0:0:0:
256,192,164940,1,0,0:0:0:0:
256,192,165516,1,8,0:0:0:0:
256,192,166093,1,0,0:0:0:0:
256,192,166670,1,8,0:0:0:0:
256,192,167247,1,8,0:0:0:0:
256,192,167824,1,8,0:0:0:0:
256,192,168978,1,12,0:0:0:0:
256,192,173305,5,0,0:0:0:0:
256,192,173593,1,0,0:0:0:0:
256,192,178209,5,12,0:0:0:0:
256,192,178786,1,0,0:0:0:0:
256,192,179363,1,8,0:0:0:0:
256,192,179651,1,0,0:0:0:0:
256,192,180228,1,0,0:0:0:0:
256,192,180516,1,8,0:0:0:0:
256,192,181093,1,0,0:0:0:0:
256,192,181382,1,8,0:0:0:0:
256,192,182536,1,8,0:0:0:0:
256,192,183113,1,0,0:0:0:0:
256,192,183690,1,8,0:0:0:0:
256,192,184266,1,8,0:0:0:0:
256,192,184555,1,0,0:0:0:0:
256,192,184843,1,8,0:0:0:0:
256,192,186574,1,0,0:0:0:0:
256,192,186863,1,0,0:0:0:0:
256,192,187440,1,12,0:0:0:0:
256,192,188016,1,0,0:0:0:0:
256,192,188593,1,8,0:0:0:0:
256,192,188882,1,0,0:0:0:0:
256,192,189747,1,0,0:0:0:0:
256,192,190324,1,8,0:0:0:0:
256,192,190613,1,8,0:0:0:0:
256,192,191766,1,8,0:0:0:0:
256,192,192343,1,0,0:0:0:0:
256,192,192632,1,0,0:0:0:0:
256,192,192920,1,0,0:0:0:0:
256,192,193209,1,8,0:0:0:0:
256,192,193786,1,0,0:0:0:0:
256,192,194363,1,8,0:0:0:0:
256,192,194651,1,8,0:0:0:0:
256,192,195228,1,8,0:0:0:0:
256,192,196670,1,12,0:0:0:0:
256,192,197247,1,0,0:0:0:0:
256,192,197824,1,8,0:0:0:0:
256,192,198113,1,0,0:0:0:0:
256,192,198690,1,0,0:0:0:0:
256,192,198978,1,8,0:0:0:0:
256,192,199843,1,8,0:0:0:0:
256,192,201286,1,0,0:0:0:0:
256,192,201863,1,8,0:0:0:0:
256,192,202151,1,8,0:0:0:0:
256,192,202440,1,0,0:0:0:0:
256,192,203016,1,0,0:0:0:0:
256,192,203593,1,8,0:0:0:0:
256,192,204170,1,0,0:0:0:0:
256,192,204747,1,8,0:0:0:0:
256,192,205036,1,0,0:0:0:0:
256,192,205613,1,8,0:0:0:0:
256,192,205901,1,12,0:0:0:0:
256,192,207055,1,4,0:0:0:0:
256,192,207343,1,4,0:0:0:0:
