osu file format v14

[General]
AudioFilename: audio.mp3
AudioLeadIn: 0
PreviewTime: 7831
Countdown: 0
SampleSet: Soft
StackLeniency: 0.4
Mode: 0
LetterboxInBreaks: 0
WidescreenStoryboard: 0

[Editor]
DistanceSpacing: 1
BeatDivisor: 4
GridSize: 4
TimelineZoom: 1.6

[Metadata]
Title:Anti-Clockwise (TV Size)
TitleUnicode:アンチクロックワイズ (TV Size)
Artist:After the Rain
ArtistUnicode:After the Rain
Creator:Nao Tomori
Version:Y
Source:クロックワーク・プラネット
Tags:mafumafu まふまふ soraru そらる anime ending ed japanese clockwork cyndere planet counterclockwise anticlockwise
BeatmapID:1354138
BeatmapSetID:638341

[Difficulty]
HPDrainRate:6
CircleSize:4.2
OverallDifficulty:8.3
ApproachRate:9.1
SliderMultiplier:1.7
SliderTickRate:1

[Events]
//Background and Video events
0,0,"783301.jpg",0,0
//Break Periods
//Storyboard Layer 0 (Background)
//Storyboard Layer 1 (Fail)
//Storyboard Layer 2 (Pass)
//Storyboard Layer 3 (Foreground)
//Storyboard Sound Samples

[TimingPoints]
7925,322.58064516129,4,2,1,60,1,0
7925,-100,4,2,1,60,0,0
10506,-100,4,2,1,60,0,0
10667,322.58064516129,4,2,1,60,1,0
10667,-100,4,2,1,60,0,0
20828,-149.253731343284,4,2,1,60,0,0
23408,-149.253731343284,4,2,1,41,0,0
31150,-416.666666666667,4,2,1,44,0,0
31231,-416.666666666667,4,2,1,5,0,0
32279,-416.666666666667,4,2,1,55,0,0
32441,-100,4,2,1,60,0,0
45505,-100,4,2,1,60,0,0
45586,-100,4,2,1,50,0,0
50666,-100,4,2,1,60,0,0
55565,-133.333333333333,4,2,1,60,0,0
55666,-86.9565217391304,4,2,1,75,0,1
55887,-86.9565217391304,4,2,1,75,0,1
60505,-100,4,2,1,75,0,1
65989,-86.9565217391304,4,2,1,75,0,1
71150,-100,4,2,1,75,0,1
78892,-333.333333333333,4,2,1,60,0,0
78973,-333.333333333333,4,2,1,5,0,0
79113,-100,4,2,1,5,0,0
80021,-100,4,2,1,60,0,0
80344,-500,4,2,1,60,0,0
80425,-500,4,2,1,5,0,0
81634,-500,4,2,1,24,0,0
84054,-500,4,2,1,12,0,0

[Colours]
Combo1 : 117,149,141
Combo2 : 234,204,149
Combo3 : 152,135,165

[HitObjects]
403,264,7925,5,2,3:2:0:0:
407,232,8006,1,2,3:2:0:0:
399,202,8086,1,2,3:2:0:0:
381,176,8167,1,2,3:2:0:0:
355,159,8247,2,0,L|287:168,1,42.5,2|2,3:2|3:2,0:0:0:0:
239,254,8408,2,0,L|307:263,1,42.5,2|2,3:2|3:2,0:0:0:0:
187,178,8570,5,2,3:2:0:0:
167,198,8650,1,2,3:2:0:0:
154,223,8731,1,2,3:2:0:0:
148,250,8811,1,2,3:2:0:0:
151,278,8892,1,2,3:2:0:0:
163,304,8973,1,2,3:2:0:0:
181,326,9053,1,2,3:2:0:0:
356,349,9215,6,0,L|474:333,1,85,12|0,0:2|0:2,0:0:0:0:
490,215,9537,1,0,3:2:0:0:
381,157,9699,2,0,L|361:225,1,42.5,12|0,0:2|0:2,0:0:0:0:
484,262,9860,2,0,L|466:201,1,42.5,0|0,3:2|3:2,0:0:0:0:
348,68,10021,1,12,2:2:0:0:
322,96,10102,1,0,3:2:0:0:
292,119,10183,2,0,L|232:114,1,42.5,0|0,3:2|3:2,0:0:0:0:
196,37,10344,1,8,2:2:0:0:
28,83,10506,6,0,P|-3:161|40:261,1,170,4|2,3:2|3:2,0:0:0:0:
111,284,10908,1,2,0:2:0:0:
111,284,10989,2,0,L|187:274,1,42.5,8|0,0:2|0:2,0:0:0:0:
244,325,11150,2,0,L|320:335,1,42.5,0|0,0:2|0:2,0:0:0:0:
427,308,11312,1,2,3:2:0:0:
443,295,11392,1,2,0:2:0:0:
454,277,11473,1,2,0:2:0:0:
458,256,11554,1,2,0:2:0:0:
453,235,11634,1,10,2:2:0:0:
354,147,11796,6,0,P|272:159|168:112,1,170,4|0,3:2|3:2,0:0:0:0:
89,81,12279,1,8,0:2:0:0:
24,167,12441,1,0,3:2:0:0:
24,167,12521,1,0,3:2:0:0:
24,167,12602,1,0,3:2:0:0:
110,239,12763,1,0,3:2:0:0:
128,100,12925,1,8,3:2:0:0:
16,280,13086,6,0,P|56:325|184:308,1,170,4|2,3:2|3:2,0:0:0:0:
294,188,13570,2,0,L|300:123,1,42.5,10|0,2:2|0:2,0:0:0:0:
108,194,13731,2,0,L|114:259,1,42.5,2|2,3:2|0:2,0:0:0:0:
193,141,13892,1,2,3:2:0:0:
175,114,13972,1,2,0:2:0:0:
150,96,14053,1,2,0:2:0:0:
119,89,14133,1,2,0:2:0:0:
87,94,14214,1,10,2:2:0:0:
229,232,14376,6,0,P|347:221|427:212,1,170,4|2,3:2|3:2,0:0:0:0:
486,74,14860,1,8,0:2:0:0:
348,81,15021,1,0,3:2:0:0:
479,251,15183,2,0,L|488:185,1,42.5,10|2,0:2|0:2,0:0:0:0:
496,90,15344,1,2,3:2:0:0:
346,233,15505,1,10,0:2:0:0:
457,358,15666,6,0,P|467:279|457:168,1,170,4|2,3:2|3:2,0:0:0:0:
419,121,16070,1,2,0:2:0:0:
419,121,16150,2,0,L|338:113,1,42.5,8|0,0:2|0:2,0:0:0:0:
268,82,16312,2,0,L|225:86,1,42.5,0|0,0:2|0:2,0:0:0:0:
132,151,16473,1,2,3:2:0:0:
118,179,16554,1,2,0:2:0:0:
112,211,16634,1,2,0:2:0:0:
115,242,16715,1,2,0:2:0:0:
126,272,16796,1,10,2:2:0:0:
346,309,16957,6,0,P|368:240|341:133,1,170,4|0,3:2|3:2,0:0:0:0:
236,90,17441,2,0,L|134:100,1,85,8|0,0:2|0:2,0:0:0:0:
98,239,17763,1,0,3:2:0:0:
98,239,17925,2,0,L|199:228,1,85,2|8,0:2|2:2,0:0:0:0:
19,164,18247,6,0,P|0:245|21:326,1,170,4|2,3:2|3:2,0:0:0:0:
136,365,18731,1,10,0:2:0:0:
162,348,18811,1,2,0:2:0:0:
193,337,18892,1,2,0:2:0:0:
224,335,18972,1,2,0:2:0:0:
256,340,19054,2,0,L|328:331,1,42.5,2|0,3:2|0:2,0:0:0:0:
335,226,19215,2,0,L|292:231,1,42.5,2|0,0:2|0:2,0:0:0:0:
390,313,19376,1,10,2:2:0:0:
507,170,19537,6,0,P|513:118|436:25,1,170,4|0,3:2|3:2,0:0:0:0:
336,0,20021,2,0,L|270:20,1,42.5,8|0,0:2|0:2,0:0:0:0:
235,117,20183,1,0,3:2:0:0:
235,117,20263,1,0,3:2:0:0:
235,117,20344,2,0,L|297:128,1,42.5,2|2,3:2|3:2,0:0:0:0:
190,23,20506,1,2,3:2:0:0:
156,48,20586,1,0,3:2:0:0:
134,84,20667,1,0,3:2:0:0:
128,126,20747,1,0,3:2:0:0:
139,168,20828,6,0,L|313:152,1,170.849991918412,4|0,3:2|3:2,0:0:0:0:
336,169,21634,1,0,3:2:0:0:
362,185,21957,1,0,3:2:0:0:
388,201,22279,1,0,3:2:0:0:
414,217,22602,1,2,3:2:0:0:
414,217,22683,1,2,0:2:0:0:
414,217,22763,1,2,0:2:0:0:
440,233,23086,1,2,0:2:0:0:
501,130,23408,6,0,P|514:79|466:11,1,113.899994612274,2|2,0:2|0:2,0:0:0:0:
403,0,23892,1,2,0:2:0:0:
343,60,24054,2,0,L|282:70,1,56.9499973061372,2|2,0:2|0:2,0:0:0:0:
221,16,24376,2,0,P|181:42|106:32,1,113.899994612274,2|2,0:2|0:2,0:0:0:0:
108,42,25505,6,0,P|85:83|93:156,1,113.899994612274,2|0,0:2|0:2,0:0:0:0:
20,190,25989,2,0,L|39:311,1,113.899994612274,2|0,0:2|0:2,0:0:0:0:
110,348,26473,1,2,0:2:0:0:
237,288,26796,2,0,P|281:274|354:295,1,113.899994612274,2|0,0:2|0:2,0:0:0:0:
408,345,27279,1,2,0:2:0:0:
414,346,28570,6,0,P|432:310|428:237,1,113.899994612274,2|0,0:2|0:2,0:0:0:0:
374,175,29054,2,0,L|303:175,1,56.9499973061372,2|0,0:2|0:2,0:0:0:0:
250,231,29376,1,2,0:2:0:0:
250,231,29537,2,0,P|215:247|124:230,1,113.899994612274,2|2,0:2|0:2,0:0:0:0:
127,221,30666,6,0,P|87:253|78:336,1,113.899994612274,2|0,0:2|0:2,0:0:0:0:
149,365,31150,2,0,P|207:353|286:344,1,132.600003237305,2|0,0:2|0:2,0:0:0:0:
307,346,32279,1,10,0:2:0:0:
403,184,32441,6,8,P|409:109|352:27,1,170,2|8,3:2|3:2,0:0:0:0:
308,244,32925,1,10,3:2:0:0:
512,173,33086,1,10,3:2:0:0:
320,123,33247,1,10,3:2:0:0:
320,123,33328,1,8,3:2:0:0:
320,123,33408,1,8,3:2:0:0:
439,275,33570,1,8,3:2:0:0:
453,64,33731,6,0,B|355:71|392:133|286:138,1,170,14|2,3:2|3:2,0:0:0:0:
150,75,34215,1,10,0:2:0:0:
150,75,34376,1,2,0:2:0:0:
37,156,34537,2,0,P|23:209|33:250,1,85,2|0,3:2|3:2,0:0:0:0:
106,330,34860,1,10,0:2:0:0:
275,223,35021,6,0,P|278:138|278:120,1,85,6|0,3:2|0:2,0:0:0:0:
133,6,35344,2,0,P|133:48|136:91,1,85,2|8,3:2|0:2,0:0:0:0:
283,236,35666,2,0,P|335:227|380:220,1,85,2|0,0:2|3:2,0:0:0:0:
139,109,35989,2,0,P|97:102|55:94,1,85,2|8,3:2|0:2,0:0:0:0:
132,281,36312,6,0,P|194:307|294:246,1,170,6|2,3:2|3:2,0:0:0:0:
269,77,36796,1,10,0:2:0:0:
206,211,36957,1,2,0:2:0:0:
367,321,37118,2,0,P|432:318|475:316,1,85,2|0,3:2|3:2,0:0:0:0:
304,190,37441,1,10,0:2:0:0:
214,249,37602,6,0,P|285:289|381:261,1,170,6|2,3:2|3:2,0:0:0:0:
498,116,38086,2,0,L|385:105,1,85,8|8,0:2|0:2,0:0:0:0:
341,135,38328,1,8,2:2:0:0:
341,135,38408,1,4,3:2:0:0:
502,206,38570,1,2,3:2:0:0:
442,12,38731,1,10,0:2:0:0:
246,122,38892,6,0,P|238:178|244:225,1,85,6|0,3:2|0:2,0:0:0:0:
329,279,39215,1,2,3:2:0:0:
398,157,39376,1,10,2:2:0:0:
225,298,39537,1,2,0:2:0:0:
441,339,39699,2,0,P|450:290|400:162,1,170,2|8,3:2|2:2,0:0:0:0:
166,154,40183,6,0,P|77:166|62:168,1,85,2|0,0:2|3:2,0:0:0:0:
266,219,40505,1,2,0:2:0:0:
174,48,40666,1,10,2:2:0:0:
104,246,40828,2,0,L|6:262,1,85,2|0,0:2|3:2,0:0:0:0:
179,331,41150,5,2,0:2:0:0:
240,238,41312,1,10,2:2:0:0:
118,223,41473,1,2,0:2:0:0:
275,364,41634,6,0,P|317:348|448:360,1,170,6|8,3:2|0:2,0:0:0:0:
504,286,42118,1,2,3:2:0:0:
274,35,42441,1,2,3:2:0:0:
116,346,42763,1,6,3:2:0:0:
128,356,43086,5,0,3:2:0:0:
288,264,43247,1,0,3:2:0:0:
167,199,43408,1,0,3:2:0:0:
279,353,43570,1,0,3:2:0:0:
299,156,43731,1,0,3:2:0:0:
192,293,43892,1,0,3:2:0:0:
371,310,44054,1,0,3:2:0:0:
185,120,44215,5,12,3:2:0:0:
69,232,44376,1,8,3:2:0:0:
227,296,44537,1,8,3:2:0:0:
88,128,44699,1,2,3:2:0:0:
125,324,44860,1,14,3:2:0:0:
320,271,45021,1,2,3:2:0:0:
328,278,45102,1,2,3:2:0:0:
328,278,45182,1,6,3:2:0:0:
210,197,45344,1,2,3:2:0:0:
250,351,45505,5,6,3:2:0:0:
332,324,46634,1,0,3:2:0:0:
332,324,46796,1,0,3:2:0:0:
414,297,48086,1,2,3:2:0:0:
496,270,49215,1,0,3:2:0:0:
496,270,49376,1,0,3:2:0:0:
419,196,50183,5,2,3:2:0:0:
419,196,50263,1,2,3:2:0:0:
419,196,50344,2,0,L|310:184,1,85,10|0,3:2|0:2,0:0:0:0:
479,277,50666,5,6,3:2:0:0:
372,82,50828,1,2,3:2:0:0:
240,264,50989,1,10,0:2:0:0:
454,171,51150,6,0,P|473:76|451:-1,1,170,6|2,3:2|3:2,0:0:0:0:
240,127,51634,1,10,0:2:0:0:
345,319,51796,2,0,P|399:314|519:292,1,170,6|0,3:2|3:2,0:0:0:0:
237,164,52279,2,0,P|168:173|132:181,1,85,8|2,2:2|0:2,0:0:0:0:
343,234,52602,5,6,3:2:0:0:
364,186,52682,1,0,3:2:0:0:
362,133,52763,1,2,3:2:0:0:
336,88,52843,1,0,3:2:0:0:
291,59,52924,1,2,3:2:0:0:
163,170,53086,1,2,3:2:0:0:
299,290,53247,5,6,3:2:0:0:
193,47,53408,1,2,3:2:0:0:
59,284,53570,5,14,0:2:0:0:
282,208,53731,1,2,3:2:0:0:
42,53,53892,5,12,3:2:0:0:
42,53,53973,1,12,3:2:0:0:
42,53,54054,1,8,3:2:0:0:
163,269,54215,1,8,0:2:0:0:
314,83,54376,1,4,3:2:0:0:
317,57,54699,5,12,3:2:0:0:
44,156,54860,1,12,3:2:0:0:
23,154,55666,6,0,P|77:220|221:228,1,195.500003728867,6|0,3:2|3:2,0:0:0:0:
381,180,56150,2,0,L|496:156,1,97.7500018644333,10|0,0:2|0:2,0:0:0:0:
263,104,56473,1,2,3:2:0:0:
372,278,56634,1,2,3:2:0:0:
499,129,56796,1,10,0:2:0:0:
257,206,56957,6,0,P|237:270|246:324,1,97.7500018644333,6|0,3:2|0:2,0:0:0:0:
509,315,57279,2,0,P|512:255|499:218,1,97.7500018644333,2|8,3:2|0:2,0:0:0:0:
249,186,57602,2,0,L|145:194,1,97.7500018644333,2|0,0:2|3:2,0:0:0:0:
392,253,57925,2,0,L|491:244,1,97.7500018644333,2|8,3:2|0:2,0:0:0:0:
315,53,58247,6,8,B|213:41|240:121|108:94,1,195.500003728867,6|2,3:2|3:2,0:0:0:0:
294,152,58731,1,10,0:2:0:0:
164,3,58892,1,2,0:2:0:0:
147,259,59054,2,0,P|216:265|310:255,1,146.62500279665,2|0,3:2|2:2,0:0:0:0:
370,221,59376,1,10,0:2:0:0:
81,200,59537,6,0,P|66:260|62:342,1,97.7500018644333,6|0,3:2|0:2,0:0:0:0:
190,143,59860,1,2,3:2:0:0:
0,191,60021,1,8,0:2:0:0:
133,354,60183,1,4,3:2:0:0:
154,358,60505,5,2,3:2:0:0:
263,259,60666,1,10,0:2:0:0:
150,91,60828,2,0,P|129:143|178:265,1,170,6|2,3:2|3:2,0:0:0:0:
288,317,61312,1,10,0:2:0:0:
250,179,61473,1,2,0:2:0:0:
200,345,61634,2,0,P|267:343|315:343,1,85,2|0,3:2|3:2,0:0:0:0:
418,384,61957,1,10,0:2:0:0:
506,245,62118,6,0,P|516:178|467:77,1,170,6|2,3:2|3:2,0:0:0:0:
376,37,62602,1,10,0:2:0:0:
295,118,62763,2,0,L|190:126,1,85,2|0,0:2|3:2,0:0:0:0:
101,40,63086,1,2,3:2:0:0:
16,86,63247,1,10,0:2:0:0:
208,255,63408,6,0,P|226:196|169:96,1,170,6|2,3:2|3:2,0:0:0:0:
23,222,63892,1,10,0:2:0:0:
134,190,64054,1,2,0:2:0:0:
52,51,64215,2,0,L|58:140,1,85,6|0,3:2|3:2,0:0:0:0:
112,290,64537,1,10,0:2:0:0:
274,217,64699,6,0,B|454:227,1,170,6|2,3:2|3:2,0:0:0:0:
208,144,65183,1,10,0:2:0:0:
290,304,65344,1,2,3:2:0:0:
389,137,65505,2,0,L|317:137,1,42.5,2|0,3:2|3:2,0:0:0:0:
165,228,65666,1,0,3:0:0:0:
166,239,65748,1,0,3:0:0:0:
168,249,65828,1,0,3:0:0:0:
170,259,65909,1,0,3:0:0:0:
174,270,65989,6,0,P|235:295|352:225,1,195.500003728867,6|2,3:2|3:2,0:0:0:0:
121,142,66473,1,10,0:2:0:0:
122,359,66634,1,2,0:2:0:0:
225,104,66796,5,2,3:2:0:0:
0,259,66957,1,2,3:2:0:0:
233,376,67118,1,10,0:2:0:0:
419,228,67279,6,0,L|321:245,1,97.7500018644333,6|0,3:2|0:2,0:0:0:0:
132,320,67602,2,0,L|230:337,1,97.7500018644333,2|8,3:2|0:2,0:0:0:0:
177,78,67925,2,0,P|148:148|157:207,1,97.7500018644333,2|0,0:2|3:2,0:0:0:0:
338,354,68247,2,0,P|332:305|308:263,1,97.7500018644333,2|8,3:2|0:2,0:0:0:0:
50,310,68570,6,0,P|101:347|236:331,1,195.500003728867,6|2,3:2|3:2,0:0:0:0:
266,174,69054,1,10,0:2:0:0:
151,245,69215,1,2,0:2:0:0:
328,365,69376,2,0,P|413:346|503:344,1,146.62500279665,6|0,3:2|2:2,0:0:0:0:
512,265,69699,1,10,0:2:0:0:
297,117,69860,6,0,B|199:104|209:182|97:160,1,195.500003728867,6|2,3:2|3:2,0:0:0:0:
24,252,70344,1,8,0:2:0:0:
130,358,70505,2,0,P|138:306|128:252,1,97.7500018644333,4|0,3:2|0:2,0:0:0:0:
7,46,70828,2,0,P|0:94|8:142,1,97.7500018644333,2|8,3:2|2:2,0:0:0:0:
266,210,71150,6,0,P|336:205|462:188,1,170,6|2,3:2|3:2,0:0:0:0:
319,118,71634,1,10,0:2:0:0:
334,304,71796,1,2,0:2:0:0:
457,209,71957,2,0,P|464:163|457:104,1,85,2|0,3:2|3:2,0:0:0:0:
357,11,72279,1,10,0:2:0:0:
215,100,72441,6,0,P|194:166|214:278,1,170,6|2,3:2|3:2,0:0:0:0:
319,355,72925,1,10,0:2:0:0:
434,255,73086,1,2,3:2:0:0:
434,255,73166,1,2,3:2:0:0:
434,255,73247,1,2,3:2:0:0:
370,172,73408,2,8,P|332:233|333:275,1,85,2|8,3:2|0:2,0:0:0:0:
484,339,73731,6,0,L|462:158,1,170,6|0,3:2|3:2,0:0:0:0:
372,67,74215,2,0,P|325:53|256:71,1,85,8|2,0:2|0:2,0:0:0:0:
190,142,74537,1,2,3:2:0:0:
279,157,74699,1,2,3:2:0:0:
205,49,74860,1,10,0:2:0:0:
15,164,75021,6,0,P|99:172|184:178,1,170,6|0,3:2|3:2,0:0:0:0:
398,163,75505,1,10,0:2:0:0:
314,107,75666,1,2,3:2:0:0:
314,107,75747,1,2,3:2:0:0:
314,107,75828,2,0,P|304:172|305:219,1,85,2|0,3:2|3:2,0:0:0:0:
380,256,76150,1,10,0:2:0:0:
374,31,76312,6,0,P|303:12|211:87,1,170,6|2,3:2|3:2,0:0:0:0:
177,183,76796,1,10,0:2:0:0:
311,115,76957,1,0,3:2:0:0:
192,47,77118,1,0,3:2:0:0:
260,223,77279,1,0,3:2:0:0:
412,157,77441,1,8,0:2:0:0:
220,49,77602,6,0,P|200:111|239:216,1,170,4|0,3:2|3:2,0:0:0:0:
335,264,78086,1,8,0:2:0:0:
335,264,78166,1,8,0:2:0:0:
335,264,78247,1,8,0:2:0:0:
442,197,78408,1,8,0:2:0:0:
341,138,78570,1,10,0:2:0:0:
377,342,78731,1,8,0:2:0:0:
463,208,78892,6,0,P|443:142|343:113,1,178.499994552612,14|0,0:2|0:2,0:0:0:0:
224,209,80183,1,2,3:2:0:0:
237,225,80344,6,0,L|375:198,1,136,12|0,0:2|0:2,0:0:0:0:
256,192,81715,12,0,84054,0:2:0:0:
