osu file format v14

[General]
AudioFilename: audio.mp3
AudioLeadIn: 0
PreviewTime: 7831
Countdown: 0
SampleSet: Soft
StackLeniency: 0.4
Mode: 0
LetterboxInBreaks: 0
WidescreenStoryboard: 1

[Editor]
DistanceSpacing: 1
BeatDivisor: 4
GridSize: 4
TimelineZoom: 1.6

[Metadata]
Title:Anti-Clockwise (TV Size)
TitleUnicode:アンチクロックワイズ (TV Size)
Artist:After the Rain
ArtistUnicode:After the Rain
Creator:Nao Tomori
Version:Insane
Source:クロックワーク・プラネット
Tags:mafumafu まふまふ soraru そらる anime ending ed japanese clockwork cyndere planet counterclockwise anticlockwise
BeatmapID:1939705
BeatmapSetID:638341

[Difficulty]
HPDrainRate:5.3
CircleSize:3.8
OverallDifficulty:7.5
ApproachRate:8.7
SliderMultiplier:1.56
SliderTickRate:1

[Events]
//Background and Video events
0,0,"783301.jpg",0,0
//Break Periods
2,23608,30505
//Storyboard Layer 0 (Background)
//Storyboard Layer 1 (Fail)
//Storyboard Layer 2 (Pass)
//Storyboard Layer 3 (Foreground)
//Storyboard Sound Samples

[TimingPoints]
7925,322.58064516129,4,2,1,60,1,0
7925,-100,4,2,1,60,0,0
10506,-100,4,2,1,60,0,0
10667,322.58064516129,4,2,1,60,1,0
10667,-100,4,2,1,60,0,0
20828,-149.253731343284,4,2,1,60,0,0
23408,-149.253731343284,4,2,1,41,0,0
31150,-416.666666666667,4,2,1,44,0,0
31231,-416.666666666667,4,2,1,5,0,0
32279,-416.666666666667,4,2,1,55,0,0
32441,-100,4,2,1,60,0,0
45586,-100,4,2,1,50,0,0
46634,-100,4,2,1,50,0,0
50183,-100,4,2,1,50,0,0
50666,-100,4,2,1,60,0,0
55565,-133.333333333333,4,2,1,60,0,0
55666,-86.9565217391304,4,2,1,75,0,1
55887,-86.9565217391304,4,2,1,75,0,1
60505,-100,4,2,1,75,0,1
65989,-86.9565217391304,4,2,1,75,0,1
71150,-100,4,2,1,75,0,1
78892,-333.333333333333,4,2,1,60,0,0
78973,-333.333333333333,4,2,1,5,0,0
79113,-100,4,2,1,5,0,0
80021,-100,4,2,1,60,0,0
80344,-500,4,2,1,60,0,0
80425,-500,4,2,1,5,0,0
81634,-500,4,2,1,24,0,0
84054,-500,4,2,1,12,0,0

[Colours]
Combo1 : 117,149,141
Combo2 : 234,204,149
Combo3 : 152,135,165

[HitObjects]
89,103,7925,5,2,3:2:0:0:
89,103,8005,1,2,3:2:0:0:
89,103,8086,1,2,3:2:0:0:
89,103,8166,1,2,3:2:0:0:
89,103,8247,2,0,L|95:196,1,78,2|2,3:2|3:2,0:0:0:0:
186,239,8570,2,0,L|181:162,1,78,2|2,3:2|3:2,0:0:0:0:
124,307,8892,2,0,L|120:357,3,39,2|2|2|2,3:2|3:2|3:2|3:2,2:2:0:0:
204,324,9215,6,0,P|264:310|344:359,1,156,12|0,0:2|3:2,0:0:0:0:
497,274,9699,2,0,P|507:229|498:183,1,78,12|0,0:2|3:2,0:0:0:0:
392,86,10021,1,12,2:2:0:0:
392,86,10102,1,0,3:2:0:0:
392,86,10183,1,0,3:2:0:0:
331,187,10344,1,8,2:2:0:0:
496,59,10506,6,0,P|413:53|325:79,1,156,4|2,3:2|3:2,0:0:0:0:
229,34,10989,2,0,P|173:43|133:43,1,78,8|0,0:2|0:2,0:0:0:0:
46,21,11312,1,2,3:2:0:0:
26,42,11392,1,2,0:2:0:0:
16,69,11473,2,0,L|-4:166,1,78,2|10,0:2|2:2,0:0:0:0:
102,203,11796,6,0,P|127:305|141:362,1,156,4|0,3:2|3:2,0:0:0:0:
208,266,12279,1,8,0:2:0:0:
27,255,12441,1,0,3:2:0:0:
27,255,12521,1,0,3:2:0:0:
27,255,12602,2,0,L|44:333,1,78,0|0,3:2|3:2,0:0:0:0:
139,354,12925,1,8,3:2:0:0:
241,253,13086,6,0,B|335:261|290:302|401:305,1,156,4|2,3:2|3:2,0:0:0:0:
484,224,13570,1,10,2:2:0:0:
412,142,13731,1,2,3:2:0:0:
412,142,13812,1,2,0:2:0:0:
412,142,13892,2,0,P|396:70|404:41,2,78,2|2|2,3:2|0:2|3:2,0:0:0:0:
282,51,14376,6,0,P|250:98|157:134,1,156,4|2,3:2|3:2,0:0:0:0:
35,104,14860,1,8,0:2:0:0:
124,235,15021,1,0,3:2:0:0:
139,35,15183,5,10,0:2:0:0:
25,190,15344,1,2,3:2:0:0:
216,220,15505,1,10,0:2:0:0:
127,136,15666,6,0,P|133:225|142:311,1,156,4|2,3:2|3:2,0:0:0:0:
205,351,16070,1,2,0:2:0:0:
205,351,16150,1,8,0:2:0:0:
327,301,16312,1,0,0:2:0:0:
441,352,16473,1,2,3:2:0:0:
441,352,16554,1,2,0:2:0:0:
441,352,16634,2,0,P|445:303|453:268,1,78,2|10,0:2|2:2,0:0:0:0:
354,90,16957,6,0,L|188:83,1,156,4|0,3:2|3:2,0:0:0:0:
106,140,17441,2,0,P|85:188|90:234,1,78,8|0,0:2|0:2,0:0:0:0:
255,268,17763,2,0,P|273:233|276:195,1,78,0|2,3:2|0:2,0:0:0:0:
183,204,18086,1,8,2:2:0:0:
336,335,18247,6,0,P|364:288|367:157,1,156,4|2,3:2|3:2,0:0:0:0:
320,83,18731,1,10,0:2:0:0:
212,138,18892,1,2,0:2:0:0:
212,138,18973,1,2,0:2:0:0:
212,138,19054,2,0,L|124:133,1,78,2|2,3:2|0:2,0:0:0:0:
56,56,19376,1,10,2:2:0:0:
4,207,19537,6,0,P|50:244|164:223,1,156,4|0,3:2|3:2,0:0:0:0:
175,79,20021,1,8,0:2:0:0:
88,150,20183,1,0,3:2:0:0:
88,150,20263,1,0,3:2:0:0:
88,150,20344,1,2,3:2:0:0:
212,276,20505,1,2,3:2:0:0:
299,225,20666,1,0,3:2:0:0:
299,225,20747,1,0,3:2:0:0:
299,225,20828,6,0,L|424:211,1,104.519995055969,4|0,3:2|0:0,0:0:0:0:
490,142,21312,1,0,3:2:0:0:
471,31,21634,1,0,3:2:0:0:
383,102,21957,1,0,3:2:0:0:
402,213,22279,1,0,3:2:0:0:
314,284,22602,1,2,3:2:0:0:
314,284,22683,1,2,0:2:0:0:
314,284,22763,2,0,P|256:267|194:281,2,104.519995055969,2|2|2,0:2|0:2|0:2,0:0:0:0:
343,293,31150,6,0,P|351:237|313:184,1,121.680002970703,2|0,0:2|0:2,0:0:0:0:
289,171,32279,1,10,0:2:0:0:
109,240,32441,6,0,P|181:267|276:250,1,156,2|8,3:2|3:2,0:0:0:0:
377,128,32925,1,10,3:2:0:0:
289,84,33086,1,10,3:2:0:0:
379,222,33247,1,10,3:2:0:0:
379,222,33328,1,8,3:2:0:0:
379,222,33408,1,8,3:2:0:0:
464,180,33570,1,8,3:2:0:0:
380,40,33731,6,0,B|296:33|319:96|198:77,1,156,14|2,3:2|3:2,0:0:0:0:
104,20,34215,1,10,0:2:0:0:
20,73,34376,1,2,0:2:0:0:
99,182,34537,2,0,P|105:254|108:275,1,78,2|0,3:2|3:2,0:0:0:0:
187,168,34860,1,10,0:2:0:0:
13,223,35021,6,0,P|19:301|23:327,1,78,6|0,3:2|0:2,0:0:0:0:
185,362,35344,2,0,P|250:350|286:352,1,78,2|8,3:2|0:2,0:0:0:0:
384,295,35666,2,0,P|439:295|478:288,1,78,2|0,0:2|3:2,0:0:0:0:
371,124,35989,2,0,P|343:158|327:201,1,78,2|8,3:2|0:2,0:0:0:0:
483,186,36312,6,0,P|471:129|419:38,1,156,6|2,3:2|3:2,0:0:0:0:
306,3,36796,1,10,0:2:0:0:
235,77,36957,1,2,0:2:0:0:
95,31,37118,2,0,P|71:74|63:107,1,78,2|0,3:2|3:2,0:0:0:0:
145,238,37441,1,10,0:2:0:0:
222,189,37602,6,0,P|300:180|390:171,1,156,6|2,3:2|3:2,0:0:0:0:
495,78,38086,1,8,0:2:0:0:
371,28,38247,1,8,0:2:0:0:
371,28,38328,1,8,2:2:0:0:
371,28,38408,1,4,3:2:0:0:
475,165,38570,1,2,3:2:0:0:
503,63,38731,1,10,0:2:0:0:
373,153,38892,6,0,P|265:138|202:133,1,156,6|2,3:2|3:2,0:0:0:0:
98,37,39376,1,10,2:2:0:0:
132,204,39537,1,2,0:2:0:0:
290,107,39699,2,0,P|282:54|271:24,1,78,2|0,3:2|0:0,0:0:0:0:
159,184,40021,1,8,2:2:0:0:
261,283,40183,6,0,P|314:269|452:256,1,156,2|2,0:2|0:2,0:0:0:0:
493,139,40666,1,10,2:2:0:0:
389,82,40828,2,0,P|380:135|385:181,1,78,2|0,0:2|3:2,0:0:0:0:
465,29,41150,1,2,0:2:0:0:
300,62,41312,1,10,2:2:0:0:
468,135,41473,1,2,0:2:0:0:
298,39,41634,6,0,P|280:99|284:206,1,156,6|8,3:2|0:2,0:0:0:0:
354,261,42118,1,2,3:2:0:0:
195,34,42441,1,2,3:2:0:0:
81,263,42763,1,6,3:2:0:0:
106,257,43086,5,0,3:2:0:0:
201,128,43247,1,0,3:2:0:0:
106,158,43408,1,0,3:2:0:0:
201,288,43570,1,0,3:2:0:0:
258,208,43731,1,0,3:2:0:0:
88,246,43892,2,0,L|77:333,1,78,0|0,3:2|3:2,0:0:0:0:
221,373,44215,5,12,3:2:0:0:
344,295,44376,1,8,3:2:0:0:
229,237,44537,1,8,3:2:0:0:
318,382,44699,1,2,3:2:0:0:
445,301,44860,1,14,3:2:0:0:
372,188,45021,1,2,3:2:0:0:
372,188,45102,1,2,3:2:0:0:
372,188,45183,1,6,3:2:0:0:
343,273,45344,1,2,3:2:0:0:
424,327,45505,5,6,3:2:0:0:
503,295,46634,5,0,3:2:0:0:
503,295,46796,1,0,3:2:0:0:
486,294,48086,5,2,3:2:0:0:
477,296,49215,5,0,3:2:0:0:
477,296,49377,1,0,3:2:0:0:
468,298,50183,5,2,3:2:0:0:
468,298,50263,1,2,3:2:0:0:
468,298,50344,2,0,L|479:208,1,78,10|0,3:2|0:2,0:0:0:0:
503,73,50666,5,6,3:2:0:0:
356,34,50828,1,2,3:2:0:0:
288,110,50989,1,10,0:2:0:0:
152,24,51150,6,0,P|128:89|146:180,1,156,6|2,3:2|3:2,0:0:0:0:
235,250,51634,1,10,0:2:0:0:
379,206,51796,2,0,P|393:130|369:57,1,156,6|0,3:2|3:2,0:0:0:0:
242,156,52279,2,0,L|241:252,1,78,8|2,2:2|0:2,0:0:0:0:
331,348,52602,5,6,3:2:0:0:
359,354,52683,1,0,3:2:0:0:
389,355,52763,1,2,3:2:0:0:
417,350,52844,1,0,3:2:0:0:
442,335,52925,2,0,L|442:257,1,78,2|2,3:2|3:2,0:0:0:0:
315,64,53247,5,6,3:2:0:0:
263,166,53408,1,2,3:2:0:0:
460,171,53570,1,14,0:2:0:0:
412,87,53731,1,2,3:2:0:0:
372,215,53892,5,12,3:2:0:0:
508,87,54054,1,8,3:2:0:0:
322,35,54215,1,8,0:2:0:0:
466,206,54376,5,4,3:2:0:0:
499,15,54699,5,12,3:2:0:0:
499,15,54860,1,12,3:2:0:0:
46,93,55666,6,0,P|27:138|37:289,1,179.400003421784,6|0,3:2|3:2,0:0:0:0:
170,362,56150,2,0,L|268:342,1,89.7000017108918,10|0,0:2|0:2,0:0:0:0:
381,228,56473,1,2,3:2:0:0:
244,189,56634,1,2,3:2:0:0:
365,340,56796,1,10,0:2:0:0:
489,213,56957,6,0,P|489:140|485:88,1,89.7000017108918,6|0,3:2|0:2,0:0:0:0:
319,12,57279,2,0,P|318:57|319:102,1,89.7000017108918,2|8,3:2|0:2,0:0:0:0:
488,123,57602,2,0,P|451:94|394:72,1,89.7000017108918,2|0,0:2|3:2,0:0:0:0:
226,156,57925,2,0,P|263:185|320:207,1,89.7000017108918,2|8,3:2|0:2,0:0:0:0:
222,59,58247,6,0,B|110:74|166:121|51:138,1,179.400003421784,6|2,3:2|3:2,0:0:0:0:
217,168,58731,1,10,0:2:0:0:
62,40,58892,1,2,0:2:0:0:
9,237,59054,2,0,P|74:243|122:242,1,89.7000017108918,2|0,3:2|0:0,0:0:0:0:
294,214,59376,1,10,0:2:0:0:
164,87,59537,6,0,P|152:141|153:184,1,89.7000017108918,6|0,3:2|0:2,0:0:0:0:
297,306,59860,1,2,3:2:0:0:
375,159,60021,1,8,0:2:0:0:
209,261,60183,1,4,3:2:0:0:
493,366,60505,5,2,3:2:0:0:
426,282,60666,1,10,0:2:0:0:
497,195,60828,2,0,P|500:140|481:83,1,78,6|0,3:2|0:0,0:0:0:0:
414,28,61150,1,2,3:2:0:0:
328,102,61312,1,10,0:2:0:0:
226,37,61473,1,2,0:2:0:0:
117,111,61634,2,0,P|104:171|112:219,1,78,2|0,3:2|3:2,0:0:0:0:
212,169,61957,1,10,0:2:0:0:
30,62,62118,6,0,P|7:139|13:244,1,156,6|2,3:2|3:2,0:0:0:0:
100,313,62602,1,10,0:2:0:0:
215,272,62763,2,0,P|270:261|317:258,1,78,2|0,0:2|3:2,0:0:0:0:
388,325,63086,1,2,3:2:0:0:
493,278,63247,1,10,0:2:0:0:
399,133,63408,6,0,P|340:139|225:131,1,156,6|2,3:2|3:2,0:0:0:0:
88,105,63892,1,10,0:2:0:0:
124,211,64054,1,2,0:2:0:0:
257,98,64215,2,0,P|263:40|267:2,1,78,6|0,3:2|3:2,0:0:0:0:
170,131,64537,1,10,0:2:0:0:
305,237,64699,6,0,P|360:220|473:224,1,156,6|2,3:2|3:2,0:0:0:0:
326,133,65183,1,10,0:2:0:0:
428,331,65344,1,2,3:2:0:0:
504,130,65505,2,0,L|440:132,1,39,2|0,3:2|3:2,0:0:0:0:
280,266,65666,2,0,L|214:267,3,39,0|0|0|0,3:0|3:0|3:0|3:0,0:0:0:0:
358,251,65989,6,0,P|369:179|300:79,1,179.400003421784,6|2,3:2|3:2,0:0:0:0:
166,40,66473,1,10,0:2:0:0:
201,130,66634,1,2,0:2:0:0:
272,5,66796,5,2,3:2:0:0:
102,120,66957,1,2,3:2:0:0:
271,189,67118,1,10,0:2:0:0:
38,57,67279,6,0,P|15:114|21:157,1,89.7000017108918,6|0,3:2|0:2,0:0:0:0:
174,194,67602,2,0,P|197:137|191:94,1,89.7000017108918,2|8,3:2|0:2,0:0:0:0:
97,268,67925,2,0,L|210:299,1,89.7000017108918,2|0,0:2|3:2,0:0:0:0:
281,86,68247,2,0,L|168:117,1,89.7000017108918,2|8,3:2|0:2,0:0:0:0:
355,169,68570,6,0,P|384:113|336:-2,1,179.400003421784,6|2,3:2|3:2,0:0:0:0:
274,240,69054,1,10,0:2:0:0:
471,148,69215,1,2,0:2:0:0:
281,86,69376,2,0,B|185:78|210:138|90:118,1,179.400003421784,6|10,3:2|0:2,0:0:0:0:
255,345,69860,6,0,P|288:291|251:174,1,179.400003421784,6|2,3:2|3:2,0:0:0:0:
141,98,70344,1,8,0:2:0:0:
9,261,70505,2,0,L|201:257,1,179.400003421784,4|2,3:2|3:2,0:0:0:0:
283,306,70989,1,8,2:2:0:0:
457,200,71150,6,0,P|465:149|445:102,1,78,6|0,3:2|0:0,0:0:0:0:
334,32,71473,1,2,3:2:0:0:
375,154,71634,1,10,0:2:0:0:
444,33,71796,1,2,0:2:0:0:
274,114,71957,2,0,L|171:109,1,78,2|0,3:2|3:2,0:0:0:0:
119,42,72279,1,10,0:2:0:0:
3,159,72441,6,0,P|35:193|161:190,1,156,6|2,3:2|3:2,0:0:0:0:
234,270,72925,1,10,0:2:0:0:
334,195,73086,1,2,3:2:0:0:
334,195,73166,1,2,3:2:0:0:
334,195,73247,1,2,3:2:0:0:
234,100,73408,2,0,L|239:185,1,78,2|8,3:2|0:2,0:0:0:0:
427,267,73731,6,0,P|446:190|412:102,1,156,6|0,3:2|3:2,0:0:0:0:
341,44,74215,1,8,0:2:0:0:
228,162,74376,1,2,0:2:0:0:
333,189,74537,1,2,3:2:0:0:
218,58,74699,1,2,3:2:0:0:
146,217,74860,1,10,0:2:0:0:
228,162,75021,6,0,L|216:71,1,78,6|0,3:2|0:0,0:0:0:0:
149,221,75344,1,0,3:2:0:0:
216,332,75505,2,0,P|270:338|311:318,1,78,10|2,3:2|3:2,3:0:0:0:
331,236,75747,1,2,3:2:0:0:
331,236,75828,2,0,L|256:256,1,78,2|0,3:2|3:2,0:0:0:0:
378,305,76150,1,10,0:2:0:0:
404,161,76312,6,0,P|341:141|236:169,1,156,6|2,3:2|3:2,0:0:0:0:
153,237,76796,1,10,0:2:0:0:
277,245,76957,1,0,3:2:0:0:
162,147,77118,1,0,3:2:0:0:
213,305,77279,1,0,3:2:0:0:
361,245,77441,1,8,0:2:0:0:
286,22,77602,6,0,L|272:206,1,156,4|0,3:2|3:2,0:0:0:0:
394,109,78086,1,8,0:2:0:0:
394,109,78166,1,8,0:2:0:0:
394,109,78247,1,8,0:2:0:0:
187,63,78408,1,8,0:2:0:0:
232,265,78570,2,8,P|277:269|335:255,1,78,10|8,3:2|3:2,3:0:0:0:
512,115,78892,6,0,P|462:96|351:116,1,163.799995001221,14|0,3:2|3:2,3:0:0:0:
240,208,80183,1,2,3:2:0:0:
231,235,80344,6,0,L|359:217,1,124.8,12|0,0:2|0:2,0:0:0:0:
256,192,81715,12,0,84054,0:2:0:0:
