osu file format v14

[General]
AudioFilename: audio.mp3
AudioLeadIn: 0
PreviewTime: 54996
Countdown: 0
SampleSet: Soft
StackLeniency: 0.4
Mode: 0
LetterboxInBreaks: 0
StoryFireInFront: 0
WidescreenStoryboard: 0

[Editor]
DistanceSpacing: 1.4
BeatDivisor: 4
GridSize: 4
TimelineZoom: 1.8

[Metadata]
Title:Anti-Clockwise
TitleUnicode:アンチクロックワイズ
Artist:After the Rain
ArtistUnicode:After the Rain
Creator:Nevo
Version:Rain
Source:クロックワーク・プラネット
Tags:Clockwork Planet mafumafu Soraru utaite anticlockwise japanese rock snownino_ seto kousuke anime
BeatmapID:1790755
BeatmapSetID:857068

[Difficulty]
HPDrainRate:6
CircleSize:4
OverallDifficulty:9
ApproachRate:9.3
SliderMultiplier:1.7
SliderTickRate:1

[Events]
//Background and Video events
0,0,"8e08197970bddde86b88a9d1a0823f715311a811_s2_n2.jpg",0,0
//Break Periods
2,190224,191889
//Storyboard Layer 0 (Background)
//Storyboard Layer 1 (Fail)
//Storyboard Layer 2 (Pass)
//Storyboard Layer 3 (Foreground)
//Storyboard Sound Samples

[TimingPoints]
3089,322.5806451613,4,2,1,80,1,0
7927,-100,4,2,1,5,0,0
8089,-100,4,2,1,80,0,0
20992,-125,4,2,1,70,0,0
23572,-153.8461538462,4,2,1,40,0,0
32605,-90.90909090909,4,2,1,75,0,0
42927,-142.8571428571,4,2,1,75,0,0
43170,-142.8571428571,4,2,1,5,0,0
43251,-142.8571428571,4,2,1,75,0,0
46154,-200,4,2,1,40,0,0
46719,-200,4,2,1,5,0,0
46799,-200,4,2,1,40,0,0
47525,-200,4,2,1,5,0,0
47606,-200,4,2,1,40,0,0
47848,-200,4,2,1,5,0,0
47928,-200,4,2,1,40,0,0
48170,-200,4,2,1,5,0,0
48251,-200,4,2,1,40,0,0
50831,-100,4,2,1,75,0,0
55186,-100,4,2,1,75,0,0
55508,-83.33333333333,4,2,1,75,0,0
55751,-83.33333333333,4,2,1,5,0,0
55830,-71.42857142857,4,2,1,80,0,1
56153,-71.42857142857,4,2,1,80,0,1
79056,-125,4,2,1,75,0,0
81637,-100,4,2,1,70,0,0
91959,-142.8571428571,4,2,1,70,0,0
94540,-153.8461538462,4,2,1,40,0,0
103572,-90.90909090909,4,2,1,75,0,0
113895,-142.8571428571,4,2,1,75,0,0
114138,-142.8571428571,4,2,1,5,0,0
114219,-142.8571428571,4,2,1,75,0,0
116959,-90.90909090909,4,2,1,70,0,0
132122,-90.90909090909,4,2,1,75,0,0
135830,-133.3333333333,4,2,1,75,0,0
136073,-133.3333333333,4,2,1,5,0,0
136154,-133.3333333333,4,2,1,75,0,0
137041,-133.3333333333,4,2,1,5,0,0
137121,-71.42857142857,4,2,1,85,0,1
137282,-71.42857142857,4,2,1,85,0,1
160347,-125,4,2,1,75,0,0
162927,-90.90909090909,4,2,1,70,0,0
187282,-270.2702702703,4,2,1,65,0,0
189944,-270.2702702703,4,2,1,5,0,0
190025,-270.2702702703,4,2,1,70,0,0
192443,-71.42857142857,4,2,1,90,0,1
213250,-142.8571428571,4,2,1,70,0,0
214541,-90.90909090909,4,2,1,70,0,0
215750,-90.90909090909,4,2,1,5,0,0
215830,-90.90909090909,4,2,1,70,0,0
218412,-90.90909090909,4,2,1,5,0,0
218572,-166.6666666667,4,2,1,40,0,0
223412,-166.6666666667,4,2,1,5,0,0

[Colours]
Combo1 : 172,172,172
Combo2 : 128,64,64
Combo3 : 0,128,192
Combo4 : 255,124,62

[HitObjects]
256,192,6636,12,0,7926,0:0:0:0:
261,322,8089,5,4,0:0:0:0:
301,345,8169,1,0,3:0:0:0:
347,350,8250,1,0,3:0:0:0:
390,332,8330,1,0,3:0:0:0:
421,298,8410,1,8,3:0:0:0:
418,251,8491,1,0,3:0:0:0:
415,204,8572,1,0,3:0:0:0:
411,157,8652,1,0,3:0:0:0:
409,111,8734,6,8,L|477:127,3,42.5,8|8|8|8,3:0|3:0|3:0|3:0,0:0:0:0:
324,16,9056,2,8,L|256:31,3,42.5,8|8|8|8,3:0|3:0|3:0|3:0,0:0:0:0:
331,181,9379,6,0,P|293:160|223:172,1,85,6|0,0:0|0:0,0:0:0:0:
115,214,9701,1,8,0:0:0:0:
66,210,9781,1,8,0:0:0:0:
28,183,9862,1,8,0:0:0:0:
0,139,9942,1,8,0:0:0:0:
9,88,10024,2,0,L|27:42,1,42.5,0|0,3:0|3:0,0:0:0:0:
131,12,10185,1,8,0:0:0:0:
166,48,10265,1,8,0:0:0:0:
177,95,10347,6,8,L|183:168,1,42.5
267,243,10508,2,8,L|273:179,1,42.5
90,312,10669,6,0,P|128:289|193:287,1,85,6|0,0:0|0:0,0:0:0:0:
315,357,10992,1,0,3:0:0:0:
315,357,11072,1,0,3:0:0:0:
315,357,11153,2,0,L|204:347,1,85,8|0,0:0|0:0,0:0:0:0:
80,137,11476,1,0,3:0:0:0:
123,155,11556,1,0,3:0:0:0:
156,190,11637,1,0,3:0:0:0:
172,236,11717,1,0,3:0:0:0:
167,283,11798,2,0,L|89:277,1,42.5,8|0,0:0|3:0,0:0:0:0:
276,144,11959,6,0,L|268:228,1,85,6|0,0:0|0:0,0:0:0:0:
415,337,12282,1,0,3:0:0:0:
252,247,12443,1,8,0:0:0:0:
459,210,12605,1,0,3:0:0:0:
459,210,12685,1,0,3:0:0:0:
459,210,12765,2,0,P|467:169|447:127,1,85,0|0,3:0|0:0,0:0:0:0:
276,144,13089,1,8,0:0:0:0:
370,0,13250,6,0,L|360:112,1,85,6|0,0:0|0:0,0:0:0:0:
348,265,13572,1,0,3:0:0:0:
301,283,13652,1,0,3:0:0:0:
252,283,13733,1,8,0:0:0:0:
206,262,13813,1,0,3:0:0:0:
174,223,13894,1,0,3:0:0:0:
128,203,13976,1,0,3:0:0:0:
79,203,14055,1,0,3:0:0:0:
33,224,14137,1,0,3:0:0:0:
1,263,14218,6,0,L|15:342,1,42.5,0|0,3:0|3:0,3:0:0:0:
145,373,14379,2,0,L|156:306,1,42.5,8|0,3:2|3:0,3:0:0:0:
129,103,14540,6,0,B|97:138|97:138|120:274,1,170,6|0,0:0|3:0,0:0:0:0:
284,339,15024,1,8,0:0:0:0:
108,279,15185,1,0,3:0:0:0:
320,214,15347,1,8,0:0:0:0:
66,139,15508,1,0,3:0:0:0:
31,165,15588,1,0,3:0:0:0:
10,205,15669,1,0,3:0:0:0:
7,248,15749,1,0,3:0:0:0:
24,290,15830,6,0,L|113:278,1,85,6|0,0:0|0:0,0:0:0:0:
316,296,16153,1,0,3:0:0:0:
316,296,16234,1,0,3:0:0:0:
316,296,16314,1,8,0:0:0:0:
171,360,16476,1,0,3:0:0:0:
171,360,16556,1,0,3:0:0:0:
171,360,16637,1,8,3:0:0:0:
137,324,16717,1,0,3:0:0:0:
122,278,16798,1,0,3:0:0:0:
130,230,16878,1,0,3:0:0:0:
159,190,16959,2,0,L|154:133,1,42.5,8|0,0:0|3:0,0:0:0:0:
305,40,17121,6,0,L|297:132,1,85,6|0,0:0|0:0,0:0:0:0:
277,328,17443,1,0,3:0:0:0:
155,147,17605,1,8,0:0:0:0:
359,185,17766,1,0,0:0:0:0:
130,230,17927,1,0,3:0:0:0:
347,272,18088,1,0,3:0:0:0:
222,89,18250,1,8,0:0:0:0:
243,343,18411,6,0,L|235:251,1,85,6|0,0:0|0:0,0:0:0:0:
222,89,18734,1,0,3:0:0:0:
262,58,18814,1,0,3:0:0:0:
312,48,18895,1,8,0:0:0:0:
361,60,18975,1,0,3:0:0:0:
398,95,19056,6,0,P|410:130|407:167,1,42.5,0|0,3:0|0:0,0:0:0:0:
466,132,19218,2,0,P|449:164|421:188,1,42.5,0|0,3:0|0:0,0:0:0:0:
487,205,19379,2,0,P|452:216|415:213,1,42.5,0|0,3:0|0:0,0:0:0:0:
450,272,19540,2,0,P|417:255|393:227,1,42.5,8|0,0:0|0:0,0:0:0:0:
312,48,19701,6,0,L|302:147,1,85,6|0,0:0|0:0,0:0:0:0:
113,221,20024,1,0,3:0:0:0:
320,154,20185,1,8,0:0:0:0:
96,121,20347,1,0,3:0:0:0:
55,133,20427,1,0,3:0:0:0:
24,161,20508,1,8,0:0:0:0:
219,322,20669,1,2,3:0:0:0:
236,110,20830,1,8,0:0:0:0:
113,221,20992,6,0,B|125:321|125:321|153:284,1,136,2|0,0:0|0:0,0:0:0:0:
217,239,21476,2,0,P|259:228|304:240,1,68,0|0,3:0|0:0,0:0:0:0:
310,154,21798,2,0,P|347:175|370:216,1,68,0|0,3:0|0:0,0:0:0:0:
291,298,22121,2,0,L|279:208,1,68,0|0,3:0|0:0,0:0:0:0:
384,339,22443,2,0,L|396:249,1,68,0|0,3:0|0:0,0:0:0:0:
476,165,22766,1,0,3:0:0:0:
476,165,22847,1,0,3:0:0:0:
476,165,22927,2,0,L|488:255,1,68,0|0,3:0|0:0,0:0:0:0:
502,328,23250,1,0,3:0:0:0:
292,180,23572,6,0,P|239:167|179:181,1,110.4999949417,2|0,0:0|0:0,0:0:0:0:
228,313,24056,2,0,L|232:236,1,55.24999747086,0|0,0:0|0:0,0:0:0:0:
107,208,24379,1,0,0:0:0:0:
107,208,24540,2,0,L|111:285,1,55.24999747086,0|0,0:0|0:0,0:0:0:0:
181,154,24863,6,0,P|118:165|67:127,1,110.4999949417,2|0,0:0|0:0,0:0:0:0:
73,41,25347,1,0,0:0:0:0:
137,86,25508,1,0,0:0:0:0:
204,23,25669,2,0,L|278:18,1,55.24999747086,0|0,0:0|0:0,0:0:0:0:
374,17,25992,1,0,0:0:0:0:
375,136,26153,6,0,P|346:110|260:112,1,110.4999949417,2|0,0:0|0:0,0:0:0:0:
167,175,26637,2,0,L|175:245,1,55.24999747086,0|0,0:0|0:0,0:0:0:0:
276,272,26959,2,0,L|284:202,1,55.24999747086,0|0,0:0|0:0,0:0:0:0:
168,320,27282,1,0,0:0:0:0:
168,320,27443,6,0,P|197:294|283:296,1,110.4999949417,2|0,0:0|0:0,0:0:0:0:
463,359,28250,1,2,0:0:0:0:
368,194,28734,6,0,L|376:268,1,55.24999747086,2|0,0:0|0:0,0:0:0:0:
460,182,29056,1,0,0:0:0:0:
460,182,29218,2,0,L|468:108,1,55.24999747086,0|0,0:0|0:0,0:0:0:0:
386,28,29540,2,0,L|392:83,2,55.24999747086,0|0|0,0:0|0:0|0:0,0:0:0:0:
205,99,30024,6,0,P|270:104|313:69,1,110.4999949417,2|0,0:0|0:0,0:0:0:0:
183,16,30508,2,0,L|119:19,1,55.24999747086,0|0,0:0|0:0,0:0:0:0:
0,116,30830,2,0,L|64:119,1,55.24999747086,0|0,0:0|0:0,0:0:0:0:
163,131,31153,1,0,0:0:0:0:
111,289,31314,6,0,B|91:262|91:262|101:175,1,110.4999949417,2|0,0:0|0:0,0:0:0:0:
233,226,31798,2,0,P|185:240|160:240,1,55.24999747086,2|0,0:0|0:0,0:0:0:0:
266,146,32121,1,0,0:0:0:0:
315,205,32282,1,0,0:0:0:0:
183,159,32443,1,8,0:0:0:0:
257,57,32605,6,0,B|273:90|273:90|264:170,1,93.50000285339,6|0,0:0|0:0,0:0:0:0:
119,246,32927,1,0,3:0:0:0:
284,161,33088,1,8,0:0:0:0:
41,157,33250,1,0,3:0:0:0:
241,288,33411,6,0,L|244:226,1,46.7500014267,8|0,0:0|0:0,0:0:0:0:
188,77,33572,1,8,0:0:0:0:
133,93,33653,1,8,0:0:0:0:
96,138,33733,1,8,0:0:0:0:
91,195,33814,1,8,0:0:0:0:
119,246,33895,6,0,L|124:141,1,93.50000285339,6|0,0:0|0:0,0:0:0:0:
24,19,34218,1,0,3:0:0:0:
188,77,34379,1,8,0:0:0:0:
0,134,34540,1,0,3:0:0:0:
138,264,34701,2,0,L|143:159,1,93.50000285339,2|0,3:0|0:0,0:0:0:0:
282,72,35024,1,8,0:0:0:0:
115,22,35185,6,0,P|160:67|202:78,1,93.50000285339,6|0,0:0|0:0,0:0:0:0:
401,47,35508,2,0,L|274:41,1,93.50000285339,2|8,3:0|0:0,0:0:0:0:
65,98,35830,2,0,P|110:143|152:154,1,93.50000285339,2|0,0:0|3:0,0:0:0:0:
419,29,36153,2,0,L|292:23,1,93.50000285339,0|8,3:0|0:0,0:0:0:0:
384,216,36476,6,0,P|404:169|402:115,1,93.50000285339,6|0,0:0|0:0,0:0:0:0:
229,66,36798,1,0,3:0:0:0:
422,119,36959,1,8,0:0:0:0:
196,203,37121,1,0,0:0:0:0:
325,24,37282,1,0,3:0:0:0:
355,189,37443,1,0,3:0:0:0:
230,98,37605,1,8,0:0:0:0:
348,282,37766,6,0,L|355:179,1,93.50000285339,6|0,0:0|0:0,0:0:0:0:
206,333,38088,2,0,L|199:239,1,93.50000285339,0|8,3:0|0:0,0:0:0:0:
149,155,38411,1,0,0:0:0:0:
121,296,38572,1,0,3:0:0:0:
256,188,38734,1,0,3:0:0:0:
66,217,38895,1,8,0:0:0:0:
206,333,39056,6,0,L|309:326,1,93.50000285339,6|0,0:0|0:0,0:0:0:0:
407,227,39379,1,0,3:0:0:0:
305,348,39540,1,8,0:0:0:0:
285,176,39701,1,0,0:0:0:0:
405,338,39863,2,0,L|415:236,1,93.50000285339,0|0,3:0|0:0,0:0:0:0:
438,69,40185,1,8,0:0:0:0:
285,176,40347,6,0,P|344:167|394:123,1,93.50000285339,6|0,0:0|3:0,0:0:0:0:
202,0,40669,1,0,3:0:0:0:
203,162,40830,1,8,0:0:0:0:
296,86,40992,2,0,L|187:80,1,93.50000285339,0|0,3:0|3:0,0:0:0:0:
12,78,41314,1,0,3:0:0:0:
203,162,41476,1,8,0:0:0:0:
16,218,41637,1,0,0:0:0:0:
66,15,41798,5,6,3:2:0:0:
159,256,41959,1,0,3:0:0:0:
130,66,42121,1,8,0:0:0:0:
5,248,42282,5,2,0:0:0:0:
284,145,42605,1,2,3:0:0:0:
12,78,42927,6,0,L|23:174,1,89.24999727631,6|0,3:2|0:0,0:0:0:0:
42,264,43250,5,0,3:0:0:0:
124,155,43411,1,8,0:0:0:0:
136,285,43572,5,0,3:0:0:0:
35,180,43734,1,8,0:0:0:0:
75,350,43895,5,0,3:0:0:0:
197,213,44056,1,8,0:0:0:0:
166,372,44218,5,0,3:0:0:0:
18,273,44379,1,8,0:0:0:0:
275,285,44540,5,0,3:0:0:0:
75,350,44701,1,8,0:0:0:0:
287,201,44863,5,0,3:0:0:0:
166,372,45024,1,8,0:0:0:0:
177,99,45185,5,0,3:0:0:0:
275,285,45347,1,8,0:0:0:0:
241,34,45508,5,0,3:0:0:0:
195,235,45669,1,12,0:0:0:0:
195,235,45992,2,0,L|247:232,1,29.7499990921,2|0,0:0|0:0,0:0:0:0:
326,208,46153,6,0,P|292:199|329:251,1,148.75,2|0,0:0|0:0,0:0:0:0:
395,242,46798,2,0,L|451:237,1,42.5,0|0,3:0|3:0,0:0:0:0:
242,60,47282,6,0,L|244:123,1,63.75,0|0,0:0|0:0,0:0:0:0:
260,204,47605,2,0,P|289:192|320:194,1,63.75,0|0,0:0|0:0,0:0:0:0:
397,245,47927,2,0,P|367:233|336:235,1,63.75,0|0,0:0|0:0,0:0:0:0:
280,302,48250,1,0,3:0:0:0:
399,331,48572,6,0,P|441:322|490:326,2,85,0|0|0,0:0|0:0|0:0,0:0:0:0:
271,384,49379,2,0,L|219:382,1,42.5,0|0,3:0|3:0,0:0:0:0:
134,250,50347,1,0,3:0:0:0:
134,250,50427,1,0,3:0:0:0:
134,250,50508,2,0,L|192:243,1,42.5,8|0,0:0|0:0,0:0:0:0:
329,225,50830,5,6,0:0:0:0:
144,159,50992,1,0,3:0:0:0:
206,324,51153,1,8,0:0:0:0:
245,82,51314,2,0,L|232:189,1,85,0|0,3:0|3:0,0:0:0:0:
330,36,51637,1,0,3:0:0:0:
161,40,51798,1,8,0:0:0:0:
327,133,51959,6,0,L|434:120,1,85,6|0,3:2|0:0,0:0:0:0:
343,269,52282,1,0,3:0:0:0:
245,82,52443,1,8,0:0:0:0:
207,300,52605,1,0,3:0:0:0:
327,133,52766,5,0,3:0:0:0:
327,133,52847,1,0,3:0:0:0:
327,133,52927,2,0,L|330:184,1,42.5,0|0,3:0|3:0,0:0:0:0:
415,353,53088,6,0,B|431:265|431:265|413:220,1,127.5,12|0,0:0|0:0,0:0:0:0:
343,269,53411,1,2,0:0:0:0:
512,260,53572,1,2,3:0:0:0:
260,199,53734,1,8,0:0:0:0:
458,186,53895,1,0,3:0:0:0:
287,331,54056,1,0,3:0:0:0:
287,331,54137,1,0,3:0:0:0:
287,331,54218,1,0,3:0:0:0:
356,123,54379,2,0,L|359:174,1,42.5,8|0,0:0|0:0,0:0:0:0:
373,365,54540,5,6,3:2:0:0:
373,365,54863,1,8,2:0:0:0:
222,289,55024,1,8,2:0:0:0:
409,278,55185,1,2,0:0:0:0:
206,298,55347,1,2,0:0:0:0:
289,147,55508,6,0,P|244:114|226:191,1,152.9999953308,2|0,0:0|0:0,0:0:0:0:
206,298,55830,6,0,B|220:246|207:205|195:213|176:171|197:116,1,178.4999945526,6|0,0:0|0:0,0:0:0:0:
214,34,56153,1,0,3:0:0:0:
313,234,56314,1,8,0:0:0:0:
102,110,56476,1,0,0:0:0:0:
358,56,56637,1,0,3:0:0:0:
112,223,56798,1,0,3:0:0:0:
212,9,56959,1,8,0:0:0:0:
313,234,57121,6,0,P|348:181|339:101,1,118.9999963684,6|0,0:0|0:0,0:0:0:0:
99,255,57443,2,0,L|235:243,1,118.9999963684,2|8,0:0|0:0,0:0:0:0:
429,182,57766,2,0,P|432:117|384:53,1,118.9999963684,2|0,3:0|3:0,0:0:0:0:
84,291,58088,2,0,L|220:279,1,118.9999963684,2|8,0:0|0:0,0:0:0:0:
141,33,58411,6,0,B|122:75|122:75|142:171,1,118.9999963684,6|0,0:0|0:0,0:0:0:0:
339,318,58734,1,0,3:0:0:0:
333,94,58895,1,8,0:0:0:0:
177,236,59056,1,0,0:0:0:0:
431,242,59218,1,0,3:0:0:0:
233,49,59379,1,0,3:0:0:0:
240,351,59540,1,8,0:0:0:0:
412,69,59701,6,0,P|460:122|467:184,1,118.9999963684,6|0,0:0|0:0,0:0:0:0:
327,369,60024,2,0,L|312:242,1,118.9999963684,0|8,3:0|0:0,0:0:0:0:
151,36,60347,2,0,B|107:78|107:78|131:267,1,237.9999927368,6|0,0:0|3:0,0:0:0:0:
224,342,60830,1,8,0:0:0:0:
23,285,60992,6,0,P|65:253|146:261,1,118.9999963684,6|0,0:0|0:0,0:0:0:0:
319,205,61314,1,0,3:0:0:0:
118,276,61476,1,8,0:0:0:0:
334,320,61637,1,0,0:0:0:0:
249,127,61798,1,0,3:0:0:0:
224,342,61959,1,0,3:0:0:0:
319,205,62121,1,8,0:0:0:0:
172,65,62282,6,0,B|154:112|154:112|167:206,1,118.9999963684,6|0,0:0|0:0,0:0:0:0:
334,320,62605,1,0,3:0:0:0:
352,114,62766,1,8,0:0:0:0:
196,275,62927,1,0,0:0:0:0:
395,227,63088,1,0,3:0:0:0:
224,139,63250,1,0,3:0:0:0:
279,243,63411,1,8,0:0:0:0:
377,83,63572,6,0,L|510:77,1,118.9999963684,6|0,0:0|0:0,0:0:0:0:
312,166,63895,1,0,3:0:0:0:
297,12,64056,1,8,0:0:0:0:
399,238,64218,1,0,0:0:0:0:
377,83,64379,1,0,3:0:0:0:
241,258,64540,1,0,3:0:0:0:
466,162,64701,1,8,0:0:0:0:
211,66,64863,6,0,L|92:60,1,118.9999963684,6|0,0:0|0:0,0:0:0:0:
309,191,65185,1,8,0:0:0:0:
286,13,65347,1,8,0:0:0:0:
150,181,65508,1,8,3:2:0:0:
185,206,65588,1,8,3:2:0:0:
228,217,65669,1,8,3:2:0:0:
271,211,65749,1,8,3:2:0:0:
309,191,65830,1,8,3:2:0:0:
357,157,65911,1,8,3:2:0:0:
415,152,65992,1,8,3:2:0:0:
463,190,66072,1,8,3:2:0:0:
485,245,66153,6,0,L|494:111,1,118.9999963684,6|0,0:0|0:0,0:0:0:0:
334,17,66476,1,0,3:0:0:0:
512,105,66637,1,8,0:0:0:0:
253,110,66798,1,0,0:0:0:0:
438,10,66959,1,0,3:0:0:0:
334,228,67121,1,0,3:0:0:0:
252,23,67282,1,8,0:0:0:0:
453,157,67443,6,0,L|327:151,1,118.9999963684,6|0,0:0|0:0,0:0:0:0:
158,77,67766,2,0,P|194:31|252:23,1,118.9999963684,2|8,0:0|0:0,0:0:0:0:
476,239,68088,2,0,L|350:233,1,118.9999963684,2|0,3:0|3:0,0:0:0:0:
95,139,68411,2,0,P|149:118|203:139,1,118.9999963684,2|8,0:0|0:0,0:0:0:0:
161,360,68734,6,0,L|148:237,1,118.9999963684,6|0,0:0|0:0,0:0:0:0:
310,147,69056,1,0,3:0:0:0:
117,239,69218,1,8,0:0:0:0:
339,250,69379,1,0,0:0:0:0:
95,139,69539,1,0,3:0:0:0:
265,310,69700,1,0,0:0:0:0:
296,54,69863,1,8,0:0:0:0:
117,239,70024,6,0,L|252:226,1,118.9999963684,6|0,0:0|0:0,0:0:0:0:
475,359,70347,2,0,L|340:346,1,118.9999963684,0|8,3:0|0:0,0:0:0:0:
426,68,70669,2,0,B|452:113|452:113|429:258,1,178.4999945526,6|0,0:0|0:0,0:0:0:0:
417,265,70992,1,0,3:0:0:0:
500,112,71153,1,8,0:0:0:0:
322,165,71314,6,0,L|187:159,1,118.9999963684,6|0,0:0|0:0,0:0:0:0:
17,64,71637,1,0,3:0:0:0:
192,185,71798,1,8,0:0:0:0:
178,10,71959,1,0,0:0:0:0:
61,219,72121,1,0,3:0:0:0:
118,76,72282,1,0,3:0:0:0:
234,274,72443,1,8,0:0:0:0:
363,88,72605,6,0,L|228:82,1,118.9999963684,6|0,0:0|0:0,0:0:0:0:
61,219,72927,1,0,3:0:0:0:
283,193,73088,1,8,0:0:0:0:
98,349,73250,2,0,P|75:285|83:212,1,118.9999963684,0|0,0:0|0:0,0:0:0:0:
244,82,73572,2,0,P|200:133|132:163,1,118.9999963684,0|8,3:0|0:0,0:0:0:0:
23,69,73895,6,0,P|88:49|153:60,1,118.9999963684,6|0,0:0|0:0,0:0:0:0:
330,155,74218,1,0,3:0:0:0:
111,266,74379,2,0,L|92:139,1,118.9999963684,8|0,0:0|0:0,0:0:0:0:
278,21,74701,1,0,3:0:0:0:
211,173,74863,1,0,3:0:0:0:
400,112,75024,1,8,0:0:0:0:
193,40,75185,6,0,L|199:177,1,118.9999963684,6|0,0:0|0:0,0:0:0:0:
217,339,75508,1,8,0:0:0:0:
413,185,75669,2,0,P|341:159|285:162,1,118.9999963684,8|0,0:0|0:0,0:0:0:0:
224,360,75992,2,0,P|282:310|307:260,1,118.9999963684,0|0,3:2|3:0,3:0:0:0:
181,92,76314,1,8,3:2:0:0:
420,66,76476,6,0,L|412:184,1,118.9999963684,6|0,0:0|0:0,0:0:0:0:
224,360,76798,1,0,3:0:0:0:
424,202,76959,1,8,0:0:0:0:
172,181,77121,1,0,3:0:0:0:
391,310,77282,1,0,3:0:0:0:
275,114,77443,1,0,3:0:0:0:
215,377,77605,1,8,0:0:0:0:
180,82,77766,6,0,P|260:15|298:22,1,118.9999963684,6|0,0:0|0:0,0:0:0:0:
443,94,78088,1,0,3:0:0:0:
275,114,78250,1,8,0:0:0:0:
418,198,78411,1,0,3:0:0:0:
418,198,78492,1,0,3:0:0:0:
418,198,78572,1,8,0:0:0:0:
314,22,78734,1,8,3:0:0:0:
270,217,78895,1,8,3:0:0:0:
443,94,79056,6,0,B|370:74|321:137|321:137|275:113|275:113|187:179|102:115|116:13|187:-8|229:30|215:76,1,476,6|2,0:0|0:0,0:0:0:0:
208,218,80347,6,0,L|193:313,1,68,0|12,3:0|0:0,0:0:0:0:
54,117,80830,1,8,0:0:0:0:
54,117,80911,1,0,3:0:0:0:
54,117,80992,1,0,3:0:0:0:
250,133,81153,1,8,0:0:0:0:
71,201,81314,1,0,3:0:0:0:
108,28,81476,1,8,0:0:0:0:
208,218,81637,6,0,P|256:227|308:206,1,85,6|0,0:0|0:0,0:0:0:0:
403,69,81959,1,0,3:0:0:0:
375,77,82039,1,0,3:0:0:0:
353,94,82120,1,8,0:0:0:0:
339,119,82200,1,0,3:0:0:0:
336,147,82282,1,0,3:0:0:0:
358,182,82362,1,0,3:0:0:0:
367,223,82443,1,8,3:0:0:0:
360,265,82523,1,0,3:0:0:0:
339,302,82605,1,0,3:0:0:0:
307,322,82685,1,0,3:0:0:0:
266,329,82766,2,0,L|215:322,1,42.5,8|0,3:0|3:0,0:0:0:0:
147,257,82927,6,0,P|205:280|278:235,1,127.5,6|0,0:0|0:0,0:0:0:0:
262,256,83250,1,0,3:0:0:0:
206,115,83411,2,0,L|208:209,1,85,8|0,0:0|0:0,0:0:0:0:
147,257,83653,1,0,3:0:0:0:
147,257,83734,2,0,L|145:351,1,85,0|0,3:0|0:0,0:0:0:0:
61,253,84056,1,8,0:0:0:0:
207,199,84218,6,0,L|309:190,1,85,6|0,3:2|0:0,0:0:0:0:
474,103,84540,1,0,3:0:0:0:
453,79,84620,1,0,3:0:0:0:
426,63,84701,1,8,3:0:0:0:
395,59,84781,1,0,3:0:0:0:
365,66,84863,1,0,3:0:0:0:
332,93,84943,1,0,3:0:0:0:
292,106,85024,1,8,3:0:0:0:
249,104,85104,1,0,3:0:0:0:
210,88,85185,1,0,3:0:0:0:
179,59,85266,1,0,3:0:0:0:
161,22,85347,2,0,L|143:70,1,42.5,8|0,3:0|3:0,0:0:0:0:
68,145,85508,6,0,L|58:46,1,85,6|0,3:2|0:0,0:0:0:0:
184,226,85830,1,0,3:0:0:0:
0,218,85992,1,8,0:0:0:0:
203,233,86153,1,0,3:0:0:0:
18,317,86314,1,8,0:0:0:0:
159,152,86476,1,8,3:0:0:0:
199,141,86556,1,8,3:0:0:0:
240,151,86637,1,8,3:0:0:0:
272,178,86717,1,8,3:0:0:0:
288,217,86798,6,0,L|295:108,1,85,6|0,0:0|0:0,0:0:0:0:
245,303,87121,1,0,3:0:0:0:
273,312,87201,1,0,3:0:0:0:
305,312,87282,1,8,3:0:0:0:
335,302,87362,1,0,3:0:0:0:
360,284,87443,1,0,3:0:0:0:
362,241,87523,1,0,3:0:0:0:
364,199,87604,1,8,3:0:0:0:
367,156,87684,1,0,3:0:0:0:
369,114,87765,1,0,3:0:0:0:
372,71,87846,1,0,3:0:0:0:
374,29,87927,2,0,L|435:52,1,42.5,8|0,3:0|3:0,0:0:0:0:
288,102,88088,6,0,L|184:115,1,85,6|0,0:0|0:0,0:0:0:0:
20,135,88411,1,0,3:0:0:0:
94,19,88572,2,0,L|107:123,1,85,8|0,0:0|0:0,0:0:0:0:
193,196,88895,2,0,L|203:111,1,85,0|0,3:0|3:0,0:0:0:0:
106,238,89218,1,0,3:0:0:0:
257,287,89379,6,0,L|267:202,1,85,6|0,0:0|0:0,0:0:0:0:
33,289,89701,1,0,3:0:0:0:
53,312,89781,1,0,3:0:0:0:
80,328,89862,1,8,3:0:0:0:
111,332,89942,1,0,3:0:0:0:
141,325,90024,1,0,3:0:0:0:
174,298,90104,1,0,3:0:0:0:
214,285,90185,1,8,3:0:0:0:
257,287,90265,1,0,3:0:0:0:
296,303,90346,1,0,3:0:0:0:
327,332,90427,1,0,3:0:0:0:
345,369,90508,2,0,L|363:321,1,42.5,8|0,3:0|3:0,0:0:0:0:
430,254,90669,6,0,L|440:338,1,85,6|0,0:0|0:0,0:0:0:0:
347,218,90992,1,0,3:0:0:0:
493,186,91153,1,8,0:0:0:0:
352,103,91314,1,0,3:0:0:0:
313,86,91394,1,0,3:0:0:0:
270,86,91475,1,8,3:0:0:0:
231,102,91555,1,0,3:0:0:0:
201,132,91636,1,0,3:0:0:0:
162,148,91718,1,0,3:0:0:0:
119,148,91798,1,8,3:0:0:0:
80,132,91879,1,0,3:0:0:0:
50,102,91959,6,0,L|58:233,1,118.9999963684,6|0,0:0|0:0,0:0:0:0:
125,311,92443,2,0,L|136:233,1,59.4999981842,0|0,3:0|0:0,0:0:0:0:
220,212,92766,2,0,L|209:134,1,59.4999981842,0|0,3:0|0:0,0:0:0:0:
125,113,93088,2,0,L|136:35,1,59.4999981842,0|0,3:0|0:0,0:0:0:0:
268,139,93411,2,0,P|225:153|202:151,1,59.4999981842,0|0,3:0|0:0,0:0:0:0:
299,64,93734,1,0,3:0:0:0:
299,64,93814,1,0,3:0:0:0:
299,64,93895,2,0,L|366:67,1,59.4999981842,0|0,3:0|0:0,0:0:0:0:
457,76,94218,1,2,3:0:0:0:
457,76,94540,6,0,L|449:200,1,110.4999949417,2|0,0:0|0:0,0:0:0:0:
400,258,95024,2,0,P|362:246|331:252,1,55.24999747086,0|0,0:0|0:0,0:0:0:0:
280,304,95347,1,0,0:0:0:0:
280,304,95508,2,0,L|199:299,1,55.24999747086,0|0,0:0|0:0,0:0:0:0:
100,229,95830,6,0,P|156:242|213:207,1,110.4999949417,2|0,0:0|0:0,0:0:0:0:
147,103,96314,2,0,L|141:173,1,55.24999747086,0|0,0:0|0:0,0:0:0:0:
268,171,96637,2,0,P|237:142|211:133,1,55.24999747086,0|0,0:0|0:0,0:0:0:0:
66,134,96959,1,0,0:0:0:0:
109,25,97121,6,0,P|138:16|217:50,1,110.4999949417,2|0,0:0|0:0,0:0:0:0:
288,114,97605,2,0,L|291:47,1,55.24999747086,0|0,0:0|0:0,0:0:0:0:
364,17,97927,2,0,L|367:84,1,55.24999747086,0|0,0:0|0:0,0:0:0:0:
422,138,98250,1,0,0:0:0:0:
324,227,98411,6,0,P|282:200|204:220,1,110.4999949417,2|0,0:0|0:0,0:0:0:0:
76,297,99218,1,2,0:0:0:0:
124,118,99701,6,0,L|117:195,1,55.24999747086,2|0,0:0|0:0,0:0:0:0:
204,259,100024,1,0,0:0:0:0:
204,259,100185,2,0,L|197:182,1,55.24999747086,0|0,0:0|0:0,0:0:0:0:
276,106,100508,2,0,L|269:183,2,55.24999747086,0|0|0,0:0|0:0|0:0,0:0:0:0:
450,41,100992,6,0,P|403:72|339:48,1,110.4999949417,2|0,0:0|0:0,0:0:0:0:
280,21,101476,2,0,L|225:24,1,55.24999747086,0|0,0:0|0:0,0:0:0:0:
112,103,101798,2,0,L|176:106,1,55.24999747086,0|0,0:0|0:0,0:0:0:0:
270,143,102121,1,0,0:0:0:0:
203,288,102282,6,0,B|183:261|183:261|193:174,1,110.4999949417,2|0,0:0|0:0,0:0:0:0:
320,216,102766,2,0,P|272:230|247:230,1,55.24999747086,2|0,0:0|0:0,0:0:0:0:
353,139,103089,1,0,0:0:0:0:
409,206,103250,1,0,0:0:0:0:
270,143,103411,1,8,0:0:0:0:
439,32,103572,6,0,L|433:130,1,93.50000285339,6|0,0:0|0:0,0:0:0:0:
406,304,103895,1,0,3:0:0:0:
353,139,104056,1,8,0:0:0:0:
511,193,104218,1,0,3:0:0:0:
285,273,104379,1,8,0:0:0:0:
478,363,104540,1,8,0:0:0:0:
494,319,104620,1,8,0:0:0:0:
489,273,104701,1,8,0:0:0:0:
463,235,104781,1,8,0:0:0:0:
423,213,104863,6,0,L|305:204,1,93.50000285339,6|0,0:0|0:0,0:0:0:0:
111,189,105185,1,0,3:0:0:0:
330,231,105347,1,8,0:0:0:0:
178,100,105508,1,0,3:0:0:0:
205,311,105669,1,2,3:0:0:0:
250,51,105830,1,0,0:0:0:0:
251,225,105992,1,8,0:0:0:0:
89,118,106153,6,0,P|135:100|208:109,1,93.50000285339,6|0,0:0|0:0,0:0:0:0:
116,327,106476,2,0,L|97:224,1,93.50000285339,2|8,3:0|0:0,0:0:0:0:
0,90,106798,2,0,P|30:51|98:22,1,93.50000285339,2|0,0:0|3:0,0:0:0:0:
102,339,107121,2,0,L|83:236,1,93.50000285339,0|8,3:0|0:0,0:0:0:0:
274,253,107443,6,0,P|230:275|178:264,1,93.50000285339,6|0,0:0|0:0,0:0:0:0:
352,173,107766,1,0,3:0:0:0:
319,327,107927,1,8,0:0:0:0:
214,178,108088,1,0,0:0:0:0:
246,358,108250,1,0,3:0:0:0:
243,92,108411,1,0,3:0:0:0:
274,253,108572,1,8,0:0:0:0:
444,182,108734,6,0,L|351:172,1,93.50000285339,2|0,0:0|0:0,0:0:0:0:
245,3,109056,2,0,P|301:24|327:57,1,93.50000285339,0|8,3:0|0:0,0:0:0:0:
372,255,109379,1,0,0:0:0:0:
243,92,109540,1,0,3:0:0:0:
251,301,109701,1,0,3:0:0:0:
353,133,109863,1,8,0:0:0:0:
171,208,110024,6,0,L|78:198,1,93.50000285339,6|0,0:0|0:0,0:0:0:0:
251,301,110347,1,0,3:0:0:0:
251,301,110427,1,0,3:0:0:0:
251,301,110508,2,0,L|343:291,1,93.50000285339,8|0,0:0|0:0,0:0:0:0:
458,180,110830,1,0,3:0:0:0:
357,314,110992,1,0,0:0:0:0:
319,127,111153,1,8,0:0:0:0:
437,348,111314,5,2,0:0:0:0:
460,159,111476,1,0,3:0:0:0:
321,233,111637,1,0,3:0:0:0:
297,59,111798,1,8,0:0:0:0:
429,269,111959,1,0,3:0:0:0:
456,76,112121,1,0,3:0:0:0:
219,138,112282,1,0,3:0:0:0:
460,159,112443,1,8,0:0:0:0:
205,223,112605,5,0,0:0:0:0:
382,122,112766,1,2,3:0:0:0:
166,74,112927,1,0,3:0:0:0:
166,74,113008,1,8,0:0:0:0:
166,74,113088,1,8,0:0:0:0:
341,245,113250,5,2,0:0:0:0:
357,3,113572,1,2,3:0:0:0:
213,311,113895,6,0,L|203:200,1,89.24999727631,6|0,2:0|0:0,0:0:0:0:
192,129,114218,5,0,3:0:0:0:
115,257,114379,1,8,0:0:0:0:
107,112,114540,5,0,3:0:0:0:
204,222,114701,1,8,0:0:0:0:
157,40,114863,5,0,3:0:0:0:
55,187,115024,1,8,0:0:0:0:
52,36,115185,5,0,3:0:0:0:
192,129,115347,1,8,0:0:0:0:
0,120,115508,5,0,3:0:0:0:
204,222,115669,1,8,0:0:0:0:
0,286,115830,5,0,3:0:0:0:
268,169,115992,1,8,0:0:0:0:
52,36,116153,1,8,0:0:0:0:
21,62,116233,1,8,0:0:0:0:
3,98,116314,1,8,0:0:0:0:
3,139,116394,1,8,0:0:0:0:
20,175,116476,6,0,L|122:164,1,89.24999727631,8|0,0:0|0:0,0:0:0:0:
197,239,116798,2,0,L|147:232,1,29.7499990921,0|0,3:0|3:0,0:0:0:0:
209,65,116959,6,0,L|193:158,1,93.50000285339,6|0,0:0|0:0,0:0:0:0:
162,319,117282,1,0,3:0:0:0:
286,215,117443,1,0,3:0:0:0:
258,373,117605,1,8,0:0:0:0:
194,157,117766,6,0,P|258:109|351:129,1,140.2500042801,6|0,0:0|0:0,0:0:0:0:
351,132,118088,1,0,3:0:0:0:
162,54,118250,1,8,0:0:0:0:
360,19,118411,1,0,0:0:0:0:
286,215,118572,1,0,3:0:0:0:
258,12,118734,1,0,3:0:0:0:
379,250,118895,1,8,0:0:0:0:
469,132,119056,6,0,L|472:85,2,46.7500014267,8|8|8,0:0|0:0|0:0,0:0:0:0:
393,342,119379,1,8,0:0:0:0:
393,342,119459,1,8,0:0:0:0:
393,342,119540,6,0,L|377:248,1,93.50000285339,6|0,0:0|0:0,0:0:0:0:
348,101,119863,1,0,3:0:0:0:
292,250,120024,1,0,3:0:0:0:
185,97,120185,1,8,0:0:0:0:
137,284,120347,6,0,P|183:233|296:255,1,187.0000057068,6|0,0:0|3:0,0:0:0:0:
389,332,120830,1,8,0:0:0:0:
389,332,120992,2,0,L|396:238,1,93.50000285339,0|0,3:0|0:0,0:0:0:0:
269,157,121314,1,0,3:0:0:0:
291,249,121476,1,8,0:0:0:0:
366,122,121637,6,0,P|300:62|193:84,1,187.0000057068,2|0,0:0|0:0,0:0:0:0:
111,107,122121,2,0,P|201:95|268:156,1,187.0000057068,8|0,0:0|3:0,0:0:0:0:
181,282,122605,2,0,L|171:178,1,93.50000285339,0|8,3:0|0:0,0:0:0:0:
21,93,122927,6,0,L|11:197,1,93.50000285339,6|0,0:0|0:0,0:0:0:0:
1,310,123250,1,0,3:0:0:0:
1,310,123411,2,0,P|39:286|124:288,1,93.50000285339,8|0,0:0|0:0,0:0:0:0:
242,366,123734,1,0,3:0:0:0:
242,366,123895,2,0,P|204:342|119:344,1,93.50000285339,0|8,3:0|0:0,0:0:0:0:
264,263,124218,6,0,B|311:239|360:260|346:279|394:296|457:270,1,187.0000057068,2|0,0:0|3:0,0:0:0:0:
404,105,124701,2,0,P|391:159|408:208,1,93.50000285339,8|0,0:0|0:0,0:0:0:0:
479,70,125024,2,0,P|438:31|387:21,1,93.50000285339,0|0,3:0|3:0,0:0:0:0:
287,51,125347,1,8,0:0:0:0:
282,233,125508,6,0,B|302:179|302:179|284:33,1,187.0000057068,6|0,0:0|3:0,0:0:0:0:
117,165,125992,2,0,P|160:178|229:161,1,93.50000285339,8|0,0:0|0:0,0:0:0:0:
97,84,126314,1,0,3:0:0:0:
53,227,126476,1,8,0:0:0:0:
53,227,126556,1,8,0:0:0:0:
53,227,126637,2,0,L|57:287,1,46.7500014267,8|8,0:0|0:0,0:0:0:0:
207,171,126798,6,0,L|211:111,2,46.7500014267,8|8|8,0:0|0:0|0:0,0:0:0:0:
116,349,127121,1,0,3:0:0:0:
116,349,127201,1,0,3:0:0:0:
116,349,127282,2,0,P|169:313|254:324,1,140.2500042801,12|0,0:0|0:0,0:0:0:0:
271,340,127605,1,0,3:0:0:0:
132,234,127766,1,0,3:0:0:0:
315,207,127927,1,8,0:0:0:0:
199,77,128088,6,0,L|208:183,1,93.50000285339,2|0,0:0|0:0,0:0:0:0:
389,147,128411,1,0,3:0:0:0:
305,114,128572,1,8,0:0:0:0:
307,300,128734,2,0,L|316:194,1,93.50000285339,0|0,3:0|3:0,0:0:0:0:
331,33,129056,1,0,3:0:0:0:
406,114,129218,1,8,0:0:0:0:
211,120,129379,6,0,L|304:113,1,93.50000285339,2|0,0:0|0:0,0:0:0:0:
186,218,129701,1,0,3:0:0:0:
186,218,129863,2,0,L|93:211,1,93.50000285339,8|0,0:0|3:0,0:0:0:0:
247,294,130185,1,0,3:0:0:0:
211,120,130347,1,0,3:0:0:0:
186,218,130508,1,8,0:0:0:0:
182,30,130669,6,0,P|255:39|293:86,1,93.50000285339,6|0,0:0|0:0,0:0:0:0:
368,176,130992,1,0,3:0:0:0:
211,120,131153,1,8,0:0:0:0:
348,89,131314,1,0,3:0:0:0:
242,216,131476,1,0,3:0:0:0:
242,216,131556,1,0,3:0:0:0:
242,216,131637,2,0,B|169:210|169:210|125:239|125:239|33:231,1,187.0000057068,0|0,3:0|0:0,0:0:0:0:
79,45,132121,6,0,P|98:114|83:164,1,93.50000285339,2|0,0:0|0:0,0:0:0:0:
0,301,132443,1,8,0:0:0:0:
102,150,132605,2,0,L|219:142,1,93.50000285339,2|0,0:0|0:0,0:0:0:0:
394,130,132927,1,0,3:0:0:0:
290,69,133088,1,8,0:0:0:0:
277,282,133250,6,0,L|285:165,1,93.50000285339,2|0,0:0|0:0,0:0:0:0:
484,294,133572,1,0,0:0:0:0:
380,320,133734,1,8,0:0:0:0:
489,195,133895,1,0,3:0:0:0:
512,328,134056,1,0,3:0:0:0:
512,328,134137,1,0,3:0:0:0:
512,328,134218,1,0,3:0:0:0:
387,223,134379,2,0,L|395:106,1,93.50000285339,8|0,0:0|0:0,0:0:0:0:
245,29,134701,5,10,0:0:0:0:
411,119,134863,1,0,3:0:0:0:
187,113,135024,1,8,0:0:0:0:
440,26,135185,1,0,3:0:0:0:
134,38,135347,1,8,0:0:0:0:
134,38,135427,1,0,3:0:0:0:
134,38,135508,1,0,3:0:0:0:
325,128,135669,1,8,0:0:0:0:
130,326,135830,6,0,L|126:230,1,95.6250036478,6|0,3:2|0:0,0:0:0:0:
120,141,136153,1,0,3:0:0:0:
242,281,136314,1,8,0:0:0:0:
184,64,136476,1,8,0:0:0:0:
139,42,136556,1,8,0:0:0:0:
90,46,136637,1,8,0:0:0:0:
50,74,136717,1,8,0:0:0:0:
28,118,136798,2,0,P|16:164|31:213,1,95.6250036478,2|0,0:0|0:0,0:0:0:0:
107,244,137121,6,0,P|165:214|232:219,1,118.9999963684,6|0,0:0|0:0,0:0:0:0:
431,312,137443,1,0,3:0:0:0:
179,310,137605,1,8,0:0:0:0:
394,165,137766,1,0,0:0:0:0:
298,380,137927,1,0,3:0:0:0:
184,142,138088,1,0,3:0:0:0:
364,261,138250,1,8,0:0:0:0:
378,13,138411,6,0,L|371:162,1,118.9999963684,6|0,0:0|0:0,0:0:0:0:
196,363,138734,2,0,L|189:214,1,118.9999963684,0|8,3:0|0:0,0:0:0:0:
458,198,139056,2,0,P|382:241|314:230,1,118.9999963684,2|0,3:0|3:0,0:0:0:0:
147,109,139379,1,2,0:0:0:0:
372,131,139540,1,8,0:0:0:0:
101,317,139701,6,0,L|94:168,1,118.9999963684,6|0,0:0|0:0,0:0:0:0:
257,96,140024,1,0,3:0:0:0:
70,192,140185,1,8,0:0:0:0:
284,237,140347,1,0,0:0:0:0:
48,80,140508,1,0,3:0:0:0:
101,317,140669,1,0,3:0:0:0:
184,32,140830,1,8,0:0:0:0:
0,242,140992,6,0,L|135:222,1,118.9999963684,6|0,0:0|0:0,0:0:0:0:
358,357,141314,2,0,L|223:337,1,118.9999963684,0|8,3:0|0:0,0:0:0:0:
300,35,141637,2,0,B|343:88|343:88|323:273,1,237.9999927368,6|0,0:0|3:0,0:0:0:0:
178,175,142121,1,8,0:0:0:0:
386,157,142282,6,0,L|514:146,1,118.9999963684,6|0,0:0|0:0,0:0:0:0:
305,272,142605,1,0,3:0:0:0:
300,35,142766,1,8,0:0:0:0:
408,261,142927,1,0,0:0:0:0:
178,175,143088,2,0,L|50:164,1,118.9999963684,0|0,3:0|3:0,0:0:0:0:
267,102,143411,1,8,0:0:0:0:
188,293,143572,6,0,L|177:165,1,118.9999963684,6|0,0:0|0:0,0:0:0:0:
173,12,143895,1,0,3:0:0:0:
83,204,144056,1,8,0:0:0:0:
262,184,144218,1,0,0:0:0:0:
119,122,144379,1,0,3:0:0:0:
267,102,144540,1,0,3:0:0:0:
170,240,144701,1,8,0:0:0:0:
212,22,144863,6,0,P|292:15|348:57,1,118.9999963684,6|0,0:0|0:0,0:0:0:0:
469,161,145185,1,0,3:0:0:0:
422,42,145347,1,8,0:0:0:0:
376,231,145508,1,0,0:0:0:0:
267,102,145669,2,0,L|139:94,1,118.9999963684,0|0,3:0|0:0,0:0:0:0:
54,247,145992,1,8,0:0:0:0:
41,31,146153,6,0,L|49:159,1,118.9999963684,6|0,0:0|0:0,0:0:0:0:
64,347,146476,1,8,0:0:0:0:
105,370,146556,1,8,0:0:0:0:
152,375,146637,1,8,0:0:0:0:
197,361,146717,1,8,0:0:0:0:
232,330,146798,1,8,3:2:0:0:
254,287,146879,1,8,3:2:0:0:
295,263,146959,1,8,3:2:0:0:
342,258,147040,1,8,3:2:0:0:
387,272,147121,6,8,L|399:340,1,59.4999981842,8|8,3:2|0:0,0:0:0:0:
240,201,147282,2,8,L|252:133,1,59.4999981842,8|8,3:2|3:2,0:0:0:0:
457,71,147443,6,0,P|376:100|313:64,1,118.9999963684,6|0,0:0|0:0,0:0:0:0:
138,27,147766,1,0,3:0:0:0:
390,14,147927,1,8,0:0:0:0:
310,250,148088,1,0,0:0:0:0:
232,17,148250,1,0,3:0:0:0:
426,184,148411,1,0,3:0:0:0:
118,204,148572,1,8,0:0:0:0:
325,86,148734,6,0,P|387:81|442:113,1,118.9999963684,6|0,0:0|0:0,0:0:0:0:
286,328,149056,2,0,L|276:203,1,118.9999963684,2|8,0:0|0:0,0:0:0:0:
336,0,149379,2,0,P|392:26|424:80,1,118.9999963684,2|0,3:0|3:0,0:0:0:0:
260,345,149701,2,0,L|250:220,1,118.9999963684,2|8,0:0|0:0,0:0:0:0:
488,257,150024,6,0,B|449:279|449:279|362:271,1,118.9999963684,6|0,0:0|0:0,0:0:0:0:
122,237,150347,1,0,3:0:0:0:
359,189,150508,1,8,0:0:0:0:
104,249,150669,1,0,0:0:0:0:
305,66,150830,1,0,3:0:0:0:
311,326,150992,1,0,3:0:0:0:
161,79,151153,1,8,0:0:0:0:
193,363,151314,6,0,L|209:200,1,118.9999963684,6|0,0:0|0:0,0:0:0:0:
57,33,151637,2,0,L|73:196,1,118.9999963684,0|8,3:0|0:0,0:0:0:0:
357,207,151959,2,0,P|304:165|239:157,1,118.9999963684,2|0,0:0|0:0,0:0:0:0:
43,237,152282,1,0,3:0:0:0:
265,137,152443,1,8,0:0:0:0:
74,373,152605,6,0,L|62:254,1,118.9999963684,6|0,0:0|0:0,0:0:0:0:
186,74,152927,1,0,3:0:0:0:
177,244,153088,1,8,0:0:0:0:
84,16,153250,1,0,0:0:0:0:
10,177,153411,2,0,L|141:162,1,118.9999963684,0|0,3:0|3:0,3:0:0:0:
334,159,153734,1,8,0:0:0:0:
232,16,153895,6,0,P|200:78|212:146,1,118.9999963684,6|0,0:0|0:0,0:0:0:0:
323,271,154218,1,0,3:0:0:0:
286,86,154379,1,8,0:0:0:0:
204,284,154540,2,0,L|335:269,1,118.9999963684,2|0,0:0|0:0,0:0:0:0:
480,253,154863,1,0,3:0:0:0:
334,159,155024,1,8,0:0:0:0:
512,47,155185,6,0,L|497:178,1,118.9999963684,6|0,0:0|0:0,0:0:0:0:
465,349,155508,1,0,3:0:0:0:
361,266,155669,2,0,L|492:251,1,118.9999963684,8|0,0:0|0:0,0:0:0:0:
315,355,155992,1,0,3:0:0:0:
298,192,156153,1,0,3:0:0:0:
240,282,156314,1,8,0:0:0:0:
225,131,156476,6,0,L|106:117,1,118.9999963684,6|0,0:0|0:0,0:0:0:0:
103,315,156798,1,8,0:0:0:0:
103,315,156959,2,0,P|154:240|156:182,1,118.9999963684,8|0,2:0|3:2,0:0:0:0:
6,117,157282,2,0,P|45:198|94:229,1,118.9999963684,0|0,3:2|3:0,3:0:0:0:
225,131,157605,1,8,3:2:0:0:
96,0,157766,6,0,L|108:139,1,118.9999963684,6|0,0:0|0:0,0:0:0:0:
126,270,158088,1,0,3:0:0:0:
225,131,158250,1,8,0:0:0:0:
206,329,158411,1,0,3:0:0:0:
116,141,158572,1,0,3:0:0:0:
296,240,158734,1,0,3:0:0:0:
94,287,158895,1,8,0:0:0:0:
225,131,159056,6,0,B|260:178|260:178|245:317,1,178.4999945526,6|0,0:0|0:0,0:0:0:0:
234,377,159379,1,0,3:0:0:0:
94,287,159540,1,8,0:0:0:0:
296,240,159701,2,0,L|439:231,1,118.9999963684,0|8,3:0|0:0,0:0:0:0:
263,16,160024,1,8,3:0:0:0:
231,46,160104,1,0,3:0:0:0:
214,86,160185,1,0,3:0:0:0:
214,130,160265,1,0,3:0:0:0:
230,171,160347,6,0,B|289:197|336:142|336:142|363:162|363:162|420:68|539:102|549:177|530:240|443:274|428:214|447:176,1,476,6|2,0:0|0:0,0:0:0:0:
448,37,161637,5,0,3:0:0:0:
448,37,161718,1,0,3:0:0:0:
448,37,161798,2,0,P|395:40|356:60,1,68,4|0,0:0|0:0,0:0:0:0:
252,142,162121,1,0,3:0:0:0:
218,167,162201,1,0,3:0:0:0:
177,179,162282,1,0,3:0:0:0:
135,178,162362,1,0,3:0:0:0:
96,162,162443,2,0,L|109:114,1,34,0|0,0:0|0:0,3:0:0:0:
125,42,162605,5,0,3:0:0:0:
165,266,162766,1,8,0:0:0:0:
260,48,162927,6,0,L|251:141,1,93.50000285339,6|0,0:0|0:0,0:0:0:0:
401,155,163250,1,0,3:0:0:0:
342,14,163411,2,0,L|333:107,1,93.50000285339,12|0,0:0|0:0,0:0:0:0:
314,252,163734,1,0,3:0:0:0:
250,141,163895,1,0,3:0:0:0:
401,155,164056,1,8,0:0:0:0:
188,234,164218,6,0,L|95:225,1,93.50000285339,6|0,0:0|0:0,0:0:0:0:
261,297,164540,1,0,3:0:0:0:
261,297,164701,2,0,P|278:246|269:191,1,93.50000285339,8|0,0:0|0:0,0:0:0:0:
157,134,165024,1,0,3:0:0:0:
188,234,165185,1,0,3:0:0:0:
227,71,165347,1,8,0:0:0:0:
274,207,165508,6,0,L|384:203,1,93.50000285339,6|0,0:0|0:0,0:0:0:0:
329,29,165830,1,0,3:0:0:0:
329,29,165991,2,0,P|312:80|321:135,1,93.50000285339,8|0,0:0|0:0,0:0:0:0:
464,191,166314,1,0,3:0:0:0:
293,143,166476,1,0,3:0:0:0:
468,99,166637,1,8,0:0:0:0:
370,297,166798,6,0,L|366:187,1,93.50000285339,6|0,0:0|0:0,0:0:0:0:
296,49,167121,2,0,L|292:142,1,93.50000285339,0|8,3:0|0:0,0:0:0:0:
278,366,167443,1,4,3:2:0:0:
209,232,167605,1,0,3:0:0:0:
116,355,167766,1,0,3:0:0:0:
149,164,167927,1,8,0:0:0:0:
21,257,168088,6,0,L|136:245,1,93.50000285339,6|0,0:0|0:0,0:0:0:0:
342,226,168411,1,0,3:0:0:0:
116,355,168572,1,8,0:0:0:0:
209,232,168734,1,0,0:0:0:0:
278,366,168895,1,0,3:0:0:0:
237,139,169056,1,0,3:0:0:0:
178,325,169218,1,8,0:0:0:0:
140,105,169379,6,0,L|32:102,1,93.50000285339,6|0,0:0|0:0,0:0:0:0:
271,42,169701,1,0,3:0:0:0:
209,232,169863,1,8,0:0:0:0:
336,121,170024,1,0,0:0:0:0:
171,11,170185,1,0,3:0:0:0:
407,56,170347,2,0,L|500:53,1,93.50000285339,0|0,3:0|0:0,0:0:0:0:
364,207,170669,6,0,P|340:164|337:110,1,93.50000285339,6|0,0:0|0:0,0:0:0:0:
460,234,170992,1,0,3:0:0:0:
295,280,171153,1,8,0:0:0:0:
427,135,171314,1,0,0:0:0:0:
483,327,171476,1,0,3:0:0:0:
265,185,171637,1,0,3:0:0:0:
460,234,171798,1,8,0:0:0:0:
161,202,171959,6,0,L|278:194,1,93.50000285339,6|0,0:0|0:0,0:0:0:0:
397,45,172282,1,0,3:0:0:0:
217,92,172443,1,8,0:0:0:0:
499,67,172605,2,0,L|405:60,1,93.50000285339,6|0,0:0|0:0,0:0:0:0:
176,303,172927,1,8,0:0:0:0:
217,323,173007,1,8,0:0:0:0:
263,325,173088,1,8,0:0:0:0:
306,306,173168,1,8,0:0:0:0:
336,271,173250,6,0,L|343:177,1,93.50000285339,6|0,0:0|0:0,0:0:0:0:
342,26,173572,1,0,3:0:0:0:
199,109,173734,2,0,L|293:102,1,93.50000285339,8|0,0:0|0:0,0:0:0:0:
512,81,174056,1,0,3:0:0:0:
342,177,174218,1,0,3:0:0:0:
502,209,174379,1,8,0:0:0:0:
424,10,174540,6,0,L|431:104,1,93.50000285339,2|0,0:0|0:0,0:0:0:0:
449,281,174863,1,0,3:0:0:0:
342,177,175024,1,8,0:0:0:0:
326,361,175185,2,0,L|333:267,1,93.50000285339,0|0,0:0|3:0,0:0:0:0:
347,79,175508,1,0,3:0:0:0:
251,213,175669,1,8,0:0:0:0:
435,183,175830,6,0,L|341:176,1,93.50000285339,6|0,0:0|0:0,0:0:0:0:
125,150,176153,1,0,3:0:0:0:
291,103,176314,1,8,0:0:0:0:
159,237,176476,1,0,0:0:0:0:
128,59,176637,2,0,P|187:83|211:132,1,93.50000285339,0|0,3:0|0:0,0:0:0:0:
228,286,176959,1,8,0:0:0:0:
31,156,177121,6,0,L|125:149,1,93.50000285339,6|0,0:0|0:0,0:0:0:0:
308,133,177443,1,0,3:0:0:0:
159,237,177605,1,8,0:0:0:0:
227,50,177766,1,0,0:0:0:0:
227,50,177927,2,0,L|219:183,1,93.50000285339,0|0,3:0|0:0,0:0:0:0:
350,210,178250,1,8,0:0:0:0:
313,39,178411,6,0,L|305:172,1,93.50000285339,6|0,0:0|0:0,0:0:0:0:
164,330,178734,1,0,3:0:0:0:
164,330,178895,2,0,L|156:197,1,93.50000285339,8|0,0:0|0:0,0:0:0:0:
147,69,179218,1,0,3:0:0:0:
231,181,179379,1,0,3:0:0:0:
217,19,179540,1,8,0:0:0:0:
57,154,179701,6,0,L|190:146,1,93.50000285339,6|0,0:0|0:0,0:0:0:0:
310,143,180024,1,0,3:0:0:0:
158,236,180185,1,8,0:0:0:0:
299,233,180347,1,0,0:0:0:0:
237,71,180508,1,0,3:0:0:0:
231,181,180669,1,0,3:0:0:0:
300,14,180830,1,8,0:0:0:0:
403,148,180992,6,0,L|270:140,1,93.50000285339,6|0,0:0|0:0,0:0:0:0:
130,129,181314,1,0,3:0:0:0:
299,233,181476,1,8,0:0:0:0:
237,71,181637,1,0,0:0:0:0:
231,181,181798,1,0,3:0:0:0:
54,69,181959,1,0,3:0:0:0:
148,33,182121,1,8,0:0:0:0:
135,222,182282,6,0,L|127:89,1,93.50000285339,6|0,0:0|0:0,0:0:0:0:
304,242,182605,1,0,3:0:0:0:
304,242,182685,1,0,3:0:0:0:
304,242,182766,2,0,L|297:314,1,46.7500014267,0|0,3:0|3:0,0:0:0:0:
231,181,182927,2,0,L|226:133,1,46.7500014267,0|0,3:0|3:0,0:0:0:0:
289,26,183088,1,8,3:0:0:0:
334,16,183168,1,8,3:0:0:0:
379,26,183249,1,8,3:0:0:0:
417,54,183329,1,8,3:0:0:0:
445,93,183411,6,0,L|434:203,1,93.50000285339,2|0,0:0|0:0,0:0:0:0:
416,346,183734,1,0,3:0:0:0:
304,242,183895,5,0,3:0:0:0:
266,214,183975,1,0,3:0:0:0:
221,205,184056,1,0,3:0:0:0:
176,217,184136,1,0,3:0:0:0:
141,247,184218,2,0,B|121:202|121:202|150:46,1,187.0000057068,6|0,0:0|0:0,0:0:0:0:
223,11,184701,1,8,0:0:0:0:
307,135,184863,5,0,3:0:0:0:
345,161,184943,1,0,3:0:0:0:
390,170,185024,1,0,3:0:0:0:
436,161,185104,1,0,3:0:0:0:
474,135,185185,6,0,B|494:180|494:180|464:335,1,187.0000057068,6|0,0:0|0:0,0:0:0:0:
225,348,185669,2,0,P|265:301|353:309,1,140.2500042801,6|0,0:0|0:0,0:0:0:0:
393,359,185992,2,0,L|376:234,1,93.50000285339,6|0,0:0|0:0,0:0:0:0:
355,111,186314,1,2,0:0:0:0:
230,202,186476,5,8,3:0:0:0:
189,224,186556,1,8,3:0:0:0:
143,229,186637,1,8,3:0:0:0:
98,217,186717,1,8,3:0:0:0:
61,188,186798,2,0,L|54:106,1,46.7500014267,8|8,3:0|3:0,0:0:0:0:
49,25,186959,1,8,3:0:0:0:
92,8,187039,1,8,3:0:0:0:
138,7,187120,1,8,3:0:0:0:
182,23,187200,1,8,3:0:0:0:
218,53,187282,6,0,B|274:96|336:55|336:55|364:80|364:80|430:21|556:42|563:195|474:233|390:194|435:127,1,518.9250126691,6|0,0:0|0:0,0:0:0:0:
430,134,190024,5,14,0:0:0:0:
96,42,192443,5,0,3:0:0:0:
96,42,192524,1,0,3:0:0:0:
96,42,192605,2,0,B|81:83|81:83|95:176,1,118.9999963684,4|0,0:0|0:0,0:0:0:0:
266,334,192927,1,0,3:0:0:0:
231,134,193088,1,8,0:0:0:0:
113,342,193250,1,0,0:0:0:0:
182,53,193411,1,0,3:0:0:0:
317,273,193572,1,0,3:0:0:0:
263,3,193734,1,8,0:0:0:0:
101,239,193895,6,0,P|155:259|232:231,1,118.9999963684,6|0,0:0|0:0,0:0:0:0:
46,40,194218,2,0,L|34:180,1,118.9999963684,2|8,0:0|0:0,0:0:0:0:
190,345,194540,2,0,P|246:335|299:272,1,118.9999963684,2|0,3:0|3:0,0:0:0:0:
14,29,194863,2,0,L|2:169,1,118.9999963684,2|8,0:0|0:0,0:0:0:0:
245,115,195185,6,0,B|185:93|185:93|103:104,1,118.9999963684,6|0,0:0|0:0,0:0:0:0:
0,246,195508,1,0,3:0:0:0:
173,185,195669,1,8,0:0:0:0:
14,29,195830,1,0,0:0:0:0:
95,306,195992,2,0,L|83:166,1,118.9999963684,0|0,3:0|0:0,0:0:0:0:
190,27,196314,1,8,0:0:0:0:
384,220,196476,6,0,L|244:208,1,118.9999963684,6|0,0:0|0:0,0:0:0:0:
465,139,196798,1,0,3:0:0:0:
454,292,196959,1,8,0:0:0:0:
386,89,197121,1,2,0:0:0:0:
384,220,197282,1,0,0:0:0:0:
458,26,197443,1,0,3:0:0:0:
284,97,197605,1,8,0:0:0:0:
461,257,197766,6,0,L|465:128,1,118.9999963684,6|0,0:0|0:0,0:0:0:0:
286,9,198088,1,0,3:0:0:0:
480,127,198250,1,8,0:0:0:0:
228,173,198411,1,0,0:0:0:0:
375,24,198572,2,0,L|379:153,1,118.9999963684,0|0,3:0|3:0,0:0:0:0:
389,323,198895,1,8,0:0:0:0:
172,225,199056,6,0,L|301:221,1,118.9999963684,6|0,0:0|0:0,0:0:0:0:
109,317,199379,1,8,0:0:0:0:
73,270,199459,1,8,0:0:0:0:
64,211,199540,1,8,0:0:0:0:
85,156,199620,1,8,0:0:0:0:
130,119,199701,6,0,P|174:123|209:159,1,59.4999981842,0|0,3:0|3:0,0:0:0:0:
234,63,199863,2,8,P|261:96|260:146,1,59.4999981842,8|8,0:0|0:0,0:0:0:0:
346,96,200024,2,8,P|342:139|306:174,1,59.4999981842,8|8,0:0|0:0,0:0:0:0:
402,199,200185,2,8,P|368:226|318:225,1,59.4999981842,8|8,0:0|0:0,0:0:0:0:
346,96,200347,6,0,L|474:86,1,118.9999963684,6|0,0:0|0:0,0:0:0:0:
263,20,200669,1,0,3:0:0:0:
290,292,200830,1,8,0:0:0:0:
484,110,200992,1,0,0:0:0:0:
195,153,201153,1,0,3:0:0:0:
417,312,201314,1,0,3:0:0:0:
397,43,201476,1,8,0:0:0:0:
174,289,201637,6,0,L|25:278,1,118.9999963684,6|0,0:0|0:0,0:0:0:0:
272,91,201959,2,0,P|281:170|259:239,1,118.9999963684,8|8,0:0|0:0,0:0:0:0:
129,373,202282,2,0,L|-20:362,1,118.9999963684,8|0,3:2|0:0,0:0:0:0:
368,193,202605,2,0,P|336:265|282:314,1,118.9999963684,8|0,3:2|0:0,0:0:0:0:
66,164,202927,6,0,L|229:152,1,118.9999963684,6|0,0:0|0:0,0:0:0:0:
474,144,203250,1,0,3:0:0:0:
241,49,203411,1,8,0:0:0:0:
402,320,203572,1,0,0:0:0:0:
391,9,203734,1,0,3:0:0:0:
254,350,203895,1,0,3:0:0:0:
141,35,204056,1,8,0:0:0:0:
438,242,204218,6,0,L|275:230,1,118.9999963684,6|0,0:0|0:0,0:0:0:0:
61,211,204540,1,0,0:0:0:0:
326,124,204701,1,8,0:0:0:0:
173,359,204863,2,0,L|161:196,1,118.9999963684,2|0,3:0|0:0,0:0:0:0:
339,13,205185,1,2,0:0:0:0:
319,233,205347,1,8,0:0:0:0:
90,107,205508,6,0,B|129:79|129:79|229:78,1,118.9999963684,6|0,0:0|0:0,0:0:0:0:
450,89,205830,1,0,3:0:0:0:
218,164,205992,1,8,0:0:0:0:
422,181,206153,1,0,0:0:0:0:
295,17,206314,2,0,L|301:150,1,118.9999963684,0|0,3:0|3:0,0:0:0:0:
314,332,206637,1,8,0:0:0:0:
426,239,206798,6,0,L|293:233,1,118.9999963684,6|0,0:0|0:0,0:0:0:0:
37,227,207121,1,0,3:0:0:0:
301,153,207282,1,8,0:0:0:0:
140,30,207443,2,0,L|134:148,1,118.9999963684,2|0,0:0|0:0,0:0:0:0:
121,357,207766,1,0,3:0:0:0:
222,180,207927,1,8,0:0:0:0:
10,255,208088,6,0,L|143:249,1,118.9999963684,6|0,0:0|0:0,0:0:0:0:
386,239,208411,1,0,3:0:0:0:
222,180,208572,1,8,0:0:0:0:
325,336,208734,1,0,0:0:0:0:
324,121,208895,1,0,3:0:0:0:
182,322,209056,1,0,3:0:0:0:
129,125,209218,1,8,0:0:0:0:
309,228,209379,6,0,P|373:219|405:61,1,237.9999927368,6|0,0:0|0:0,0:0:0:0:
215,4,209863,2,0,L|231:140,1,118.9999963684,8|0,0:0|0:0,0:0:0:0:
115,243,210185,2,0,L|131:107,1,118.9999963684,0|0,3:0|3:0,0:0:0:0:
309,228,210508,1,8,0:0:0:0:
76,315,210669,6,0,L|104:71,1,237.9999927368,6|0,0:0|3:0,0:0:0:0:
312,33,211153,1,8,0:0:0:0:
79,67,211314,1,0,0:0:0:0:
346,111,211476,1,0,3:0:0:0:
157,16,211637,1,0,3:0:0:0:
130,208,211798,1,8,0:0:0:0:
312,33,211959,6,0,P|377:33|428:102,1,118.9999963684,6|0,0:0|0:0,0:0:0:0:
440,278,212282,1,8,0:0:0:0:
346,111,212443,1,8,0:0:0:0:
358,323,212605,1,8,3:2:0:0:
426,161,212766,1,8,3:2:0:0:
272,283,212927,1,8,3:2:0:0:
233,312,213007,1,8,3:2:0:0:
187,326,213088,1,8,3:2:0:0:
138,322,213168,1,8,3:2:0:0:
94,301,213250,6,0,B|59:215|115:153|115:153|178:80|121:20|60:20|27:74|21:129|115:153|115:153,1,416.4999872894,6|0,0:0|0:0,0:0:0:0:
178,242,214540,5,8,0:0:0:0:
178,242,214621,1,8,0:0:0:0:
178,242,214701,2,0,L|305:233,1,93.50000285339,12|0,0:0|0:0,0:0:0:0:
403,169,215024,2,0,L|276:160,1,93.50000285339,0|0,0:0|0:0,0:0:0:0:
462,249,215347,1,0,0:0:0:0:
467,98,215508,2,0,B|421:65|373:77|373:77|345:118|306:127,1,140.2500042801
298,41,215830,5,0,0:0:0:0:
256,192,215911,12,0,218411,0:0:0:0:
202,345,218572,6,0,P|188:294|195:234,1,101.9999968872,2|0,0:0|0:0,0:0:0:0:
96,233,219056,2,0,P|120:188|159:155,1,101.9999968872,2|0,0:0|0:0,0:0:0:0:
100,78,219540,1,2,0:0:0:0:
241,176,219863,1,2,0:0:0:0:
241,176,221153,6,0,P|267:132|224:28,2,152.9999953308,2|2|2,0:0|0:0|0:0,0:0:0:0:
184,108,222443,1,2,0:0:0:0:
256,192,222524,12,0,223411,0:0:0:0:
