osu file format v14

[General]
AudioFilename: audio.mp3
AudioLeadIn: 0
PreviewTime: 38852
Countdown: 0
SampleSet: Soft
StackLeniency: 0.7
Mode: 2
LetterboxInBreaks: 0
WidescreenStoryboard: 1

[Editor]
Bookmarks: 8611,19160,29709,33990,35555
DistanceSpacing: 1.6
BeatDivisor: 4
GridSize: 4
TimelineZoom: 1.5

[Metadata]
Title:1 - 2 - 3 (TV Size)
TitleUnicode:1・2・3(TV Size)
Artist:After the Rain
ArtistUnicode:After the Rain
Creator:Xinely
Version:Rain
Source:ポケットモンスター
Tags:1-2-3 2019 123 そらる まふまふ soraru mafumafu Pocket Monster Pokemon Pokémon ポケモン opening utaite AJamez Jemzuu Greaper rew0825 rew Daletto anime japanese op
BeatmapID:2248667
BeatmapSetID:1067920

[Difficulty]
HPDrainRate:6
CircleSize:3.8
OverallDifficulty:9
ApproachRate:9
SliderMultiplier:1.6
SliderTickRate:1

[Events]
//Background and Video events
0,0,"pokemon_bg2.jpg",0,0
//Break Periods
//Storyboard Layer 0 (Background)
//Storyboard Layer 1 (Fail)
//Storyboard Layer 2 (Pass)
//Storyboard Layer 3 (Foreground)
//Storyboard Layer 4 (Overlay)
//Storyboard Sound Samples

[TimingPoints]
699,329.67032967033,4,2,1,60,1,0
2017,-100,4,2,1,75,0,0
8611,-100,4,2,2,50,0,0
19160,-100,4,2,2,70,0,0
29709,329.67032967033,3,2,2,50,1,0
33990,329.67032967033,4,2,1,75,1,0
39264,-100,4,2,1,80,0,1
41572,-166.666666666667,4,2,1,80,0,1
41902,-100,4,2,1,80,0,1
49814,-100,4,2,1,60,0,0
56572,-100,4,2,2,60,0,0
57314,-100,4,2,1,60,0,0
57726,-100,4,2,1,70,0,0
58055,-100,4,2,1,70,0,0
58385,-66.6666666666667,4,2,1,70,0,0
58715,-100,4,2,1,70,0,0
59044,-100,4,2,1,70,0,0
60034,-100,4,2,1,70,0,0
60693,-100,4,2,1,80,0,1
62506,-66.6666666666667,4,2,1,80,0,1
62671,-166.666666666667,4,2,1,80,0,1
63000,-100,4,2,1,80,0,1
70913,-100,4,2,1,60,0,0
73880,-100,4,2,1,60,0,0
74374,-100,4,2,1,60,0,0
78825,-100,4,2,1,75,0,0
80968,-100,4,2,1,60,0,0
81132,-100,4,2,1,60,0,0
81462,-100,4,2,1,80,0,1
81544,-100,4,2,1,80,0,0
81957,-100,4,2,1,60,0,0
83770,-100,4,2,1,60,0,0
84594,-100,4,2,1,60,0,0
86737,-100,4,2,1,60,0,0
87891,-100,4,2,1,60,0,0
88385,-100,4,2,1,50,0,0

[Colours]
Combo1 : 255,205,55
Combo2 : 121,242,0
Combo3 : 81,159,255
Combo4 : 180,103,103

[HitObjects]
428,245,1028,6,0,L|484:241,2,40,2|0|0,0:0|0:0|0:0,0:0:0:0:
148,256,1358,1,8,0:0:0:0:
100,228,1440,1,8,0:3:0:0:
98,184,1523,1,8,0:3:0:0:
148,163,1605,1,8,0:3:0:0:
331,147,1688,2,0,P|371:112|307:80,1,120,12|0,0:3|0:0,0:0:0:0:
120,94,2017,6,0,L|28:99,2,80,4|0|8,0:0|0:0|0:0,0:0:0:0:
372,99,2512,2,0,P|324:74|275:68,1,80,2|4,0:0|0:3,0:0:0:0:
207,67,2841,1,2,0:0:0:0:
117,72,3006,1,8,0:0:0:0:
371,194,3171,6,0,P|409:199|463:190,1,80,2|4,0:0|0:3,0:0:0:0:
342,285,3501,2,0,L|447:299,1,80,0|8,0:0|0:0,0:0:0:0:
180,250,3830,2,0,P|129:223|209:178,1,160,2|2,0:0|0:0,0:0:0:0:
282,149,4325,1,8,0:0:0:0:
381,139,4490,1,0,0:0:0:0:
111,77,4655,6,0,L|-2:86,1,80,4|0,0:0|0:0,0:0:0:0:
120,166,4984,2,0,L|18:173,1,80,8|0,0:0|0:0,0:0:0:0:
278,159,5314,1,4,0:3:0:0:
409,151,5479,1,8,0:0:0:0:
272,91,5644,1,4,0:3:0:0:
142,156,5808,1,10,0:0:0:0:
99,251,6138,5,10,0:0:0:0:
333,221,6303,2,0,L|335:124,1,80,10|0,0:0|0:0,0:0:0:0:
188,159,6633,1,10,0:0:0:0:
445,157,6797,2,0,L|432:62,1,80,10|0,0:0|0:0,0:0:0:0:
206,81,7127,6,0,L|113:73,1,80,10|0,0:0|0:0,0:0:0:0:
365,162,7457,2,0,L|469:155,1,80,10|0,0:0|0:0,0:0:0:0:
177,228,7786,1,10,0:0:0:0:
268,234,7951,2,0,P|305:205|251:114,1,160,10|0,0:0|0:0,0:0:0:0:
277,105,8611,6,0,L|391:106,1,80,6|0,0:0|0:0,0:0:0:0:
461,106,8940,2,0,P|467:148|447:206,1,80,6|0,0:3|0:0,0:0:0:0:
359,217,9270,2,0,L|268:216,2,80,4|2|4,0:3|0:0|0:3,0:0:0:0:
197,277,9764,6,0,P|164:223|206:141,1,160,2|0,0:0|0:0,0:0:0:0:
304,143,10259,1,4,0:3:0:0:
143,147,10424,2,0,P|133:107|155:56,1,80,2|0,0:0|0:0,0:0:0:0:
247,63,10753,2,0,L|347:62,2,80,0|4|2,0:0|0:3|0:0,0:0:0:0:
70,69,11248,6,0,P|15:110|69:163,1,160,6|6,0:3|0:3,0:0:0:0:
169,156,11742,1,0,0:0:0:0:
273,154,11907,1,6,0:3:0:0:
107,223,12072,2,0,P|44:229|22:223,1,80,2|4,0:0|0:3,0:0:0:0:
223,274,12402,6,0,P|299:268|394:275,1,160,2|2,0:0|0:0,0:0:0:0:
277,211,12896,1,4,0:3:0:0:
465,206,13061,2,2,P|435:232|397:243,1,80,2|4,0:0|0:3,0:0:0:0:
270,239,13391,2,0,L|174:243,2,80,2|4|0,0:0|0:3|0:0,0:0:0:0:
500,198,13885,6,0,L|340:145,1,160,2|4,0:0|0:3,0:0:0:0:
246,121,14380,2,0,P|189:85|167:64,1,80,2|4,0:0|0:3,0:0:0:0:
307,121,14709,2,0,L|398:119,1,80,2|4,0:0|0:3,0:0:0:0:
213,202,15039,6,0,P|132:231|57:177,1,160,2|2,0:0|0:0,0:0:0:0:
62,93,15534,1,6,0:3:0:0:
206,86,15699,2,0,P|217:126|212:168,1,80,2|4,0:0|0:3,0:0:0:0:
93,174,16028,1,2,0:0:0:0:
38,119,16193,1,4,0:3:0:0:
89,63,16358,1,2,0:0:0:0:
276,67,16523,6,0,L|259:178,1,80,6|0,0:3|0:0,0:0:0:0:
145,148,16852,2,0,L|177:251,1,80,6|0,0:3|0:0,0:0:0:0:
335,268,17182,1,6,0:3:0:0:
414,210,17347,1,2,0:0:0:0:
414,130,17512,1,6,0:3:0:0:
335,73,17677,1,2,0:0:0:0:
165,73,17841,6,0,L|66:79,2,80,6|0|4,0:3|0:0|0:3,0:0:0:0:
293,183,18336,1,2,0:0:0:0:
344,159,18418,1,8,0:0:0:0:
361,115,18501,1,4,0:3:0:0:
335,73,18583,1,8,0:0:0:0:
290,56,18666,1,4,0:3:0:0:
55,142,18830,1,4,0:3:0:0:
72,111,18913,1,4,0:3:0:0:
120,108,18995,1,4,0:3:0:0:
399,136,19160,6,0,P|361:161|303:173,1,80,4|0,0:0|0:0,0:0:0:0:
207,167,19490,2,0,P|160:145|106:145,2,80,8|0|4,0:0|0:0|0:3,0:0:0:0:
367,198,19984,2,0,L|450:191,1,80,2|8,0:0|0:0,0:0:0:0:
138,264,20314,6,0,L|134:164,1,80,2|4,0:0|0:3,0:0:0:0:
242,147,20644,1,2,0:0:0:0:
123,103,20808,1,8,0:0:0:0:
375,97,20973,2,0,L|470:89,1,80,2|4,0:0|0:3,0:0:0:0:
197,146,21303,2,0,L|117:144,2,80,2|8|2,0:0|0:0|0:0,0:0:0:0:
363,217,21797,6,0,P|403:154|360:90,1,160,4|8,0:3|0:0,0:0:0:0:
258,93,22292,1,0,0:0:0:0:
360,90,22457,1,4,0:3:0:0:
184,165,22622,2,0,P|142:166|85:167,1,80,2|8,0:0|0:0,0:0:0:0:
344,282,22951,6,0,P|400:230|334:207,1,160,2|2,0:0|0:0,0:0:0:0:
229,170,23446,1,8,0:0:0:0:
457,179,23611,2,0,L|424:91,1,80,2|4,0:0|0:3,0:0:0:0:
256,58,23940,1,2,0:0:0:0:
149,120,24105,1,8,0:0:0:0:
252,185,24270,1,2,0:0:0:0:
488,119,24435,6,0,P|468:153|436:176,1,80,4|2,0:3|0:0,0:0:0:0:
271,187,24764,2,0,P|225:147|203:118,1,80,8|2,0:0|0:0,0:0:0:0:
318,183,25094,1,4,0:3:0:0:
147,257,25259,2,0,P|107:262|65:254,1,80,2|8,0:0|0:0,0:0:0:0:
325,304,25589,6,0,P|380:252|466:233,1,160,2|2,0:0|0:0,0:0:0:0:
301,204,26083,2,0,L|221:208,1,80,8|2,0:0|0:0,0:0:0:0:
83,164,26413,1,4,0:3:0:0:
84,83,26578,1,2,0:0:0:0:
259,86,26742,2,0,L|358:84,1,80,8|2,0:0|0:0,0:0:0:0:
99,215,27072,6,0,L|19:211,2,80,6|2|8,0:0|0:0|0:0,0:0:0:0:
347,87,27567,2,0,L|348:198,1,80,2|4,0:0|0:3,0:0:0:0:
274,251,27896,1,2,0:0:0:0:
425,257,28061,1,8,0:0:0:0:
193,175,28226,6,0,L|294:165,1,80,2|4,0:0|0:3,0:0:0:0:
382,162,28556,1,2,0:0:0:0:
109,198,28720,2,0,L|-1:195,1,80,10|2,0:0|0:0,0:0:0:0:
300,265,29050,2,0,L|370:256,2,53.3333333333333,4|4|4,0:3|0:3|0:3,0:0:0:0:
177,267,29380,2,0,L|107:258,2,53.3333333333333,8|8|8,0:3|0:3|0:3,0:0:0:0:
399,270,29709,6,0,P|488:214|388:63,1,320,2|2,0:0|0:0,0:0:0:0:
216,143,30698,1,2,0:0:0:0:
310,151,31027,1,2,0:0:0:0:
400,165,31357,1,2,0:0:0:0:
82,135,31687,6,0,P|18:165|114:339,1,320,2|2,0:0|0:0,0:0:0:0:
506,287,32676,2,0,B|421:271|421:271|336:230|320:153|376:96|470:85|538:152|523:309|364:305|296:275,1,560,2|0,0:0|0:0,0:0:0:0:
76,124,33990,6,0,L|91:228,1,80,4|0,0:0|0:0,0:0:0:0:
209,221,34319,1,8,0:0:0:0:
81,269,34484,1,0,0:0:0:0:
272,286,34649,1,4,0:3:0:0:
373,284,34814,1,0,0:0:0:0:
212,282,34979,1,8,0:0:0:0:
176,250,35061,1,2,0:0:0:0:
174,208,35143,1,2,0:0:0:0:
219,180,35226,1,2,0:0:0:0:
379,145,35308,6,0,P|411:136|471:148,1,80,2|2,0:0|0:0,0:0:0:0:
268,149,35638,2,0,P|235:125|211:93,1,80,8|2,0:0|0:0,0:0:0:0:
364,188,35968,2,0,P|403:179|437:160,1,80,4|8,0:3|0:0,0:0:0:0:
166,196,36297,1,4,0:3:0:0:
415,243,36462,2,0,L|409:167,1,40,4|0,0:3|0:0,0:0:0:0:
209,153,36627,6,0,P|164:209|233:263,1,160,4|8,0:0|0:0,0:0:0:0:
309,268,37121,1,2,0:0:0:0:
64,266,37286,1,8,0:0:0:0:
38,225,37369,1,4,0:3:0:0:
69,186,37451,1,2,0:0:0:0:
179,190,37616,1,8,0:0:0:0:
437,201,37781,6,0,L|373:140,1,80,6|0,0:0|0:0,0:0:0:0:
107,146,38110,1,4,0:3:0:0:
247,140,38275,1,4,0:3:0:0:
107,146,38440,1,4,0:3:0:0:
371,135,38605,2,0,L|357:31,1,80,12|2,0:0|0:0,0:0:0:0:
120,95,38935,2,0,L|218:95,1,80,6|4,0:0|3:0,0:0:0:0:
497,205,39264,6,0,L|387:204,1,80,6|0,0:0|0:0,0:0:0:0:
176,274,39594,2,0,L|272:278,1,80,4|0,0:0|0:0,0:0:0:0:
500,215,39924,2,0,P|470:142|447:118,1,80,4|0,0:0|0:0,0:0:0:0:
366,145,40253,1,8,0:0:0:0:
128,179,40418,6,0,P|211:224|285:192,1,160,2|2,0:0|0:0,0:0:0:0:
373,182,40913,1,8,0:0:0:0:
132,103,41077,2,0,P|76:150|67:184,1,80,2|4,0:0|0:3,0:0:0:0:
243,192,41407,1,8,0:0:0:0:
68,211,41572,2,0,L|144:213,1,71.9999978027344,8|0,0:0|0:0,0:0:0:0:
343,206,41902,6,0,L|348:313,1,80,4|0,0:0|0:0,0:0:0:0:
112,212,42231,2,0,L|98:319,1,80,8|0,0:0|0:0,0:0:0:0:
352,196,42561,2,4,L|438:180,2,80,4|0|8,0:3|0:3|0:0,0:0:0:0:
79,125,43055,6,0,L|158:136,1,80,2|4,0:0|0:3,0:0:0:0:
323,199,43385,2,0,L|243:200,1,80,2|8,0:0|0:0,0:0:0:0:
6,235,43715,2,0,L|83:254,1,80,2|4,0:0|0:3,0:0:0:0:
363,303,44044,1,8,0:0:0:0:
446,229,44209,1,4,0:3:0:0:
359,161,44374,1,2,0:0:0:0:
118,123,44539,6,0,P|20:144|4:214,2,160,4|8|4,0:0|0:0|0:3,0:0:0:0:
359,130,45363,2,0,L|447:140,1,80,10|4,0:0|0:3,0:0:0:0:
176,162,45693,6,0,P|116:177|65:91,1,160,2|0,0:0|0:0,0:0:0:0:
321,70,46187,2,0,P|364:83|429:81,1,80,8|0,0:0|0:0,0:0:0:0:
241,150,46517,2,0,L|148:150,1,80,6|0,0:3|0:0,0:0:0:0:
54,151,46847,1,8,0:0:0:0:
323,266,47011,6,0,P|365:218|304:146,1,160,2|2,0:0|0:0,0:0:0:0:
144,158,47506,2,0,P|121:91|142:50,1,120,10|0,0:0|0:0,0:0:0:0:
249,53,47836,2,0,L|360:40,2,80,4|2|8,0:3|0:0|0:0,0:0:0:0:
12,145,48330,6,0,L|175:234,1,160,2|2,0:0|0:0,0:0:0:0:
272,269,48825,2,0,L|192:274,1,80,8|2,0:0|0:0,0:0:0:0:
423,230,49154,1,4,0:3:0:0:
471,201,49236,1,8,0:0:0:0:
471,156,49319,1,8,0:0:0:0:
426,127,49402,1,8,0:3:0:0:
266,127,49484,2,0,L|226:128,1,40,8|8,0:0|0:3,0:0:0:0:
226,208,49649,2,0,L|265:207,1,40,4|4,0:3|0:3,0:0:0:0:
424,229,49814,6,0,P|477:177|416:136,1,160,4|8,0:0|0:0,0:0:0:0:
227,131,50308,2,0,L|306:134,1,80,2|4,0:0|0:3,0:0:0:0:
126,187,50638,2,0,L|124:301,1,80,2|8,0:0|0:0,0:0:0:0:
311,283,50968,6,0,P|362:258|306:201,1,160,2|0,0:0|0:0,0:0:0:0:
74,166,51462,2,0,L|162:168,1,80,8|0,0:0|0:0,0:0:0:0:
269,166,51792,2,0,L|348:165,2,80,4|2|8,0:3|0:0|0:0,0:0:0:0:
116,162,52286,2,0,L|109:232,1,40,2|0,0:0|0:0,0:0:0:0:
286,271,52451,6,0,P|364:292|416:236,1,160,2|8,0:0|0:0,0:0:0:0:
175,164,52946,2,0,L|176:62,1,80,2|4,0:0|0:3,0:0:0:0:
352,164,53275,2,0,L|431:164,1,80,2|8,0:0|0:0,0:0:0:0:
232,172,53605,1,2,0:0:0:0:
158,119,53770,5,4,0:3:0:0:
235,89,53935,1,0,0:0:0:0:
465,95,54099,2,0,P|517:160|440:190,1,160,10|4,0:0|0:3,0:0:0:0:
414,198,54511,1,0,0:0:0:0:
360,197,54594,1,0,0:0:0:0:
240,152,54759,1,10,0:0:0:0:
357,140,54924,1,0,0:0:0:0:
122,162,55088,6,0,L|30:163,2,80,4|0|8,0:0|0:0|0:0,0:0:0:0:
275,175,55583,2,0,P|340:177|378:98,1,160,2|0,0:0|0:0,0:0:0:0:
230,69,56077,2,0,L|150:73,1,80,8|0,0:0|0:0,0:0:0:0:
392,248,56407,5,4,0:3:0:0:
282,252,56572,1,2,0:0:0:0:
279,212,56654,1,2,0:0:0:0:
385,201,56737,1,8,0:0:0:0:
471,145,56902,1,2,0:0:0:0:
473,97,56984,1,2,0:0:0:0:
369,99,57066,5,4,0:3:0:0:
274,75,57231,1,2,0:0:0:0:
271,43,57314,1,2,0:0:0:0:
175,53,57396,2,0,P|165:92|176:133,1,80,8|0,0:0|0:0,0:0:0:0:
261,100,57726,6,0,L|263:52,1,40,8|4,0:3|0:3,0:0:0:0:
341,98,57891,2,0,L|339:140,1,40,8|4,0:3|0:3,0:0:0:0:
193,139,58055,2,0,P|133:126|78:167,1,120,4|0,0:0|0:0,0:0:0:0:
279,262,58385,6,0,L|338:232,1,60.0000022888184,8|4,0:3|0:3,0:0:0:0:
416,188,58550,2,0,L|349:157,1,60.0000022888184,8|4,0:3|0:3,0:0:0:0:
144,151,58715,2,0,P|122:216|171:266,1,120,4|0,0:0|0:0,0:0:0:0:
317,312,59044,6,0,L|396:315,2,80,12|12|8,0:0|0:3|0:0,0:0:0:0:
75,321,59539,2,0,P|19:267|91:248,1,160,6|4,0:0|3:0,0:0:0:0:
316,198,60033,1,8,0:0:0:0:
315,227,60116,1,8,0:0:0:0:
303,256,60198,1,8,0:0:0:0:
271,271,60281,1,8,0:0:0:0:
88,199,60363,1,8,0:0:0:0:
115,163,60446,1,8,0:3:0:0:
157,150,60528,1,8,0:3:0:0:
201,164,60610,1,4,0:3:0:0:
362,268,60693,6,0,P|301:286|232:213,1,160,4|4,0:0|0:3,0:0:0:0:
139,226,61187,1,0,0:0:0:0:
289,228,61352,1,8,0:0:0:0:
55,223,61517,6,0,L|66:339,1,80,2|4,0:0|0:3,0:0:0:0:
186,318,61847,1,2,0:0:0:0:
68,331,62011,1,8,0:0:0:0:
328,319,62176,2,0,P|367:314|412:284,1,80,2|4,0:0|0:3,0:0:0:0:
134,196,62506,1,8,0:0:0:0:
360,199,62671,2,0,L|431:198,1,71.9999978027344,8|0,0:0|0:0,0:0:0:0:
272,203,63000,6,0,P|222:217|111:197,1,160,4|8,0:0|0:0,0:0:0:0:
27,154,63495,1,2,0:0:0:0:
278,76,63660,2,0,L|371:74,2,80,4|0|8,0:3|0:0|0:0,0:0:0:0:
46,116,64154,2,0,L|142:154,1,80,2|4,0:0|0:3,0:0:0:0:
290,211,64484,6,0,P|255:190|216:183,1,80,2|8,0:0|0:0,0:0:0:0:
33,244,64814,2,0,P|71:254|109:243,1,80,2|4,0:0|0:3,0:0:0:0:
358,200,65143,1,8,0:0:0:0:
112,189,65308,1,8,0:3:0:0:
109,107,65473,1,8,0:3:0:0:
415,205,65638,6,0,P|457:161|390:88,1,160,4|8,0:0|0:0,0:0:0:0:
305,90,66132,2,0,L|387:90,1,80,2|4,0:0|0:3,0:0:0:0:
119,92,66462,1,2,0:0:0:0:
119,180,66627,1,8,0:0:0:0:
391,189,66792,6,0,P|366:151|240:133,1,160,2|0,0:0|0:0,0:0:0:0:
22,132,67286,2,0,L|33:32,1,80,8|0,0:0|0:0,0:0:0:0:
263,68,67616,2,0,L|365:68,1,80,4|0,0:3|0:0,0:0:0:0:
462,66,67946,1,8,0:0:0:0:
231,186,68110,6,0,L|77:127,1,160,2|2,0:0|0:0,0:0:0:0:
239,233,68605,2,0,P|304:249|342:235,1,80,10|0,0:0|0:0,0:0:0:0:
434,200,68935,2,0,L|524:181,2,80,6|2|8,0:3|3:0|0:0,0:0:0:0:
166,124,69429,6,0,L|334:135,1,160,2|2,0:0|0:0,0:0:0:0:
188,200,69924,1,10,0:0:0:0:
148,172,70006,1,0,0:0:0:0:
144,122,70088,1,2,0:0:0:0:
186,99,70171,1,2,0:0:0:0:
355,104,70253,1,4,0:3:0:0:
397,127,70336,1,8,0:0:0:0:
393,177,70418,1,8,0:0:0:0:
353,205,70500,1,0,0:0:0:0:
197,147,70583,2,0,L|177:77,1,40,12|0,0:3|0:0,0:0:0:0:
352,146,70748,2,0,L|368:110,1,40,12|4,0:3|0:3,0:0:0:0:
146,173,70913,6,0,L|38:174,2,80,4|2|8,0:0|0:0|0:0,0:0:0:0:
396,235,71407,2,0,P|366:201|318:175,1,80,2|4,0:0|0:3,0:0:0:0:
167,173,71737,1,2,0:0:0:0:
262,169,71902,1,8,0:0:0:0:
84,219,72066,6,0,P|122:250|180:245,1,80,2|4,0:0|0:3,0:0:0:0:
255,278,72396,1,2,0:0:0:0:
151,275,72561,1,8,0:0:0:0:
396,244,72726,2,0,L|402:129,1,80,2|4,0:0|0:3,0:0:0:0:
309,154,73055,1,2,0:0:0:0:
59,136,73220,1,8,0:0:0:0:
55,59,73385,1,2,0:0:0:0:
305,171,73550,6,0,L|405:170,1,80,4|0,0:3|0:0,0:0:0:0:
485,180,73880,1,8,0:0:0:0:
258,243,74044,2,0,P|215:177|288:104,1,160,0|2,0:0|0:0,0:0:0:0:
340,90,74539,1,8,0:0:0:0:
436,105,74704,1,2,0:0:0:0:
187,269,74869,6,0,P|98:273|81:272,1,80,4|0,0:3|0:0,0:0:0:0:
230,326,75198,1,8,0:0:0:0:
110,328,75363,1,0,0:0:0:0:
22,322,75528,1,4,0:3:0:0:
107,257,75693,1,0,0:0:0:0:
364,170,75858,1,8,0:0:0:0:
269,170,76022,1,2,0:0:0:0:
24,187,76187,6,0,L|30:287,1,80,4|0,0:0|0:0,0:0:0:0:
146,316,76517,2,0,L|225:306,1,80,8|0,0:0|0:0,0:0:0:0:
376,280,76847,2,0,P|389:243|373:192,1,80,4|2,0:3|0:0,0:0:0:0:
125,200,77176,2,0,L|33:202,1,80,8|2,0:0|0:0,0:0:0:0:
231,204,77506,6,0,L|151:201,1,80,4|2,0:3|0:0,0:0:0:0:
46,273,77836,2,0,L|126:271,1,80,8|0,0:0|0:0,0:0:0:0:
427,218,78165,2,0,L|271:210,1,120,4|2,0:3|0:0,0:0:0:0:
224,204,78495,2,0,L|303:215,1,80,8|2,0:0|0:0,0:0:0:0:
25,177,78825,6,0,L|25:66,1,80,4|0,0:0|0:0,0:0:0:0:
274,106,79154,2,0,L|273:209,1,80,8|2,0:0|0:0,0:0:0:0:
26,226,79484,2,0,L|131:221,1,80,4|0,0:0|0:0,0:0:0:0:
374,265,79814,2,0,L|268:254,1,80,8|2,0:0|0:0,0:0:0:0:
27,170,80143,6,0,L|133:160,2,80,4|4|8,0:0|0:3|0:0,0:0:0:0:
311,179,80638,2,0,P|367:136|291:99,1,160,12|4,0:0|0:3,0:0:0:0:
72,138,81132,2,0,L|66:72,1,40,8|8,0:0|0:3,0:0:0:0:
224,95,81297,2,0,L|224:161,1,40,8|8,0:0|0:3,0:0:0:0:
47,230,81462,6,0,L|205:210,1,160,4|8,0:0|0:0,0:0:0:0:
357,249,81957,1,2,0:0:0:0:
255,255,82121,1,4,0:3:0:0:
419,311,82286,2,0,L|503:294,2,80,0|8|0,0:0|0:0|0:0,0:0:0:0:
268,309,82781,6,0,L|180:313,2,80,4|0|8,0:3|0:0|0:0,0:0:0:0:
76,209,83275,2,0,L|234:188,1,160,2|4,0:0|0:3,0:0:0:0:
460,194,83770,2,0,P|495:147|451:102,1,120,4|0,0:0|0:0,0:0:0:0:
290,83,84099,6,0,P|224:124|151:98,1,160,4|8,0:0|0:0,0:0:0:0:
44,81,84594,1,2,0:0:0:0:
199,137,84759,2,0,L|297:146,1,80,4|4,0:3|0:3,0:0:0:0:
132,238,85088,2,0,L|49:244,1,80,8|0,0:0|0:0,0:0:0:0:
328,248,85418,6,0,L|423:251,2,80,4|4|8,0:0|0:3|0:0,0:0:0:0:
26,154,85913,2,0,P|100:150|185:162,1,160,4|4,0:0|0:3,0:0:0:0:
358,180,86407,2,0,L|354:292,1,80,8|0,0:0|0:0,0:0:0:0:
37,238,86737,5,4,0:0:0:0:
256,192,86902,12,0,87891,0:0:0:0:
144,186,88055,5,8,0:0:0:0:
446,183,88220,1,8,0:0:0:0:
282,195,88550,2,0,L|186:203,2,80,0|0|2,0:0|0:0|0:0,0:0:0:0:
