osu file format v14

[General]
AudioFilename: audio.mp3
AudioLeadIn: 0
PreviewTime: 38852
Countdown: 0
SampleSet: Soft
StackLeniency: 0.7
Mode: 2
LetterboxInBreaks: 0
WidescreenStoryboard: 0

[Editor]
Bookmarks: 8277,18826,29375,33661
DistanceSpacing: 1
BeatDivisor: 4
GridSize: 4
TimelineZoom: 1

[Metadata]
Title:1 - 2 - 3 (TV Size)
TitleUnicode:1・2・3(TV Size)
Artist:After the Rain
ArtistUnicode:After the Rain
Creator:Xinely
Version:Cup
Source:ポケットモンスター
Tags:1-2-3 2019 123 そらる まふまふ soraru mafumafu Pocket Monster Pokemon Pokémon ポケモン opening utaite AJamez Jemzuu Greaper rew0825 rew Daletto anime japanese op
BeatmapID:2235766
BeatmapSetID:1067920

[Difficulty]
HPDrainRate:3
CircleSize:2.7
OverallDifficulty:6
ApproachRate:6
SliderMultiplier:1.2
SliderTickRate:1

[Events]
//Background and Video events
0,0,"pokemon_bg2.jpg",0,0
//Break Periods
//Storyboard Layer 0 (Background)
//Storyboard Layer 1 (Fail)
//Storyboard Layer 2 (Pass)
//Storyboard Layer 3 (Foreground)
//Storyboard Layer 4 (Overlay)
//Storyboard Sound Samples

[TimingPoints]
699,329.67032967033,4,2,1,60,1,0
2017,-100,4,2,1,75,0,0
8611,-100,4,2,2,50,0,0
19160,-100,4,2,2,70,0,0
29709,329.67032967033,3,2,2,50,1,0
33990,329.67032967033,4,2,1,75,1,0
39264,-100,4,2,1,80,0,1
49814,-100,4,2,1,60,0,0
57726,-100,4,2,1,70,0,0
58055,-100,4,2,1,70,0,0
58385,-100,4,2,1,70,0,0
58715,-100,4,2,1,70,0,0
59044,-100,4,2,1,70,0,0
60034,-100,4,2,1,70,0,0
60693,-100,4,2,1,80,0,1
70913,-100,4,2,1,60,0,0
73880,-100,4,2,1,60,0,0
74374,-100,4,2,1,60,0,0
78825,-100,4,2,1,75,0,0
80968,-100,4,2,1,60,0,0
81132,-100,4,2,1,60,0,0
81462,-100,4,2,1,80,0,1
81544,-100,4,2,1,80,0,0
81957,-100,4,2,1,60,0,0
83770,-100,4,2,1,60,0,0
84594,-100,4,2,1,60,0,0
86737,-100,4,2,1,60,0,0
87891,-100,4,2,1,60,0,0
88385,-100,4,2,1,50,0,0

[Colours]
Combo1 : 255,205,55
Combo2 : 121,242,0
Combo3 : 81,159,255
Combo4 : 180,103,103

[HitObjects]
375,82,2017,6,0,P|393:141|363:193,1,120,4|8,0:0|0:0,0:0:0:0:
307,199,2512,2,0,P|262:182|183:198,1,120,2|2,0:0|0:0,0:0:0:0:
80,237,3171,2,0,P|118:243|203:213,1,120,2|0,0:0|0:0,0:0:0:0:
337,233,3830,2,0,P|270:198|204:202,1,120,2|2,0:0|0:0,0:0:0:0:
169,194,4325,1,8,0:0:0:0:
326,252,4655,6,0,L|460:251,1,120,4|8,0:0|0:0,0:0:0:0:
328,227,5314,2,0,L|181:231,1,120,4|4,0:3|0:3,0:0:0:0:
151,211,5808,1,10,0:0:0:0:
313,113,6138,2,0,L|316:193,1,60,10|10,0:0|0:0,0:0:0:0:
145,108,6633,2,0,L|146:170,1,60,10|10,0:0|0:0,0:0:0:0:
312,247,7127,6,0,L|431:244,2,120,10|10|10,0:0|0:0|0:0,0:0:0:0:
251,244,7951,2,0,L|120:309,1,120,8|0,0:0|0:0,0:0:0:0:
306,311,8611,6,0,L|313:191,1,120,6|6,0:0|0:3,0:0:0:0:
193,183,9270,2,0,L|188:317,1,120,4|4,0:3|0:3,0:0:0:0:
238,336,9764,2,0,P|307:306|364:298,1,120,2|0,0:0|0:0,0:0:0:0:
471,291,10424,2,0,P|447:240|391:198,1,120,2|0,0:0|0:0,0:0:0:0:
338,193,10918,1,4,0:3:0:0:
217,193,11248,6,0,L|82:194,1,120,6|6,0:3|0:3,0:0:0:0:
211,230,11907,2,0,L|345:220,1,120,6|4,0:3|0:3,0:0:0:0:
389,206,12402,2,0,P|414:156|384:99,1,120,2|2,0:0|0:0,0:0:0:0:
267,104,13061,2,0,P|242:154|272:211,1,120,2|2,0:0|0:0,0:0:0:0:
320,237,13556,1,4,0:3:0:0:
173,281,13885,6,0,L|39:279,1,120,2|4,0:0|0:3,0:0:0:0:
132,281,14380,2,0,P|219:301|281:226,1,180,2|4,0:0|0:3,0:0:0:0:
395,263,15204,2,0,L|264:238,1,120,2|4,0:0|0:3,0:0:0:0:
202,232,15699,2,0,P|264:214|386:185,1,180,2|4,0:0|0:3,0:0:0:0:
494,164,16523,6,0,L|498:286,1,120,6|6,0:3|0:3,0:0:0:0:
388,333,17182,2,0,L|328:331,2,60,6|2|6,0:3|0:0|0:3,0:0:0:0:
493,274,17841,2,0,L|467:130,1,120,6|4,0:3|0:3,0:0:0:0:
363,121,18501,2,0,L|237:124,1,120,4|4,0:3|0:3,0:0:0:0:
89,189,19160,6,0,P|151:195|213:168,1,120,4|8,0:0|0:0,0:0:0:0:
321,196,19819,2,0,L|202:178,1,120,4|8,0:3|0:0,0:0:0:0:
126,185,20314,2,0,P|189:214|226:270,1,120,2|2,0:0|0:0,0:0:0:0:
339,263,20973,2,0,L|411:163,1,120,2|2,0:0|0:0,0:0:0:0:
442,115,21468,1,8,0:0:0:0:
288,85,21797,6,0,L|160:89,1,120,4|8,0:3|0:0,0:0:0:0:
51,118,22457,2,0,L|58:243,1,120,4|8,0:3|0:0,0:0:0:0:
139,269,22951,2,0,P|225:285|271:257,1,120,2|2,0:0|0:0,0:0:0:0:
366,213,23611,1,2,0:0:0:0:
241,144,23940,1,2,0:0:0:0:
241,144,24105,1,8,0:0:0:0:
358,115,24435,6,0,L|466:175,1,120,4|8,0:3|0:0,0:0:0:0:
337,152,25094,2,0,L|253:173,1,60,4|2,0:3|0:0,0:0:0:0:
140,215,25589,2,0,P|71:224|18:126,1,180,2|8,0:0|0:0,0:0:0:0:
135,133,26413,2,0,L|131:274,1,120,4|8,0:3|0:0,0:0:0:0:
288,307,27072,6,0,L|421:293,1,120,6|8,0:0|0:0,0:0:0:0:
489,274,27567,2,0,P|486:201|450:144,1,120,2|2,0:0|0:0,0:0:0:0:
311,163,28226,2,0,P|311:106|339:33,1,120,2|2,0:0|0:0,0:0:0:0:
390,50,28720,1,10,0:0:0:0:
271,67,29050,2,0,L|142:70,1,120,4|8,0:3|0:3,0:0:0:0:
311,166,29709,6,0,P|373:239|448:153,1,240,2|2,0:0|0:0,0:0:0:0:
338,244,30698,2,0,L|218:245,2,120,2|2|2,0:0|0:0|0:0,0:0:0:0:
490,238,31687,6,0,P|512:129|410:85,1,240,2|2,0:0|0:0,0:0:0:0:
259,101,32676,2,0,P|192:190|266:273,1,240,2|0,0:0|0:0,0:0:0:0:
38,248,33990,6,0,L|44:119,1,120,4|8,0:0|0:0,0:0:0:0:
165,104,34649,2,0,P|224:109|279:88,1,120,4|8,0:3|0:0,0:0:0:0:
400,112,35308,2,0,L|277:118,1,120,2|8,0:0|0:0,0:0:0:0:
396,171,35968,2,0,L|505:110,1,120,4|4,0:3|0:3,0:0:0:0:
344,75,36627,6,0,P|274:61|206:77,1,120,4|8,0:0|0:0,0:0:0:0:
169,85,37121,2,0,L|99:90,1,60,2|8,0:0|0:0,0:0:0:0:
203,163,37616,1,8,0:0:0:0:
286,162,37781,2,0,P|308:100|277:49,1,120,6|4,0:0|0:3,0:0:0:0:
224,48,38275,2,0,L|147:63,1,60,4|4,0:3|0:3,0:0:0:0:
107,76,38605,1,12,0:0:0:0:
229,133,38935,1,6,0:0:0:0:
65,177,39264,5,6,0:0:0:0:
178,180,39594,1,4,0:0:0:0:
298,178,39924,1,4,0:0:0:0:
417,181,40253,1,8,0:0:0:0:
340,186,40418,6,0,P|319:132|356:63,1,120,2|2,0:0|0:0,0:0:0:0:
400,73,40913,2,0,L|480:75,1,60,8|2,0:0|0:0,0:0:0:0:
331,131,41407,2,0,L|267:132,1,60,8|8,0:0|0:0,0:0:0:0:
104,135,41902,5,4,0:0:0:0:
219,185,42231,1,8,0:0:0:0:
94,223,42561,1,4,0:3:0:0:
208,258,42891,1,8,0:0:0:0:
281,263,43055,6,0,P|326:283|390:245,1,120,2|2,0:0|0:0,0:0:0:0:
261,194,43715,1,2,0:0:0:0:
380,190,44044,1,8,0:0:0:0:
419,236,44209,1,4,0:3:0:0:
387,286,44374,1,2,0:0:0:0:
300,282,44539,6,0,P|231:285|281:172,1,240,4|4,0:0|0:3,0:0:0:0:
346,163,45363,1,10,0:0:0:0:
464,145,45693,2,0,L|310:261,1,180,2|8,0:0|0:0,0:0:0:0:
201,271,46517,1,6,0:3:0:0:
320,253,46847,2,0,L|314:193,1,60,8|2,0:0|0:0,0:0:0:0:
434,195,47341,6,0,L|430:119,1,60,2|10,0:0|0:0,0:0:0:0:
332,78,47836,2,0,L|210:104,1,120,4|8,0:3|0:0,0:0:0:0:
139,145,48330,2,0,P|184:166|261:188,1,120,2|2,0:0|0:0,0:0:0:0:
320,199,48825,2,0,L|436:155,2,120,8|4|4,0:0|0:3|0:3,0:0:0:0:
162,186,49814,6,0,P|100:167|67:216,1,120,4|8,0:0|0:0,0:0:0:0:
21,223,50308,1,2,0:0:0:0:
139,244,50638,1,2,0:0:0:0:
22,273,50968,1,2,0:0:0:0:
138,302,51297,2,0,L|206:314,1,60,0|8,0:0|0:0,0:0:0:0:
331,121,51957,2,0,L|396:118,2,60,2|8|2,0:0|0:0|0:0,0:0:0:0:
248,141,52451,6,0,P|225:199|250:256,1,120,2|8,0:0|0:0,0:0:0:0:
302,267,52946,2,0,L|425:264,2,120,2|2|2,0:0|0:0|0:0,0:0:0:0:
181,267,53935,2,0,L|185:207,1,60,0|10,0:0|0:0,0:0:0:0:
304,201,54429,2,0,P|262:208|180:206,1,120,4|10,0:3|0:0,0:0:0:0:
29,156,55088,6,0,L|37:287,1,120,4|8,0:0|0:0,0:0:0:0:
95,288,55583,2,0,P|161:262|273:316,1,180,2|8,0:0|0:0,0:0:0:0:
379,295,56407,2,0,L|508:289,1,120,4|8,0:3|0:0,0:0:0:0:
387,243,57066,2,0,L|254:255,1,120,4|8,0:3|0:0,0:0:0:0:
147,251,57726,1,8,0:3:0:0:
311,190,58055,5,4,0:0:0:0:
412,188,58385,1,8,0:3:0:0:
254,193,58715,1,4,0:0:0:0:
136,182,59044,5,12,0:0:0:0:
109,127,59209,1,12,0:3:0:0:
139,75,59374,1,8,0:0:0:0:
219,73,59539,2,0,P|296:31|353:101,1,180,6|8,0:0|0:0,0:0:0:0:
246,143,60363,1,8,0:0:0:0:
94,145,60693,6,0,P|43:225|56:263,1,120,4|4,0:0|0:3,0:0:0:0:
168,311,61352,1,8,0:0:0:0:
238,322,61517,2,0,L|344:250,2,120,2|2|2,0:0|0:0|0:0,0:0:0:0:
121,335,62506,2,0,L|47:331,1,60,8|8,0:0|0:0,0:0:0:0:
224,293,63000,5,4,0:0:0:0:
378,283,63495,1,2,0:0:0:0:
438,279,63660,2,0,P|458:234|435:167,1,120,4|8,0:3|0:0,0:0:0:0:
376,167,64154,2,0,L|237:174,2,120,2|2|2,0:0|0:0|0:0,0:0:0:0:
497,171,65143,2,0,L|467:300,1,120,8|8,0:0|0:3,0:0:0:0:
387,313,65638,6,0,L|253:291,1,120,4|8,0:0|0:0,0:0:0:0:
55,251,66462,1,2,0:0:0:0:
190,208,66792,2,0,P|273:163|307:230,1,180,2|8,0:0|0:0,0:0:0:0:
428,226,67616,1,4,0:3:0:0:
308,219,67946,2,0,L|233:216,1,60,8|2,0:0|0:0,0:0:0:0:
127,216,68440,5,2,0:0:0:0:
66,217,68605,2,0,P|44:268|80:344,1,120,10|6,0:0|0:3,0:0:0:0:
182,326,69264,1,8,0:0:0:0:
263,332,69429,2,0,P|322:331|374:302,1,120,2|2,0:0|0:0,0:0:0:0:
445,292,69924,2,0,P|472:239|444:184,1,120,10|4,0:0|0:3,0:0:0:0:
338,139,70583,1,12,0:3:0:0:
184,168,70913,6,0,P|106:214|4:176,1,180,4|2,0:0|0:0,0:0:0:0:
133,145,71737,2,0,L|139:220,1,60,2|8,0:0|0:0,0:0:0:0:
195,222,72066,2,0,P|252:237|316:218,1,120,2|2,0:0|0:0,0:0:0:0:
448,203,72726,2,0,P|490:163|436:63,1,180,2|8,0:0|0:0,0:0:0:0:
325,67,73550,5,4,0:3:0:0:
204,71,73880,2,0,P|149:137|221:178,1,180,8|2,0:0|0:0,0:0:0:0:
329,177,74704,2,0,P|408:141|477:191,1,180,2|8,0:0|0:0,0:0:0:0:
371,247,75528,1,4,0:3:0:0:
471,312,75858,1,8,0:0:0:0:
316,316,76187,6,0,L|312:179,1,120,4|8,0:0|0:0,0:0:0:0:
427,159,76847,2,0,L|431:296,1,120,4|8,0:3|0:0,0:0:0:0:
393,296,77341,1,8,0:0:0:0:
344,313,77506,2,0,P|265:347|223:347,1,120,2|2,0:0|0:0,0:0:0:0:
106,223,78165,2,0,L|105:349,1,120,4|8,0:3|0:0,0:0:0:0:
268,333,78825,6,0,L|275:203,1,120,4|8,0:0|0:0,0:0:0:0:
419,114,79484,2,0,L|435:245,1,120,4|8,0:0|0:0,0:0:0:0:
370,252,79979,1,2,0:0:0:0:
288,255,80143,2,0,P|260:325|281:368,1,120,4|8,0:0|0:0,0:0:0:0:
359,353,80638,1,12,0:0:0:0:
228,150,81132,1,8,0:0:0:0:
400,206,81462,6,0,P|378:144|222:162,1,240,4|4,0:0|0:3,0:0:0:0:
117,196,82451,1,8,0:0:0:0:
235,214,82781,2,0,L|353:252,1,120,4|8,0:3|0:0,0:0:0:0:
405,269,83275,2,0,P|430:212|401:149,1,120,2|4,0:0|0:3,0:0:0:0:
327,158,83770,1,4,0:0:0:0:
161,158,84099,6,0,P|82:112|174:29,1,240,4|4,0:0|0:3,0:0:0:0:
274,29,85088,1,8,0:0:0:0:
431,99,85418,2,0,L|431:233,1,120,4|8,0:0|0:0,0:0:0:0:
318,263,85913,2,0,P|214:262|193:192,1,180,4|8,0:0|0:0,0:0:0:0:
348,263,86737,6,0,P|453:258|309:101,1,480,4|8,0:0|0:0,0:0:0:0:
208,125,88220,1,8,0:0:0:0:
311,174,88550,2,0,L|312:245,2,60,0|0|2,0:0|0:0|0:0,0:0:0:0:
