osu file format v14

[General]
AudioFilename: Pink.mp3
AudioLeadIn: 0
PreviewTime: -1
Countdown: 0
SampleSet: Normal
StackLeniency: 0.7
Mode: 3
LetterboxInBreaks: 0
SpecialStyle: 0
WidescreenStoryboard: 1

[Editor]
Bookmarks: 16760,24760,32760,33260,44760,48760,64760,66760,74760,82760,90760,102760,106760,122760,124760,132760,134760,140260,140760,148760,154010,156760,172510,172760,176760,178135,266599
DistanceSpacing: 0.8
BeatDivisor: 4
GridSize: 16
TimelineZoom: 1.8

[Metadata]
Title:After The Rain packs v2
TitleUnicode:After The Rain packs v2
Artist:After The Rain
ArtistUnicode:クロックワーク・プラネット
Creator:Noch Einen
Version:Uratanuki - Pink
Source:
Tags:
BeatmapID:1951968
BeatmapSetID:934992

[Difficulty]
HPDrainRate:8
CircleSize:4
OverallDifficulty:8
ApproachRate:5
SliderMultiplier:1.4
SliderTickRate:1

[Events]
//Background and Video events
0,0,"Greenlights Serenade.jpg",0,0
//Break Periods
//Storyboard Layer 0 (Background)
//Storyboard Layer 1 (Fail)
//Storyboard Layer 2 (Pass)
//Storyboard Layer 3 (Foreground)
//Storyboard Sound Samples

[TimingPoints]
760,500,4,1,0,0,1,0
8760,500,4,1,0,0,1,0
16635,-117.647058823529,4,1,0,0,0,0
17260,-133.333333333333,4,1,0,0,0,0
18760,-33.3333333333333,4,1,0,0,0,0
18820,-133.333333333333,4,1,0,0,0,0
19135,-33.3333333333333,4,1,0,0,0,0
19195,-133.333333333333,4,1,0,0,0,0
19510,-33.3333333333333,4,1,0,0,0,0
19570,-133.333333333333,4,1,0,0,0,0
20010,-40,4,1,0,0,0,0
20070,-133.333333333333,4,1,0,0,0,0
20260,-117.647058823529,4,1,0,0,0,0
21010,-133.333333333333,4,1,0,0,0,0
22760,-33.3333333333333,4,1,0,0,0,0
22820,-133.333333333333,4,1,0,0,0,0
23135,-33.3333333333333,4,1,0,0,0,0
23195,-133.333333333333,4,1,0,0,0,0
23510,-33.3333333333333,4,1,0,0,0,0
23570,-133.333333333333,4,1,0,0,0,0
24010,-40,4,1,0,0,0,0
24070,-133.333333333333,4,1,0,0,0,0
24260,-117.647058823529,4,1,0,0,0,0
24635,-285.714285714283,4,1,0,0,0,0
24728,-33.3333333333333,4,1,0,0,0,0
24760,-100,4,1,0,0,0,0
25510,-285.714285714283,4,1,0,0,0,0
25697,-33.3333333333333,4,1,0,0,0,0
25760,-100,4,1,0,0,0,0
26010,-285.714285714283,4,1,0,0,0,0
26197,-33.3333333333333,4,1,0,0,0,0
26260,-100,4,1,0,0,0,0
26510,-285.714285714283,4,1,0,0,0,0
26697,-33.3333333333333,4,1,0,0,0,0
26760,-100,4,1,0,0,0,0
27510,-285.714285714283,4,1,0,0,0,0
27697,-33.3333333333333,4,1,0,0,0,0
27760,-100,4,1,0,0,0,0
28010,-285.714285714283,4,1,0,0,0,0
28197,-33.3333333333333,4,1,0,0,0,0
28260,-100,4,1,0,0,0,0
28510,-285.714285714283,4,1,0,0,0,0
28697,-33.3333333333333,4,1,0,0,0,0
28760,-100,4,1,0,0,0,0
29510,-285.714285714283,4,1,0,0,0,0
29697,-33.3333333333333,4,1,0,0,0,0
29760,-100,4,1,0,0,0,0
30010,-285.714285714283,4,1,0,0,0,0
30197,-33.3333333333333,4,1,0,0,0,0
30260,-100,4,1,0,0,0,0
30510,-285.714285714283,4,1,0,0,0,0
30697,-33.3333333333333,4,1,0,0,0,0
30760,-100,4,1,0,0,0,0
31510,-285.714285714283,4,1,0,0,0,0
31697,-33.3333333333333,4,1,0,0,0,0
31760,-100,4,1,0,0,0,0
32010,-285.714285714283,4,1,0,0,0,0
32197,-33.3333333333333,4,1,0,0,0,0
32260,-100,4,1,0,0,0,0
32510,-50,4,1,0,0,0,0
32541,-285.714285714283,4,1,0,0,0,0
32572,-50,4,1,0,0,0,0
32603,-285.714285714283,4,1,0,0,0,0
32635,-50,4,1,0,0,0,0
32666,-285.714285714283,4,1,0,0,0,0
32697,-50,4,1,0,0,0,0
32728,-285.714285714283,4,1,0,0,0,0
32760,-10,4,1,0,0,0,0
32822,-1000,4,1,0,0,0,0
32885,-200,4,1,0,0,0,0
33135,-100,4,1,0,0,0,0
33260,-14.2857142857143,4,1,0,0,0,0
33385,-100,4,1,0,0,0,0
36760,-10,4,1,0,0,0,0
36822,-1000,4,1,0,0,0,0
36885,-200,4,1,0,0,0,0
37135,-100,4,1,0,0,0,0
37260,-14.2857142857143,4,1,0,0,0,0
37385,-100,4,1,0,0,0,0
40760,-10,4,1,0,0,0,0
40822,-1000,4,1,0,0,0,0
40885,-200,4,1,0,0,0,0
41135,-100,4,1,0,0,0,0
41260,-14.2857142857143,4,1,0,0,0,0
41385,-100,4,1,0,0,0,0
44760,-40,4,1,0,0,0,0
44791,-100,4,1,0,0,0,0
45010,-40,4,1,0,0,0,0
45041,-500,4,1,0,0,0,0
45103,-100,4,1,0,0,0,0
45260,-40,4,1,0,0,0,0
45291,-500,4,1,0,0,0,0
45353,-100,4,1,0,0,0,0
45510,-40,4,1,0,0,0,0
45541,-500,4,1,0,0,0,0
45603,-100,4,1,0,0,0,0
45760,-40,4,1,0,0,0,0
45791,-500,4,1,0,0,0,0
45853,-100,4,1,0,0,0,0
46010,-40,4,1,0,0,0,0
46041,-500,4,1,0,0,0,0
46103,-100,4,1,0,0,0,0
46260,-40,4,1,0,0,0,0
46291,-500,4,1,0,0,0,0
46353,-100,4,1,0,0,0,0
46510,-40,4,1,0,0,0,0
46541,-500,4,1,0,0,0,0
46603,-100,4,1,0,0,0,0
46760,-58.8235294117647,4,1,0,0,0,0
46822,-285.714285714286,4,1,0,0,0,0
46885,-58.8235294117647,4,1,0,0,0,0
46947,-285.714285714286,4,1,0,0,0,0
47010,-58.8235294117647,4,1,0,0,0,0
47072,-285.714285714286,4,1,0,0,0,0
47135,-58.8235294117647,4,1,0,0,0,0
47197,-285.714285714286,4,1,0,0,0,0
47260,-58.8235294117647,4,1,0,0,0,0
47322,-285.714285714286,4,1,0,0,0,0
47385,-58.8235294117647,4,1,0,0,0,0
47447,-285.714285714286,4,1,0,0,0,0
47510,-58.8235294117647,4,1,0,0,0,0
47572,-285.714285714286,4,1,0,0,0,0
47635,-58.8235294117647,4,1,0,0,0,0
47697,-285.714285714286,4,1,0,0,0,0
47760,-58.8235294117647,4,1,0,0,0,0
47822,-285.714285714286,4,1,0,0,0,0
47885,-100,4,1,0,0,0,0
48197,-10,4,1,0,0,0,0
48385,-1000,4,1,0,0,0,0
48635,-100,4,1,0,0,0,0
48760,-100,4,1,0,0,0,1
49260,-62.5,4,1,0,0,0,1
49322,-100,4,1,0,0,0,1
50260,-62.5,4,1,0,0,0,1
50322,-100,4,1,0,0,0,1
51260,-62.5,4,1,0,0,0,1
51322,-100,4,1,0,0,0,1
52260,-62.5,4,1,0,0,0,1
52322,-100,4,1,0,0,0,1
53260,-62.5,4,1,0,0,0,1
53322,-100,4,1,0,0,0,1
54260,-62.5,4,1,0,0,0,1
54322,-100,4,1,0,0,0,1
55260,-62.5,4,1,0,0,0,1
55322,-100,4,1,0,0,0,1
56010,-62.5,4,1,0,0,0,1
56072,-100,4,1,0,0,0,1
56260,-62.5,4,1,0,0,0,1
56322,-250,4,1,0,0,0,1
56385,-62.5,4,1,0,0,0,1
56447,-250,4,1,0,0,0,1
56510,-62.5,4,1,0,0,0,1
56572,-250,4,1,0,0,0,1
56635,-62.5,4,1,0,0,0,1
56697,-250,4,1,0,0,0,1
56760,-55.5555555555556,4,1,0,0,0,1
56822,-100,4,1,0,0,0,1
57260,-62.5,4,1,0,0,0,1
57322,-100,4,1,0,0,0,1
58260,-62.5,4,1,0,0,0,1
58322,-100,4,1,0,0,0,1
59260,-62.5,4,1,0,0,0,1
59322,-100,4,1,0,0,0,1
60260,-62.5,4,1,0,0,0,1
60322,-100,4,1,0,0,0,1
61260,-62.5,4,1,0,0,0,1
61322,-100,4,1,0,0,0,1
62260,-62.5,4,1,0,0,0,1
62322,-100,4,1,0,0,0,1
63260,-62.5,4,1,0,0,0,1
63322,-100,4,1,0,0,0,1
64010,-62.5,4,1,0,0,0,1
64072,-250,4,1,0,0,0,1
64135,-62.5,4,1,0,0,0,1
64197,-250,4,1,0,0,0,1
64260,-62.5,4,1,0,0,0,1
64322,-250,4,1,0,0,0,1
64385,-62.5,4,1,0,0,0,1
64447,-250,4,1,0,0,0,1
64510,-62.5,4,1,0,0,0,1
64572,-250,4,1,0,0,0,1
64635,-62.5,4,1,0,0,0,1
64697,-250,4,1,0,0,0,1
64760,-33.3333333333333,4,1,0,0,0,0
64822,-133.333333333333,4,1,0,0,0,0
64885,-100,4,1,0,0,0,0
65135,-33.3333333333333,4,1,0,0,0,0
65197,-133.333333333333,4,1,0,0,0,0
65260,-100,4,1,0,0,0,0
65510,-33.3333333333333,4,1,0,0,0,0
65572,-133.333333333333,4,1,0,0,0,0
65635,-100,4,1,0,0,0,0
66260,-83.3333333333333,4,1,0,0,0,0
66385,-133.333333333333,4,1,0,0,0,0
66697,-58.8235294117647,4,1,0,0,0,0
66760,-100,4,1,0,0,0,0
74760,-19.4931773879142,4,1,0,0,0,0
74822,-370.37037037037,4,1,0,0,0,0
75260,-19.4931773879142,4,1,0,0,0,0
75322,-370.37037037037,4,1,0,0,0,0
75760,-19.4931773879142,4,1,0,0,0,0
75822,-370.37037037037,4,1,0,0,0,0
76260,-19.4931773879142,4,1,0,0,0,0
76322,-370.37037037037,4,1,0,0,0,0
76760,-19.4931773879142,4,1,0,0,0,0
76820,-370.37037037037,4,1,0,0,0,0
77260,-19.4931773879142,4,1,0,0,0,0
77322,-370.37037037037,4,1,0,0,0,0
77760,-19.4931773879142,4,1,0,0,0,0
77822,-370.37037037037,4,1,0,0,0,0
78260,-66.6666666666667,4,1,0,0,0,0
78385,-117.647058823529,4,1,0,0,0,0
78760,-19.4931773879142,4,1,0,0,0,0
78822,-370.37037037037,4,1,0,0,0,0
79260,-19.4931773879142,4,1,0,0,0,0
79322,-370.37037037037,4,1,0,0,0,0
79760,-19.4931773879142,4,1,0,0,0,0
79822,-370.37037037037,4,1,0,0,0,0
80260,-19.4931773879142,4,1,0,0,0,0
80322,-370.37037037037,4,1,0,0,0,0
80760,-19.3423597678917,4,1,0,0,0,0
80820,-370.37037037037,4,1,0,0,0,0
81260,-19.4931773879142,4,1,0,0,0,0
81322,-370.37037037037,4,1,0,0,0,0
81760,-19.4931773879142,4,1,0,0,0,0
81822,-370.37037037037,4,1,0,0,0,0
82260,-66.6666666666667,4,1,0,0,0,0
82385,-117.647058823529,4,1,0,0,0,0
82760,-100,4,1,0,0,0,0
83510,-285.714285714283,4,1,0,0,0,0
83697,-33.3333333333333,4,1,0,0,0,0
83760,-100,4,1,0,0,0,0
84010,-285.714285714283,4,1,0,0,0,0
84197,-33.3333333333333,4,1,0,0,0,0
84260,-100,4,1,0,0,0,0
84510,-285.714285714283,4,1,0,0,0,0
84697,-33.3333333333333,4,1,0,0,0,0
84760,-100,4,1,0,0,0,0
85510,-285.714285714283,4,1,0,0,0,0
85697,-33.3333333333333,4,1,0,0,0,0
85760,-100,4,1,0,0,0,0
86010,-285.714285714283,4,1,0,0,0,0
86197,-33.3333333333333,4,1,0,0,0,0
86260,-100,4,1,0,0,0,0
86510,-285.714285714283,4,1,0,0,0,0
86697,-33.3333333333333,4,1,0,0,0,0
86760,-100,4,1,0,0,0,0
87510,-285.714285714283,4,1,0,0,0,0
87697,-33.3333333333333,4,1,0,0,0,0
87760,-100,4,1,0,0,0,0
88010,-285.714285714283,4,1,0,0,0,0
88197,-33.3333333333333,4,1,0,0,0,0
88260,-100,4,1,0,0,0,0
88510,-285.714285714283,4,1,0,0,0,0
88697,-33.3333333333333,4,1,0,0,0,0
88760,-100,4,1,0,0,0,0
89510,-285.714285714283,4,1,0,0,0,0
89697,-33.3333333333333,4,1,0,0,0,0
89760,-100,4,1,0,0,0,0
90010,-285.714285714283,4,1,0,0,0,0
90197,-33.3333333333333,4,1,0,0,0,0
90260,-100,4,1,0,0,0,0
90510,-50,4,1,0,0,0,0
90541,-285.714285714283,4,1,0,0,0,0
90572,-50,4,1,0,0,0,0
90603,-285.714285714283,4,1,0,0,0,0
90635,-50,4,1,0,0,0,0
90666,-285.714285714283,4,1,0,0,0,0
90697,-50,4,1,0,0,0,0
90728,-285.714285714283,4,1,0,0,0,0
90760,-60.6060606060606,4,1,0,0,0,0
90822,-100,4,1,0,0,0,0
91760,-60.6060606060606,4,1,0,0,0,0
91822,-100,4,1,0,0,0,0
92135,-74.0740740740741,4,1,0,0,0,0
92197,-100,4,1,0,0,0,0
92510,-60.6060606060606,4,1,0,0,0,0
92572,-100,4,1,0,0,0,0
93010,-60.6060606060606,4,1,0,0,0,0
93072,-100,4,1,0,0,0,0
93760,-60.6060606060606,4,1,0,0,0,0
93822,-100,4,1,0,0,0,0
94260,-60.6060606060606,4,1,0,0,0,0
94322,-100,4,1,0,0,0,0
94760,-60.6060606060606,4,1,0,0,0,0
94822,-100,4,1,0,0,0,0
95760,-60.6060606060606,4,1,0,0,0,0
95822,-100,4,1,0,0,0,0
96135,-74.0740740740741,4,1,0,0,0,0
96197,-100,4,1,0,0,0,0
96510,-60.6060606060606,4,1,0,0,0,0
96572,-100,4,1,0,0,0,0
97010,-60.6060606060606,4,1,0,0,0,0
97072,-100,4,1,0,0,0,0
97760,-60.6060606060606,4,1,0,0,0,0
97822,-100,4,1,0,0,0,0
98010,-60.6060606060606,4,1,0,0,0,0
98072,-142.857142857143,4,1,0,0,0,0
98135,-60.6060606060606,4,1,0,0,0,0
98197,-142.857142857143,4,1,0,0,0,0
98260,-60.6060606060606,4,1,0,0,0,0
98322,-100,4,1,0,0,0,0
98510,-60.6060606060606,4,1,0,0,0,0
98572,-100,4,1,0,0,0,0
98760,-60.6060606060606,4,1,0,0,0,0
98822,-100,4,1,0,0,0,0
99760,-60.6060606060606,4,1,0,0,0,0
99822,-100,4,1,0,0,0,0
100135,-74.0740740740741,4,1,0,0,0,0
100197,-100,4,1,0,0,0,0
100510,-60.6060606060606,4,1,0,0,0,0
100572,-100,4,1,0,0,0,0
101010,-60.6060606060606,4,1,0,0,0,0
101072,-100,4,1,0,0,0,0
101760,-60.6060606060606,4,1,0,0,0,0
101822,-100,4,1,0,0,0,0
102260,-60.6060606060606,4,1,0,0,0,0
102322,-100,4,1,0,0,0,0
102760,-40,4,1,0,0,0,0
102791,-100,4,1,0,0,0,0
103010,-40,4,1,0,0,0,0
103041,-500,4,1,0,0,0,0
103103,-100,4,1,0,0,0,0
103260,-40,4,1,0,0,0,0
103291,-500,4,1,0,0,0,0
103353,-100,4,1,0,0,0,0
103510,-40,4,1,0,0,0,0
103541,-500,4,1,0,0,0,0
103603,-100,4,1,0,0,0,0
103760,-40,4,1,0,0,0,0
103791,-500,4,1,0,0,0,0
103853,-100,4,1,0,0,0,0
104010,-40,4,1,0,0,0,0
104041,-500,4,1,0,0,0,0
104103,-100,4,1,0,0,0,0
104260,-40,4,1,0,0,0,0
104291,-500,4,1,0,0,0,0
104353,-100,4,1,0,0,0,0
104510,-40,4,1,0,0,0,0
104541,-500,4,1,0,0,0,0
104603,-100,4,1,0,0,0,0
104760,-35.7142857142857,4,1,0,0,0,0
104885,-500,4,1,0,0,0,0
105135,-35.7142857142857,4,1,0,0,0,0
105260,-500,4,1,0,0,0,0
105510,-40,4,1,0,0,0,0
105572,-500,4,1,0,0,0,0
105760,-40,4,1,0,0,0,0
105822,-333.333333333333,4,1,0,0,0,0
106010,-62.5,4,1,0,0,0,0
106072,-153.846153846154,4,1,0,0,0,0
106135,-62.5,4,1,0,0,0,0
106197,-153.846153846154,4,1,0,0,0,0
106260,-62.5,4,1,0,0,0,0
106322,-153.846153846154,4,1,0,0,0,0
106385,-62.5,4,1,0,0,0,0
106447,-153.846153846154,4,1,0,0,0,0
106510,-62.5,4,1,0,0,0,0
106572,-400.000000000002,4,1,0,0,0,0
106697,-66.6666666666667,4,1,0,0,0,0
106760,-100,4,1,0,0,0,1
107260,-62.5,4,1,0,0,0,1
107322,-100,4,1,0,0,0,1
108260,-62.5,4,1,0,0,0,1
108322,-100,4,1,0,0,0,1
109260,-62.5,4,1,0,0,0,1
109322,-100,4,1,0,0,0,1
110260,-62.5,4,1,0,0,0,1
110322,-100,4,1,0,0,0,1
111260,-62.5,4,1,0,0,0,1
111322,-100,4,1,0,0,0,1
112260,-62.5,4,1,0,0,0,1
112322,-100,4,1,0,0,0,1
113260,-62.5,4,1,0,0,0,1
113322,-100,4,1,0,0,0,1
114010,-71.4285714285714,4,1,0,0,0,1
114072,-100,4,1,0,0,0,1
114260,-62.5,4,1,0,0,0,1
114322,-250,4,1,0,0,0,1
114385,-62.5,4,1,0,0,0,1
114447,-250,4,1,0,0,0,1
114510,-62.5,4,1,0,0,0,1
114572,-250,4,1,0,0,0,1
114635,-62.5,4,1,0,0,0,1
114697,-250,4,1,0,0,0,1
114760,-55.5555555555556,4,1,0,0,0,1
114822,-100,4,1,0,0,0,1
115260,-62.5,4,1,0,0,0,1
115322,-100,4,1,0,0,0,1
116260,-62.5,4,1,0,0,0,1
116322,-100,4,1,0,0,0,1
117260,-62.5,4,1,0,0,0,1
117322,-100,4,1,0,0,0,1
118260,-62.5,4,1,0,0,0,1
118322,-100,4,1,0,0,0,1
119260,-62.5,4,1,0,0,0,1
119322,-100,4,1,0,0,0,1
120260,-62.5,4,1,0,0,0,1
120322,-100,4,1,0,0,0,1
121260,-62.5,4,1,0,0,0,1
121322,-100,4,1,0,0,0,1
122010,-62.5,4,1,0,0,0,1
122072,-250,4,1,0,0,0,1
122135,-62.5,4,1,0,0,0,1
122197,-250,4,1,0,0,0,1
122260,-62.5,4,1,0,0,0,1
122322,-250,4,1,0,0,0,1
122385,-62.5,4,1,0,0,0,1
122447,-250,4,1,0,0,0,1
122510,-62.5,4,1,0,0,0,1
122572,-250,4,1,0,0,0,1
122635,-62.5,4,1,0,0,0,1
122697,-250,4,1,0,0,0,1
122760,-33.3333333333333,4,1,0,0,0,0
122820,-133.333333333333,4,1,0,0,0,0
123135,-33.3333333333333,4,1,0,0,0,0
123195,-133.333333333333,4,1,0,0,0,0
123510,-33.3333333333333,4,1,0,0,0,0
123570,-133.333333333333,4,1,0,0,0,0
124010,-10000,4,1,0,0,0,0
124260,-400,4,1,0,0,0,0
124510,-200,4,1,0,0,0,0
124676,-83.3333333333333,4,1,0,0,0,0
124760,-100,4,1,0,0,0,0
140260,-62.5,4,1,0,0,0,0
140291,-285.714285714286,4,1,0,0,0,0
140322,-62.5,4,1,0,0,0,0
140353,-285.714285714286,4,1,0,0,0,0
140385,-62.5,4,1,0,0,0,0
140447,-285.714285714286,4,1,0,0,0,0
140510,-71.4285714285714,4,1,0,0,0,0
140572,-285.714285714286,4,1,0,0,0,0
140635,-71.4285714285714,4,1,0,0,0,0
140697,-285.714285714286,4,1,0,0,0,0
140760,-117.647058823529,4,1,0,0,0,0
148760,-100,4,1,0,0,0,0
155760,-25,4,1,0,0,0,0
156010,-1000,4,1,0,0,0,0
156260,-37.037037037037,4,1,0,0,0,0
156322,-1000,4,1,0,0,0,0
156510,-41.6666666666667,4,1,0,0,0,0
156572,-250,4,1,0,0,0,0
156760,-100,4,1,0,0,0,1
157260,-62.5,4,1,0,0,0,1
157322,-100,4,1,0,0,0,1
158260,-62.5,4,1,0,0,0,1
158322,-100,4,1,0,0,0,1
159260,-62.5,4,1,0,0,0,1
159322,-100,4,1,0,0,0,1
160260,-62.5,4,1,0,0,0,1
160322,-100,4,1,0,0,0,1
161260,-62.5,4,1,0,0,0,1
161322,-100,4,1,0,0,0,1
162260,-62.5,4,1,0,0,0,1
162322,-100,4,1,0,0,0,1
163260,-62.5,4,1,0,0,0,1
163322,-100,4,1,0,0,0,1
164010,-62.5,4,1,0,0,0,1
164072,-100,4,1,0,0,0,1
164260,-62.5,4,1,0,0,0,1
164322,-250,4,1,0,0,0,1
164385,-62.5,4,1,0,0,0,1
164447,-250,4,1,0,0,0,1
164510,-62.5,4,1,0,0,0,1
164572,-250,4,1,0,0,0,1
164635,-62.5,4,1,0,0,0,1
164697,-250,4,1,0,0,0,1
164760,-55.5555555555556,4,1,0,0,0,1
164822,-100,4,1,0,0,0,1
165260,-62.5,4,1,0,0,0,1
165322,-100,4,1,0,0,0,1
166260,-62.5,4,1,0,0,0,1
166322,-100,4,1,0,0,0,1
167260,-62.5,4,1,0,0,0,1
167322,-100,4,1,0,0,0,1
168260,-62.5,4,1,0,0,0,1
168322,-100,4,1,0,0,0,1
169260,-62.5,4,1,0,0,0,1
169322,-100,4,1,0,0,0,1
170260,-62.5,4,1,0,0,0,1
170322,-100,4,1,0,0,0,1
171260,-62.5,4,1,0,0,0,1
171322,-100,4,1,0,0,0,1
172510,-100,4,1,0,0,0,0
172760,-100,4,1,0,0,0,1
175760,-62.5,4,1,0,0,0,1
175822,-153.846153846154,4,1,0,0,0,1
175885,-62.5,4,1,0,0,0,1
175947,-153.846153846154,4,1,0,0,0,1
176010,-62.5,4,1,0,0,0,1
176072,-153.846153846154,4,1,0,0,0,1
176135,-62.5,4,1,0,0,0,1
176197,-153.846153846154,4,1,0,0,0,1
176260,-62.5,4,1,0,0,0,1
176291,-153.846153846154,4,1,0,0,0,1
176322,-62.5,4,1,0,0,0,1
176353,-153.846153846154,4,1,0,0,0,1
176385,-62.5,4,1,0,0,0,1
176416,-153.846153846154,4,1,0,0,0,1
176447,-62.5,4,1,0,0,0,1
176478,-153.846153846154,4,1,0,0,0,1
176510,-62.5,4,1,0,0,0,1
176541,-153.846153846154,4,1,0,0,0,1
176572,-62.5,4,1,0,0,0,1
176603,-153.846153846154,4,1,0,0,0,1
176635,-62.5,4,1,0,0,0,1
176666,-153.846153846154,4,1,0,0,0,1
176697,-62.5,4,1,0,0,0,1
176728,-153.846153846154,4,1,0,0,0,1
176760,-33.3333333333333,4,1,0,0,0,0
176820,-133.333333333333,4,1,0,0,0,0
177135,-33.3333333333333,4,1,0,0,0,0
177195,-133.333333333333,4,1,0,0,0,0
177510,-33.3333333333333,4,1,0,0,0,0
177570,-133.333333333333,4,1,0,0,0,0

[Colours]
Combo1 : 240,5,5
Combo2 : 5,240,5
Combo3 : 5,5,240

[HitObjects]
64,192,760,128,0,1135:0:0:0:0:
448,192,760,128,0,1135:0:0:0:0:
64,192,1760,128,0,2010:0:0:0:0:
448,192,1760,128,0,2010:0:0:0:0:
64,192,2135,128,0,2385:0:0:0:0:
448,192,2135,128,0,2385:0:0:0:0:
64,192,2760,128,0,3010:0:0:0:0:
448,192,2760,128,0,3010:0:0:0:0:
64,192,3760,128,0,4010:0:0:0:0:
448,192,3760,128,0,4010:0:0:0:0:
64,192,4135,128,0,4385:0:0:0:0:
448,192,4135,128,0,4385:0:0:0:0:
64,192,4760,128,0,5010:0:0:0:0:
448,192,4760,128,0,5010:0:0:0:0:
64,192,5760,128,0,6010:0:0:0:0:
448,192,5760,128,0,6010:0:0:0:0:
64,192,6135,128,0,6385:0:0:0:0:
448,192,6135,128,0,6385:0:0:0:0:
64,192,6760,128,0,7010:0:0:0:0:
448,192,6760,128,0,7010:0:0:0:0:
64,192,7760,128,0,8010:0:0:0:0:
448,192,7760,128,0,8010:0:0:0:0:
64,192,8135,128,0,8385:0:0:0:0:
448,192,8135,128,0,8385:0:0:0:0:
320,192,8385,1,0,0:0:0:0:
192,192,8416,1,0,0:0:0:0:
64,192,8510,1,0,0:0:0:0:
192,192,8760,1,0,0:0:0:0:
448,192,8760,1,0,0:0:0:0:
320,192,8885,1,0,0:0:0:0:
192,192,9010,1,0,0:0:0:0:
320,192,9260,1,0,0:0:0:0:
64,192,9260,1,0,0:0:0:0:
448,192,9385,1,0,0:0:0:0:
64,192,9510,1,0,0:0:0:0:
320,192,9635,1,0,0:0:0:0:
448,192,9635,128,0,10010:0:0:0:0:
192,192,9760,1,0,0:0:0:0:
320,192,10010,1,0,0:0:0:0:
192,192,10010,128,0,10260:0:0:0:0:
64,192,10135,1,0,0:0:0:0:
448,192,10260,1,0,0:0:0:0:
320,192,10260,128,0,10510:0:0:0:0:
64,192,10385,1,0,0:0:0:0:
192,192,10510,128,0,10760:0:0:0:0:
448,192,10760,1,0,0:0:0:0:
64,192,10760,1,0,0:0:0:0:
192,192,10885,1,0,0:0:0:0:
320,192,11010,1,0,0:0:0:0:
448,192,11010,1,0,0:0:0:0:
64,192,11260,1,0,0:0:0:0:
192,192,11260,1,0,0:0:0:0:
320,192,11385,1,0,0:0:0:0:
448,192,11510,1,0,0:0:0:0:
64,192,11635,128,0,12010:0:0:0:0:
192,192,11635,1,0,0:0:0:0:
448,192,11760,1,0,0:0:0:0:
192,192,11885,1,0,0:0:0:0:
320,192,11885,1,0,0:0:0:0:
192,192,12010,128,0,12260:0:0:0:0:
320,192,12010,1,0,0:0:0:0:
448,192,12260,1,0,0:0:0:0:
64,192,12260,128,0,12510:0:0:0:0:
448,192,12510,1,0,0:0:0:0:
320,192,12572,1,0,0:0:0:0:
192,192,12635,1,0,0:0:0:0:
64,192,12697,1,0,0:0:0:0:
448,192,12760,1,0,0:0:0:0:
320,192,12760,1,0,0:0:0:0:
64,192,12885,1,0,0:0:0:0:
192,192,13010,1,0,0:0:0:0:
320,192,13260,1,0,0:0:0:0:
64,192,13260,1,0,0:0:0:0:
448,192,13385,1,0,0:0:0:0:
64,192,13510,1,0,0:0:0:0:
448,192,13635,128,0,14010:0:0:0:0:
320,192,13635,1,0,0:0:0:0:
192,192,13760,1,0,0:0:0:0:
64,192,14010,128,0,14260:0:0:0:0:
192,192,14010,1,0,0:0:0:0:
320,192,14135,1,0,0:0:0:0:
448,192,14260,1,0,0:0:0:0:
192,192,14260,128,0,14510:0:0:0:0:
320,192,14510,128,0,14760:0:0:0:0:
448,192,14760,1,0,0:0:0:0:
64,192,14760,128,0,14885:0:0:0:0:
192,192,14885,128,0,15010:0:0:0:0:
320,192,15010,1,0,0:0:0:0:
448,192,15010,128,0,15260:0:0:0:0:
64,192,15260,1,0,0:0:0:0:
192,192,15260,1,0,0:0:0:0:
320,192,15385,1,0,0:0:0:0:
448,192,15510,1,0,0:0:0:0:
64,192,15635,128,0,16010:0:0:0:0:
192,192,15635,1,0,0:0:0:0:
448,192,15760,1,0,0:0:0:0:
192,192,15885,1,0,0:0:0:0:
320,192,15885,1,0,0:0:0:0:
192,192,16010,128,0,16260:0:0:0:0:
320,192,16010,1,0,0:0:0:0:
64,192,16260,1,0,0:0:0:0:
448,192,16260,128,0,16635:0:0:0:0:
320,192,16510,1,0,0:0:0:0:
192,192,16635,128,0,17260:0:0:0:0:
64,192,17010,128,0,18760:0:0:0:0:
320,192,18760,128,0,18822:0:0:0:0:
448,192,18760,128,0,18822:0:0:0:0:
320,192,19135,128,0,19197:0:0:0:0:
448,192,19135,128,0,19197:0:0:0:0:
320,192,19510,128,0,19572:0:0:0:0:
448,192,19510,128,0,19572:0:0:0:0:
320,192,20010,128,0,20072:0:0:0:0:
448,192,20010,128,0,20072:0:0:0:0:
192,192,20197,128,0,20260:0:0:0:0:
64,192,20260,128,0,21010:0:0:0:0:
320,192,20697,128,0,20760:0:0:0:0:
448,192,20760,128,0,22760:0:0:0:0:
192,192,22760,128,0,22822:0:0:0:0:
64,192,22760,128,0,22822:0:0:0:0:
192,192,23135,128,0,23197:0:0:0:0:
64,192,23135,128,0,23197:0:0:0:0:
192,192,23510,128,0,23572:0:0:0:0:
64,192,23510,128,0,23572:0:0:0:0:
192,192,24010,128,0,24072:0:0:0:0:
64,192,24010,128,0,24072:0:0:0:0:
320,192,24197,128,0,24260:0:0:0:0:
448,192,24260,128,0,24760:0:0:0:0:
64,192,24760,1,0,0:0:0:0:
192,192,24760,1,0,0:0:0:0:
320,192,24760,1,0,0:0:0:0:
448,192,25010,128,0,25260:0:0:0:0:
320,192,25135,1,0,0:0:0:0:
192,192,25260,1,0,0:0:0:0:
64,192,25260,1,0,0:0:0:0:
320,192,25510,128,0,25760:0:0:0:0:
192,192,25510,1,0,0:0:0:0:
64,192,25760,1,0,0:0:0:0:
448,192,25760,1,0,0:0:0:0:
192,192,26010,128,0,26260:0:0:0:0:
320,192,26010,1,0,0:0:0:0:
64,192,26260,1,0,0:0:0:0:
448,192,26260,1,0,0:0:0:0:
320,192,26510,128,0,26760:0:0:0:0:
192,192,26510,1,0,0:0:0:0:
64,192,26760,1,0,0:0:0:0:
448,192,26760,1,0,0:0:0:0:
64,192,27010,128,0,27260:0:0:0:0:
192,192,27135,1,0,0:0:0:0:
320,192,27260,1,0,0:0:0:0:
448,192,27260,1,0,0:0:0:0:
192,192,27510,128,0,27760:0:0:0:0:
320,192,27510,1,0,0:0:0:0:
64,192,27760,1,0,0:0:0:0:
448,192,27760,1,0,0:0:0:0:
320,192,28010,128,0,28260:0:0:0:0:
192,192,28010,1,0,0:0:0:0:
64,192,28260,1,0,0:0:0:0:
448,192,28260,1,0,0:0:0:0:
192,192,28510,128,0,28760:0:0:0:0:
320,192,28510,1,0,0:0:0:0:
320,192,28760,1,0,0:0:0:0:
448,192,28760,1,0,0:0:0:0:
64,192,28760,1,0,0:0:0:0:
448,192,29010,128,0,29260:0:0:0:0:
192,192,29135,1,0,0:0:0:0:
64,192,29260,1,0,0:0:0:0:
320,192,29260,1,0,0:0:0:0:
192,192,29510,128,0,29760:0:0:0:0:
64,192,29510,1,0,0:0:0:0:
320,192,29760,1,0,0:0:0:0:
448,192,29760,1,0,0:0:0:0:
320,192,30010,128,0,30260:0:0:0:0:
448,192,30010,1,0,0:0:0:0:
192,192,30260,1,0,0:0:0:0:
64,192,30260,1,0,0:0:0:0:
448,192,30510,128,0,30760:0:0:0:0:
64,192,30510,1,0,0:0:0:0:
320,192,30760,1,0,0:0:0:0:
192,192,30760,1,0,0:0:0:0:
64,192,31010,128,0,31260:0:0:0:0:
320,192,31135,1,0,0:0:0:0:
192,192,31260,1,0,0:0:0:0:
448,192,31260,1,0,0:0:0:0:
320,192,31510,128,0,31760:0:0:0:0:
64,192,31510,1,0,0:0:0:0:
192,192,31760,1,0,0:0:0:0:
64,192,31760,1,0,0:0:0:0:
192,192,32010,128,0,32260:0:0:0:0:
448,192,32010,1,0,0:0:0:0:
320,192,32260,1,0,0:0:0:0:
448,192,32260,1,0,0:0:0:0:
64,192,32510,1,0,0:0:0:0:
192,192,32572,1,0,0:0:0:0:
320,192,32635,1,0,0:0:0:0:
192,192,32697,1,0,0:0:0:0:
448,192,32760,1,0,0:0:0:0:
320,192,33260,1,0,0:0:0:0:
448,192,33260,1,0,0:0:0:0:
64,192,33260,1,0,0:0:0:0:
192,192,33260,1,0,0:0:0:0:
192,192,33760,1,0,0:0:0:0:
64,192,33760,1,0,0:0:0:0:
192,192,34135,1,0,0:0:0:0:
64,192,34260,1,0,0:0:0:0:
448,192,34260,1,0,0:0:0:0:
192,192,34510,1,0,0:0:0:0:
320,192,34760,1,0,0:0:0:0:
64,192,34760,1,0,0:0:0:0:
192,192,35010,1,0,0:0:0:0:
64,192,35260,1,0,0:0:0:0:
448,192,35260,1,0,0:0:0:0:
320,192,35510,1,0,0:0:0:0:
64,192,35760,1,0,0:0:0:0:
192,192,35760,1,0,0:0:0:0:
320,192,36010,1,0,0:0:0:0:
64,192,36260,1,0,0:0:0:0:
448,192,36260,1,0,0:0:0:0:
192,192,36510,1,0,0:0:0:0:
320,192,36760,1,0,0:0:0:0:
64,192,37260,1,0,0:0:0:0:
192,192,37260,1,0,0:0:0:0:
320,192,37260,1,0,0:0:0:0:
448,192,37260,1,0,0:0:0:0:
320,192,37760,1,0,0:0:0:0:
448,192,37760,1,0,0:0:0:0:
320,192,38135,1,0,0:0:0:0:
64,192,38260,1,0,0:0:0:0:
448,192,38260,1,0,0:0:0:0:
320,192,38510,1,0,0:0:0:0:
192,192,38760,1,0,0:0:0:0:
448,192,38760,1,0,0:0:0:0:
320,192,39010,1,0,0:0:0:0:
64,192,39260,1,0,0:0:0:0:
448,192,39260,1,0,0:0:0:0:
192,192,39760,1,0,0:0:0:0:
448,192,39760,1,0,0:0:0:0:
192,192,40010,1,0,0:0:0:0:
320,192,40135,1,0,0:0:0:0:
64,192,40260,1,0,0:0:0:0:
448,192,40260,1,0,0:0:0:0:
320,192,40510,1,0,0:0:0:0:
192,192,40760,1,0,0:0:0:0:
320,192,41260,1,0,0:0:0:0:
448,192,41260,1,0,0:0:0:0:
64,192,41260,1,0,0:0:0:0:
192,192,41260,1,0,0:0:0:0:
192,192,41760,1,0,0:0:0:0:
448,192,41760,1,0,0:0:0:0:
192,192,42135,1,0,0:0:0:0:
320,192,42260,1,0,0:0:0:0:
448,192,42260,1,0,0:0:0:0:
192,192,42510,1,0,0:0:0:0:
448,192,42760,1,0,0:0:0:0:
64,192,42760,1,0,0:0:0:0:
192,192,43010,1,0,0:0:0:0:
448,192,43260,1,0,0:0:0:0:
320,192,43260,1,0,0:0:0:0:
64,192,43510,1,0,0:0:0:0:
448,192,43760,1,0,0:0:0:0:
192,192,43760,1,0,0:0:0:0:
320,192,44010,1,0,0:0:0:0:
192,192,44135,1,0,0:0:0:0:
64,192,44260,1,0,0:0:0:0:
448,192,44260,1,0,0:0:0:0:
320,192,44510,1,0,0:0:0:0:
64,192,44760,1,0,0:0:0:0:
192,192,44760,1,0,0:0:0:0:
448,192,44760,1,0,0:0:0:0:
320,192,44885,128,0,45010:0:0:0:0:
64,192,45010,1,0,0:0:0:0:
192,192,45010,128,0,45135:0:0:0:0:
448,192,45260,1,0,0:0:0:0:
320,192,45260,128,0,45385:0:0:0:0:
192,192,45385,128,0,45510:0:0:0:0:
64,192,45510,1,0,0:0:0:0:
448,192,45510,1,0,0:0:0:0:
320,192,45635,128,0,45760:0:0:0:0:
64,192,45760,1,0,0:0:0:0:
192,192,45760,128,0,45885:0:0:0:0:
448,192,46010,1,0,0:0:0:0:
320,192,46010,128,0,46135:0:0:0:0:
192,192,46135,128,0,46260:0:0:0:0:
64,192,46260,1,0,0:0:0:0:
448,192,46260,1,0,0:0:0:0:
320,192,46385,128,0,46510:0:0:0:0:
64,192,46510,1,0,0:0:0:0:
192,192,46510,128,0,46635:0:0:0:0:
320,192,46760,1,0,0:0:0:0:
448,192,46760,1,0,0:0:0:0:
320,192,46885,1,0,0:0:0:0:
448,192,46885,1,0,0:0:0:0:
192,192,47010,1,0,0:0:0:0:
64,192,47010,1,0,0:0:0:0:
192,192,47135,1,0,0:0:0:0:
64,192,47135,1,0,0:0:0:0:
320,192,47260,1,0,0:0:0:0:
448,192,47260,1,0,0:0:0:0:
320,192,47385,1,0,0:0:0:0:
448,192,47385,1,0,0:0:0:0:
192,192,47510,1,0,0:0:0:0:
64,192,47510,1,0,0:0:0:0:
192,192,47635,1,0,0:0:0:0:
64,192,47635,1,0,0:0:0:0:
320,192,47760,128,0,48010:0:0:0:0:
448,192,47760,128,0,48010:0:0:0:0:
64,192,48010,128,0,48135:0:0:0:0:
192,192,48072,128,0,48197:0:0:0:0:
64,192,48760,1,0,0:0:0:0:
320,192,48760,1,0,0:0:0:0:
448,192,48760,1,0,0:0:0:0:
192,192,48760,1,0,0:0:0:0:
320,192,49010,1,0,0:0:0:0:
192,192,49135,1,0,0:0:0:0:
448,192,49260,1,0,0:0:0:0:
64,192,49260,1,0,0:0:0:0:
192,192,49510,1,0,0:0:0:0:
320,192,49635,1,0,0:0:0:0:
448,192,49760,1,0,0:0:0:0:
64,192,49760,1,0,0:0:0:0:
192,192,49885,1,0,0:0:0:0:
320,192,50010,1,0,0:0:0:0:
448,192,50135,1,0,0:0:0:0:
192,192,50260,1,0,0:0:0:0:
64,192,50260,1,0,0:0:0:0:
320,192,50510,1,0,0:0:0:0:
64,192,50635,1,0,0:0:0:0:
448,192,50760,1,0,0:0:0:0:
192,192,50760,1,0,0:0:0:0:
320,192,51010,1,0,0:0:0:0:
192,192,51135,1,0,0:0:0:0:
64,192,51260,1,0,0:0:0:0:
448,192,51260,1,0,0:0:0:0:
192,192,51510,1,0,0:0:0:0:
448,192,51635,1,0,0:0:0:0:
320,192,51760,1,0,0:0:0:0:
64,192,51760,1,0,0:0:0:0:
192,192,52010,1,0,0:0:0:0:
320,192,52135,1,0,0:0:0:0:
64,192,52260,1,0,0:0:0:0:
448,192,52260,128,0,52510:0:0:0:0:
320,192,52510,1,0,0:0:0:0:
64,192,52635,1,0,0:0:0:0:
448,192,52760,1,0,0:0:0:0:
192,192,52760,1,0,0:0:0:0:
64,192,53010,1,0,0:0:0:0:
192,192,53135,1,0,0:0:0:0:
448,192,53260,1,0,0:0:0:0:
320,192,53260,1,0,0:0:0:0:
192,192,53510,1,0,0:0:0:0:
448,192,53635,1,0,0:0:0:0:
320,192,53760,1,0,0:0:0:0:
64,192,53760,1,0,0:0:0:0:
448,192,54010,1,0,0:0:0:0:
320,192,54135,1,0,0:0:0:0:
192,192,54260,1,0,0:0:0:0:
64,192,54260,1,0,0:0:0:0:
320,192,54510,1,0,0:0:0:0:
192,192,54635,1,0,0:0:0:0:
64,192,54760,1,0,0:0:0:0:
448,192,54760,1,0,0:0:0:0:
320,192,55010,1,0,0:0:0:0:
64,192,55135,1,0,0:0:0:0:
192,192,55260,1,0,0:0:0:0:
448,192,55260,1,0,0:0:0:0:
320,192,55385,1,0,0:0:0:0:
64,192,55510,1,0,0:0:0:0:
192,192,55635,1,0,0:0:0:0:
320,192,55760,1,0,0:0:0:0:
448,192,55760,1,0,0:0:0:0:
320,192,56010,1,0,0:0:0:0:
192,192,56010,1,0,0:0:0:0:
64,192,56260,1,0,0:0:0:0:
192,192,56260,1,0,0:0:0:0:
320,192,56385,1,0,0:0:0:0:
64,192,56510,1,0,0:0:0:0:
448,192,56510,1,0,0:0:0:0:
192,192,56635,1,0,0:0:0:0:
64,192,56760,1,0,0:0:0:0:
448,192,56760,1,0,0:0:0:0:
320,192,56760,1,0,0:0:0:0:
320,192,57010,1,0,0:0:0:0:
64,192,57135,1,0,0:0:0:0:
448,192,57260,1,0,0:0:0:0:
320,192,57260,1,0,0:0:0:0:
192,192,57385,1,0,0:0:0:0:
64,192,57510,1,0,0:0:0:0:
320,192,57635,1,0,0:0:0:0:
448,192,57760,1,0,0:0:0:0:
192,192,57760,1,0,0:0:0:0:
320,192,58010,1,0,0:0:0:0:
192,192,58135,1,0,0:0:0:0:
64,192,58260,1,0,0:0:0:0:
448,192,58260,1,0,0:0:0:0:
192,192,58510,1,0,0:0:0:0:
448,192,58635,1,0,0:0:0:0:
320,192,58760,1,0,0:0:0:0:
64,192,58760,1,0,0:0:0:0:
192,192,58885,1,0,0:0:0:0:
320,192,59010,1,0,0:0:0:0:
64,192,59135,1,0,0:0:0:0:
192,192,59260,1,0,0:0:0:0:
448,192,59260,1,0,0:0:0:0:
320,192,59510,1,0,0:0:0:0:
192,192,59635,1,0,0:0:0:0:
448,192,59760,1,0,0:0:0:0:
64,192,59760,1,0,0:0:0:0:
192,192,60010,1,0,0:0:0:0:
320,192,60135,1,0,0:0:0:0:
64,192,60260,1,0,0:0:0:0:
448,192,60260,1,0,0:0:0:0:
192,192,60385,1,0,0:0:0:0:
320,192,60510,1,0,0:0:0:0:
448,192,60635,1,0,0:0:0:0:
192,192,60760,1,0,0:0:0:0:
64,192,60760,1,0,0:0:0:0:
448,192,61010,1,0,0:0:0:0:
192,192,61135,1,0,0:0:0:0:
320,192,61260,1,0,0:0:0:0:
64,192,61260,1,0,0:0:0:0:
192,192,61510,1,0,0:0:0:0:
64,192,61635,1,0,0:0:0:0:
320,192,61760,1,0,0:0:0:0:
448,192,61760,1,0,0:0:0:0:
192,192,61885,1,0,0:0:0:0:
64,192,62010,1,0,0:0:0:0:
448,192,62260,1,0,0:0:0:0:
64,192,62260,1,0,0:0:0:0:
320,192,62510,1,0,0:0:0:0:
64,192,62635,1,0,0:0:0:0:
192,192,62760,1,0,0:0:0:0:
448,192,62760,1,0,0:0:0:0:
320,192,62885,1,0,0:0:0:0:
192,192,63010,1,0,0:0:0:0:
64,192,63135,1,0,0:0:0:0:
448,192,63260,1,0,0:0:0:0:
320,192,63260,1,0,0:0:0:0:
192,192,63510,1,0,0:0:0:0:
320,192,63635,1,0,0:0:0:0:
64,192,63760,1,0,0:0:0:0:
448,192,63760,1,0,0:0:0:0:
192,192,63885,1,0,0:0:0:0:
320,192,64010,1,0,0:0:0:0:
448,192,64135,1,0,0:0:0:0:
192,192,64260,1,0,0:0:0:0:
64,192,64260,1,0,0:0:0:0:
448,192,64385,1,0,0:0:0:0:
320,192,64510,1,0,0:0:0:0:
192,192,64635,1,0,0:0:0:0:
448,192,64760,128,0,64885:0:0:0:0:
64,192,64760,128,0,64885:0:0:0:0:
64,192,65135,128,0,65260:0:0:0:0:
448,192,65135,128,0,65260:0:0:0:0:
64,192,65510,128,0,65635:0:0:0:0:
448,192,65510,128,0,65635:0:0:0:0:
448,192,66010,1,0,0:0:0:0:
320,192,66072,1,0,0:0:0:0:
192,192,66135,1,0,0:0:0:0:
320,192,66260,1,0,0:0:0:0:
64,192,66260,128,0,66760:0:0:0:0:
448,192,66760,1,0,0:0:0:0:
320,192,66760,1,0,0:0:0:0:
192,192,66760,128,0,66885:0:0:0:0:
64,192,66885,128,0,67010:0:0:0:0:
448,192,67010,128,0,67260:0:0:0:0:
320,192,67260,128,0,67385:0:0:0:0:
64,192,67260,1,0,0:0:0:0:
192,192,67385,128,0,67510:0:0:0:0:
448,192,67510,1,0,0:0:0:0:
192,192,67635,1,0,0:0:0:0:
64,192,67635,128,0,68010:0:0:0:0:
320,192,67760,1,0,0:0:0:0:
320,192,68010,1,0,0:0:0:0:
448,192,68010,128,0,68260:0:0:0:0:
192,192,68135,1,0,0:0:0:0:
320,192,68260,128,0,68510:0:0:0:0:
64,192,68260,1,0,0:0:0:0:
448,192,68385,1,0,0:0:0:0:
192,192,68510,128,0,68760:0:0:0:0:
448,192,68760,128,0,69010:0:0:0:0:
64,192,68760,1,0,0:0:0:0:
320,192,68885,1,0,0:0:0:0:
64,192,69010,128,0,69260:0:0:0:0:
192,192,69010,1,0,0:0:0:0:
320,192,69260,128,0,69385:0:0:0:0:
448,192,69260,1,0,0:0:0:0:
192,192,69385,128,0,69510:0:0:0:0:
64,192,69510,1,0,0:0:0:0:
320,192,69635,1,0,0:0:0:0:
448,192,69635,128,0,70010:0:0:0:0:
64,192,69760,1,0,0:0:0:0:
192,192,69885,1,0,0:0:0:0:
320,192,69885,1,0,0:0:0:0:
192,192,70010,1,0,0:0:0:0:
320,192,70010,128,0,70260:0:0:0:0:
64,192,70260,1,0,0:0:0:0:
448,192,70260,128,0,70510:0:0:0:0:
64,192,70510,1,0,0:0:0:0:
192,192,70572,1,0,0:0:0:0:
320,192,70635,1,0,0:0:0:0:
448,192,70697,1,0,0:0:0:0:
192,192,70760,1,0,0:0:0:0:
64,192,70760,128,0,70885:0:0:0:0:
448,192,70885,128,0,71010:0:0:0:0:
320,192,71010,128,0,71260:0:0:0:0:
192,192,71260,128,0,71385:0:0:0:0:
64,192,71260,1,0,0:0:0:0:
320,192,71385,128,0,71510:0:0:0:0:
448,192,71510,1,0,0:0:0:0:
192,192,71635,1,0,0:0:0:0:
64,192,71635,128,0,72010:0:0:0:0:
320,192,71760,1,0,0:0:0:0:
320,192,72010,1,0,0:0:0:0:
448,192,72010,128,0,72260:0:0:0:0:
192,192,72135,1,0,0:0:0:0:
320,192,72260,128,0,72510:0:0:0:0:
64,192,72260,1,0,0:0:0:0:
448,192,72385,1,0,0:0:0:0:
192,192,72510,128,0,72760:0:0:0:0:
448,192,72635,1,0,0:0:0:0:
64,192,72760,128,0,73010:0:0:0:0:
320,192,72760,1,0,0:0:0:0:
192,192,73010,128,0,73260:0:0:0:0:
448,192,73010,1,0,0:0:0:0:
320,192,73260,128,0,73385:0:0:0:0:
64,192,73260,1,0,0:0:0:0:
192,192,73385,128,0,73510:0:0:0:0:
448,192,73510,1,0,0:0:0:0:
320,192,73635,1,0,0:0:0:0:
64,192,73635,128,0,74010:0:0:0:0:
192,192,73760,1,0,0:0:0:0:
320,192,73885,1,0,0:0:0:0:
448,192,73885,1,0,0:0:0:0:
320,192,74010,1,0,0:0:0:0:
448,192,74010,128,0,74260:0:0:0:0:
192,192,74260,1,0,0:0:0:0:
64,192,74260,128,0,74510:0:0:0:0:
320,192,74510,1,0,0:0:0:0:
448,192,74510,1,0,0:0:0:0:
192,192,74635,1,0,0:0:0:0:
448,192,74760,1,0,0:0:0:0:
64,192,74760,128,0,76760:0:0:0:0:
448,192,75260,1,0,0:0:0:0:
448,192,75760,1,0,0:0:0:0:
448,192,76260,1,0,0:0:0:0:
320,192,76760,1,0,0:0:0:0:
448,192,76760,1,0,0:0:0:0:
320,192,77260,1,0,0:0:0:0:
448,192,77260,1,0,0:0:0:0:
320,192,77760,1,0,0:0:0:0:
448,192,77760,1,0,0:0:0:0:
448,192,78260,128,0,78635:0:0:0:0:
64,192,78260,1,0,0:0:0:0:
192,192,78697,128,0,78760:0:0:0:0:
64,192,78760,1,0,0:0:0:0:
448,192,78760,128,0,80760:0:0:0:0:
64,192,79260,1,0,0:0:0:0:
64,192,79760,1,0,0:0:0:0:
64,192,80260,1,0,0:0:0:0:
64,192,80760,1,0,0:0:0:0:
192,192,80760,1,0,0:0:0:0:
192,192,81260,1,0,0:0:0:0:
64,192,81260,1,0,0:0:0:0:
192,192,81760,1,0,0:0:0:0:
64,192,81760,1,0,0:0:0:0:
320,192,82197,128,0,82260:0:0:0:0:
64,192,82260,128,0,82635:0:0:0:0:
448,192,82260,1,0,0:0:0:0:
320,192,82697,128,0,82760:0:0:0:0:
192,192,82760,1,0,0:0:0:0:
64,192,82760,1,0,0:0:0:0:
448,192,82760,1,0,0:0:0:0:
320,192,83010,128,0,83260:0:0:0:0:
192,192,83135,1,0,0:0:0:0:
64,192,83260,1,0,0:0:0:0:
448,192,83260,1,0,0:0:0:0:
192,192,83510,128,0,83760:0:0:0:0:
448,192,83760,1,0,0:0:0:0:
64,192,83760,1,0,0:0:0:0:
320,192,84010,128,0,84260:0:0:0:0:
192,192,84260,1,0,0:0:0:0:
64,192,84260,1,0,0:0:0:0:
448,192,84510,128,0,84760:0:0:0:0:
320,192,84760,1,0,0:0:0:0:
192,192,84760,1,0,0:0:0:0:
64,192,85010,128,0,85260:0:0:0:0:
192,192,85135,1,0,0:0:0:0:
320,192,85260,1,0,0:0:0:0:
448,192,85260,1,0,0:0:0:0:
192,192,85510,128,0,85760:0:0:0:0:
64,192,85760,1,0,0:0:0:0:
448,192,85760,1,0,0:0:0:0:
320,192,86010,128,0,86260:0:0:0:0:
64,192,86260,1,0,0:0:0:0:
448,192,86260,1,0,0:0:0:0:
192,192,86510,128,0,86760:0:0:0:0:
448,192,86760,1,0,0:0:0:0:
320,192,86760,1,0,0:0:0:0:
64,192,86760,1,0,0:0:0:0:
192,192,87010,128,0,87260:0:0:0:0:
320,192,87135,1,0,0:0:0:0:
448,192,87260,1,0,0:0:0:0:
64,192,87260,1,0,0:0:0:0:
320,192,87510,128,0,87760:0:0:0:0:
64,192,87760,1,0,0:0:0:0:
448,192,87760,1,0,0:0:0:0:
192,192,88010,128,0,88260:0:0:0:0:
448,192,88260,1,0,0:0:0:0:
320,192,88260,1,0,0:0:0:0:
64,192,88510,128,0,88760:0:0:0:0:
192,192,88760,1,0,0:0:0:0:
320,192,88760,1,0,0:0:0:0:
448,192,89010,128,0,89260:0:0:0:0:
320,192,89135,1,0,0:0:0:0:
192,192,89260,1,0,0:0:0:0:
64,192,89260,1,0,0:0:0:0:
320,192,89510,128,0,89760:0:0:0:0:
64,192,89760,1,0,0:0:0:0:
448,192,89760,1,0,0:0:0:0:
192,192,90010,128,0,90260:0:0:0:0:
64,192,90260,1,0,0:0:0:0:
448,192,90260,1,0,0:0:0:0:
320,192,90510,1,0,0:0:0:0:
192,192,90572,1,0,0:0:0:0:
64,192,90635,1,0,0:0:0:0:
192,192,90697,1,0,0:0:0:0:
448,192,90760,1,0,0:0:0:0:
320,192,91010,1,0,0:0:0:0:
192,192,91135,1,0,0:0:0:0:
64,192,91260,1,0,0:0:0:0:
320,192,91260,1,0,0:0:0:0:
448,192,91260,1,0,0:0:0:0:
192,192,91510,1,0,0:0:0:0:
320,192,91760,1,0,0:0:0:0:
448,192,91760,1,0,0:0:0:0:
320,192,92135,1,0,0:0:0:0:
192,192,92260,1,0,0:0:0:0:
448,192,92260,1,0,0:0:0:0:
320,192,92510,1,0,0:0:0:0:
64,192,92760,1,0,0:0:0:0:
448,192,92760,1,0,0:0:0:0:
320,192,93010,1,0,0:0:0:0:
64,192,93135,1,0,0:0:0:0:
448,192,93260,1,0,0:0:0:0:
192,192,93260,1,0,0:0:0:0:
64,192,93510,1,0,0:0:0:0:
320,192,93635,1,0,0:0:0:0:
448,192,93760,1,0,0:0:0:0:
192,192,93760,1,0,0:0:0:0:
320,192,94010,1,0,0:0:0:0:
320,192,94135,1,0,0:0:0:0:
448,192,94260,1,0,0:0:0:0:
64,192,94260,1,0,0:0:0:0:
192,192,94510,1,0,0:0:0:0:
320,192,94760,1,0,0:0:0:0:
192,192,95010,1,0,0:0:0:0:
320,192,95135,1,0,0:0:0:0:
192,192,95260,1,0,0:0:0:0:
64,192,95260,1,0,0:0:0:0:
448,192,95260,1,0,0:0:0:0:
320,192,95510,1,0,0:0:0:0:
192,192,95760,1,0,0:0:0:0:
64,192,95760,1,0,0:0:0:0:
192,192,96135,1,0,0:0:0:0:
64,192,96260,1,0,0:0:0:0:
320,192,96260,1,0,0:0:0:0:
192,192,96510,1,0,0:0:0:0:
64,192,96760,1,0,0:0:0:0:
448,192,96760,1,0,0:0:0:0:
192,192,97010,1,0,0:0:0:0:
320,192,97260,1,0,0:0:0:0:
64,192,97260,1,0,0:0:0:0:
192,192,97510,1,0,0:0:0:0:
320,192,97635,1,0,0:0:0:0:
64,192,97760,1,0,0:0:0:0:
448,192,97760,1,0,0:0:0:0:
192,192,98010,1,0,0:0:0:0:
448,192,98135,1,0,0:0:0:0:
64,192,98260,1,0,0:0:0:0:
320,192,98260,1,0,0:0:0:0:
192,192,98510,1,0,0:0:0:0:
320,192,98760,1,0,0:0:0:0:
192,192,99010,1,0,0:0:0:0:
64,192,99260,1,0,0:0:0:0:
320,192,99260,1,0,0:0:0:0:
448,192,99260,1,0,0:0:0:0:
192,192,99510,1,0,0:0:0:0:
64,192,99760,1,0,0:0:0:0:
320,192,99760,1,0,0:0:0:0:
320,192,100135,1,0,0:0:0:0:
64,192,100260,1,0,0:0:0:0:
448,192,100260,1,0,0:0:0:0:
320,192,100510,1,0,0:0:0:0:
64,192,100760,1,0,0:0:0:0:
192,192,100760,1,0,0:0:0:0:
320,192,101010,1,0,0:0:0:0:
64,192,101260,1,0,0:0:0:0:
448,192,101260,1,0,0:0:0:0:
320,192,101510,1,0,0:0:0:0:
448,192,101697,1,0,0:0:0:0:
192,192,101760,1,0,0:0:0:0:
64,192,101760,1,0,0:0:0:0:
448,192,102010,1,0,0:0:0:0:
448,192,102135,1,0,0:0:0:0:
64,192,102260,1,0,0:0:0:0:
320,192,102260,1,0,0:0:0:0:
192,192,102510,1,0,0:0:0:0:
320,192,102760,1,0,0:0:0:0:
448,192,102760,1,0,0:0:0:0:
192,192,102760,1,0,0:0:0:0:
64,192,102885,128,0,103010:0:0:0:0:
448,192,103010,128,0,103135:0:0:0:0:
320,192,103010,1,0,0:0:0:0:
64,192,103260,128,0,103385:0:0:0:0:
192,192,103260,1,0,0:0:0:0:
448,192,103385,128,0,103510:0:0:0:0:
192,192,103510,1,0,0:0:0:0:
320,192,103510,1,0,0:0:0:0:
64,192,103635,128,0,103760:0:0:0:0:
320,192,103760,1,0,0:0:0:0:
448,192,103760,128,0,103885:0:0:0:0:
64,192,104010,128,0,104135:0:0:0:0:
192,192,104010,1,0,0:0:0:0:
448,192,104135,128,0,104260:0:0:0:0:
192,192,104260,1,0,0:0:0:0:
320,192,104260,1,0,0:0:0:0:
64,192,104385,128,0,104510:0:0:0:0:
448,192,104510,128,0,104635:0:0:0:0:
320,192,104510,1,0,0:0:0:0:
192,192,104760,1,0,0:0:0:0:
64,192,104760,1,0,0:0:0:0:
448,192,104760,1,0,0:0:0:0:
320,192,105135,1,0,0:0:0:0:
448,192,105135,1,0,0:0:0:0:
192,192,105135,1,0,0:0:0:0:
320,192,105510,1,0,0:0:0:0:
192,192,105510,1,0,0:0:0:0:
64,192,105510,1,0,0:0:0:0:
64,192,105760,1,0,0:0:0:0:
320,192,105760,1,0,0:0:0:0:
448,192,105760,1,0,0:0:0:0:
192,192,106010,1,0,0:0:0:0:
192,192,106135,1,0,0:0:0:0:
320,192,106260,1,0,0:0:0:0:
320,192,106385,1,0,0:0:0:0:
192,192,106510,1,0,0:0:0:0:
320,192,106760,1,0,0:0:0:0:
448,192,106760,1,0,0:0:0:0:
64,192,106760,128,0,107510:0:0:0:0:
192,192,107010,1,0,0:0:0:0:
448,192,107260,1,0,0:0:0:0:
192,192,107260,1,0,0:0:0:0:
320,192,107510,128,0,107885:0:0:0:0:
192,192,107635,1,0,0:0:0:0:
64,192,107760,1,0,0:0:0:0:
448,192,107760,1,0,0:0:0:0:
320,192,108010,128,0,108260:0:0:0:0:
192,192,108135,1,0,0:0:0:0:
64,192,108260,1,0,0:0:0:0:
448,192,108260,128,0,108510:0:0:0:0:
192,192,108510,128,0,108760:0:0:0:0:
64,192,108760,128,0,110822:0:0:0:0:
320,192,108760,1,0,0:0:0:0:
448,192,109010,1,0,0:0:0:0:
320,192,109135,1,0,0:0:0:0:
192,192,109260,1,0,0:0:0:0:
448,192,109260,1,0,0:0:0:0:
320,192,109510,1,0,0:0:0:0:
448,192,109635,1,0,0:0:0:0:
320,192,109760,1,0,0:0:0:0:
192,192,109760,1,0,0:0:0:0:
448,192,110010,1,0,0:0:0:0:
192,192,110135,1,0,0:0:0:0:
448,192,110260,1,0,0:0:0:0:
320,192,110260,1,0,0:0:0:0:
192,192,110510,1,0,0:0:0:0:
320,192,110760,128,0,110822:0:0:0:0:
448,192,110760,1,0,0:0:0:0:
192,192,110822,128,0,111822:0:0:0:0:
448,192,111010,1,0,0:0:0:0:
320,192,111135,1,0,0:0:0:0:
64,192,111260,1,0,0:0:0:0:
448,192,111260,1,0,0:0:0:0:
320,192,111510,1,0,0:0:0:0:
64,192,111760,1,0,0:0:0:0:
448,192,111760,128,0,111822:0:0:0:0:
320,192,111822,128,0,112822:0:0:0:0:
192,192,112010,1,0,0:0:0:0:
64,192,112135,1,0,0:0:0:0:
192,192,112260,1,0,0:0:0:0:
448,192,112260,1,0,0:0:0:0:
64,192,112510,1,0,0:0:0:0:
448,192,112760,1,0,0:0:0:0:
192,192,112760,128,0,112822:0:0:0:0:
64,192,112822,128,0,113760:0:0:0:0:
320,192,113010,1,0,0:0:0:0:
448,192,113135,1,0,0:0:0:0:
192,192,113260,1,0,0:0:0:0:
320,192,113260,1,0,0:0:0:0:
448,192,113510,1,0,0:0:0:0:
192,192,113635,1,0,0:0:0:0:
448,192,113760,1,0,0:0:0:0:
320,192,113760,1,0,0:0:0:0:
64,192,114010,1,0,0:0:0:0:
448,192,114010,1,0,0:0:0:0:
320,192,114135,1,0,0:0:0:0:
192,192,114260,1,0,0:0:0:0:
64,192,114260,1,0,0:0:0:0:
448,192,114385,1,0,0:0:0:0:
192,192,114510,1,0,0:0:0:0:
320,192,114510,1,0,0:0:0:0:
64,192,114635,1,0,0:0:0:0:
192,192,114760,1,0,0:0:0:0:
448,192,114760,1,0,0:0:0:0:
320,192,114760,1,0,0:0:0:0:
448,192,115010,128,0,115510:0:0:0:0:
192,192,115135,1,0,0:0:0:0:
64,192,115260,1,0,0:0:0:0:
320,192,115260,1,0,0:0:0:0:
192,192,115510,128,0,116010:0:0:0:0:
64,192,115635,1,0,0:0:0:0:
320,192,115760,1,0,0:0:0:0:
448,192,115760,1,0,0:0:0:0:
320,192,116010,128,0,116260:0:0:0:0:
192,192,116135,1,0,0:0:0:0:
448,192,116260,1,0,0:0:0:0:
64,192,116260,128,0,116510:0:0:0:0:
320,192,116510,128,0,116760:0:0:0:0:
64,192,116635,1,0,0:0:0:0:
448,192,116760,128,0,117760:0:0:0:0:
192,192,116760,1,0,0:0:0:0:
64,192,117010,1,0,0:0:0:0:
192,192,117135,1,0,0:0:0:0:
64,192,117260,1,0,0:0:0:0:
320,192,117260,1,0,0:0:0:0:
192,192,117510,1,0,0:0:0:0:
320,192,117635,1,0,0:0:0:0:
64,192,117760,128,0,118822:0:0:0:0:
192,192,117760,1,0,0:0:0:0:
448,192,118010,1,0,0:0:0:0:
320,192,118135,1,0,0:0:0:0:
448,192,118260,1,0,0:0:0:0:
192,192,118260,1,0,0:0:0:0:
320,192,118510,1,0,0:0:0:0:
192,192,118760,128,0,118822:0:0:0:0:
448,192,118760,1,0,0:0:0:0:
320,192,118822,128,0,119260:0:0:0:0:
64,192,119010,1,0,0:0:0:0:
448,192,119260,128,0,119322:0:0:0:0:
64,192,119260,1,0,0:0:0:0:
192,192,119322,128,0,119760:0:0:0:0:
448,192,119510,1,0,0:0:0:0:
64,192,119760,128,0,119822:0:0:0:0:
320,192,119760,1,0,0:0:0:0:
448,192,119822,128,0,120260:0:0:0:0:
192,192,120010,1,0,0:0:0:0:
192,192,120260,128,0,120322:0:0:0:0:
64,192,120260,1,0,0:0:0:0:
320,192,120322,128,0,120760:0:0:0:0:
448,192,120510,1,0,0:0:0:0:
448,192,120760,128,0,120822:0:0:0:0:
192,192,120760,1,0,0:0:0:0:
64,192,120822,128,0,121260:0:0:0:0:
320,192,121010,1,0,0:0:0:0:
448,192,121260,128,0,121322:0:0:0:0:
320,192,121260,1,0,0:0:0:0:
192,192,121322,128,0,121760:0:0:0:0:
64,192,121510,1,0,0:0:0:0:
64,192,121760,1,0,0:0:0:0:
320,192,121760,1,0,0:0:0:0:
64,192,122010,1,0,0:0:0:0:
448,192,122010,1,0,0:0:0:0:
320,192,122135,1,0,0:0:0:0:
192,192,122260,1,0,0:0:0:0:
448,192,122260,1,0,0:0:0:0:
320,192,122385,1,0,0:0:0:0:
448,192,122510,1,0,0:0:0:0:
64,192,122510,1,0,0:0:0:0:
192,192,122635,1,0,0:0:0:0:
320,192,122760,128,0,122822:0:0:0:0:
64,192,122760,128,0,122822:0:0:0:0:
64,192,123135,128,0,123197:0:0:0:0:
320,192,123135,128,0,123197:0:0:0:0:
64,192,123510,128,0,123572:0:0:0:0:
320,192,123510,128,0,123572:0:0:0:0:
320,192,124676,128,0,124760:0:0:0:0:
64,192,124760,128,0,125426:0:0:0:0:
192,192,124760,1,0,0:0:0:0:
448,192,124760,1,0,0:0:0:0:
320,192,125010,1,0,0:0:0:0:
448,192,125135,1,0,0:0:0:0:
192,192,125260,1,0,0:0:0:0:
448,192,125426,128,0,125510:0:0:0:0:
320,192,125510,128,0,125593:0:0:0:0:
64,192,125593,128,0,125926:0:0:0:0:
192,192,125635,1,0,0:0:0:0:
320,192,125760,1,0,0:0:0:0:
192,192,125885,1,0,0:0:0:0:
448,192,126010,1,0,0:0:0:0:
64,192,126010,128,0,126176:0:0:0:0:
192,192,126135,1,0,0:0:0:0:
448,192,126260,1,0,0:0:0:0:
64,192,126260,128,0,126593:0:0:0:0:
192,192,126385,1,0,0:0:0:0:
320,192,126510,1,0,0:0:0:0:
448,192,126593,128,0,126676:0:0:0:0:
192,192,126676,128,0,126760:0:0:0:0:
64,192,126760,1,0,0:0:0:0:
320,192,126760,128,0,126843:0:0:0:0:
448,192,126843,128,0,127510:0:0:0:0:
320,192,127010,1,0,0:0:0:0:
64,192,127010,1,0,0:0:0:0:
192,192,127135,1,0,0:0:0:0:
320,192,127260,1,0,0:0:0:0:
64,192,127385,1,0,0:0:0:0:
192,192,127510,128,0,127593:0:0:0:0:
448,192,127593,128,0,127926:0:0:0:0:
320,192,127635,1,0,0:0:0:0:
64,192,127760,1,0,0:0:0:0:
320,192,127885,1,0,0:0:0:0:
192,192,127885,1,0,0:0:0:0:
64,192,128010,1,0,0:0:0:0:
448,192,128010,128,0,128176:0:0:0:0:
64,192,128260,1,0,0:0:0:0:
448,192,128260,128,0,128510:0:0:0:0:
192,192,128385,1,0,0:0:0:0:
320,192,128510,1,0,0:0:0:0:
192,192,128572,1,0,0:0:0:0:
448,192,128635,1,0,0:0:0:0:
320,192,128697,1,0,0:0:0:0:
64,192,128760,128,0,129510:0:0:0:0:
192,192,128760,1,0,0:0:0:0:
448,192,129010,1,0,0:0:0:0:
320,192,129135,1,0,0:0:0:0:
192,192,129260,1,0,0:0:0:0:
448,192,129385,1,0,0:0:0:0:
192,192,129510,1,0,0:0:0:0:
320,192,129572,1,0,0:0:0:0:
448,192,129635,1,0,0:0:0:0:
64,192,129635,1,0,0:0:0:0:
320,192,129760,1,0,0:0:0:0:
192,192,129843,1,0,0:0:0:0:
448,192,129885,1,0,0:0:0:0:
320,192,129947,1,0,0:0:0:0:
64,192,130010,1,0,0:0:0:0:
192,192,130010,1,0,0:0:0:0:
320,192,130135,128,0,130260:0:0:0:0:
448,192,130260,1,0,0:0:0:0:
192,192,130343,1,0,0:0:0:0:
448,192,130426,1,0,0:0:0:0:
192,192,130510,128,0,130760:0:0:0:0:
64,192,130593,128,0,130760:0:0:0:0:
448,192,130760,128,0,130947:0:0:0:0:
320,192,130760,1,0,0:0:0:0:
192,192,130885,128,0,131010:0:0:0:0:
320,192,131010,128,0,131197:0:0:0:0:
448,192,131010,1,0,0:0:0:0:
64,192,131135,128,0,131260:0:0:0:0:
192,192,131260,128,0,131468:0:0:0:0:
320,192,131322,128,0,131510:0:0:0:0:
448,192,131510,128,0,131697:0:0:0:0:
64,192,131572,128,0,131760:0:0:0:0:
448,192,131760,128,0,131947:0:0:0:0:
64,192,131822,128,0,132010:0:0:0:0:
192,192,132010,128,0,132197:0:0:0:0:
448,192,132010,1,0,0:0:0:0:
320,192,132072,128,0,132260:0:0:0:0:
192,192,132260,128,0,132447:0:0:0:0:
64,192,132260,1,0,0:0:0:0:
448,192,132322,128,0,132510:0:0:0:0:
64,192,132510,1,0,0:0:0:0:
320,192,132510,1,0,0:0:0:0:
192,192,132572,1,0,0:0:0:0:
448,192,132635,1,0,0:0:0:0:
320,192,132697,1,0,0:0:0:0:
192,192,132760,1,0,0:0:0:0:
448,192,132760,1,0,0:0:0:0:
64,192,132760,128,0,133385:0:0:0:0:
320,192,133135,1,0,0:0:0:0:
448,192,133260,1,0,0:0:0:0:
192,192,133385,1,0,0:0:0:0:
64,192,133510,128,0,133947:0:0:0:0:
320,192,133635,1,0,0:0:0:0:
448,192,133635,1,0,0:0:0:0:
192,192,133760,1,0,0:0:0:0:
64,192,134010,128,0,134135:0:0:0:0:
320,192,134010,1,0,0:0:0:0:
448,192,134135,128,0,134197:0:0:0:0:
192,192,134197,128,0,134260:0:0:0:0:
320,192,134260,128,0,134760:0:0:0:0:
64,192,134260,1,0,0:0:0:0:
64,192,134760,128,0,134843:0:0:0:0:
448,192,134760,1,0,0:0:0:0:
192,192,134843,128,0,134926:0:0:0:0:
320,192,134926,128,0,135010:0:0:0:0:
64,192,135010,128,0,135093:0:0:0:0:
448,192,135010,1,0,0:0:0:0:
192,192,135093,128,0,135176:0:0:0:0:
320,192,135176,128,0,135260:0:0:0:0:
64,192,135260,128,0,135343:0:0:0:0:
192,192,135343,128,0,135426:0:0:0:0:
448,192,135426,128,0,135510:0:0:0:0:
320,192,135510,128,0,135593:0:0:0:0:
64,192,135593,128,0,135676:0:0:0:0:
448,192,135676,128,0,135760:0:0:0:0:
320,192,135760,128,0,135843:0:0:0:0:
64,192,135843,128,0,135926:0:0:0:0:
448,192,135926,128,0,136010:0:0:0:0:
320,192,136010,128,0,136093:0:0:0:0:
192,192,136010,1,0,0:0:0:0:
64,192,136093,128,0,136176:0:0:0:0:
192,192,136176,128,0,136260:0:0:0:0:
320,192,136260,1,0,0:0:0:0:
448,192,136260,128,0,136572:0:0:0:0:
192,192,136572,1,0,0:0:0:0:
320,192,136635,1,0,0:0:0:0:
192,192,136697,1,0,0:0:0:0:
64,192,136760,1,0,0:0:0:0:
448,192,136760,128,0,136885:0:0:0:0:
320,192,136885,128,0,136978:0:0:0:0:
64,192,136978,1,0,0:0:0:0:
192,192,137072,1,0,0:0:0:0:
320,192,137135,128,0,137197:0:0:0:0:
64,192,137197,1,0,0:0:0:0:
192,192,137260,1,0,0:0:0:0:
448,192,137260,1,0,0:0:0:0:
320,192,137322,1,0,0:0:0:0:
192,192,137385,1,0,0:0:0:0:
448,192,137478,1,0,0:0:0:0:
320,192,137510,1,0,0:0:0:0:
64,192,137572,1,0,0:0:0:0:
320,192,137635,1,0,0:0:0:0:
448,192,137635,1,0,0:0:0:0:
192,192,137697,1,0,0:0:0:0:
64,192,137760,1,0,0:0:0:0:
320,192,137822,1,0,0:0:0:0:
192,192,137885,1,0,0:0:0:0:
448,192,137947,1,0,0:0:0:0:
320,192,138010,1,0,0:0:0:0:
64,192,138010,128,0,138135:0:0:0:0:
192,192,138135,1,0,0:0:0:0:
320,192,138197,128,0,138260:0:0:0:0:
448,192,138260,1,0,0:0:0:0:
64,192,138260,128,0,138353:0:0:0:0:
192,192,138353,128,0,138447:0:0:0:0:
320,192,138447,128,0,138510:0:0:0:0:
448,192,138510,1,0,0:0:0:0:
192,192,138572,1,0,0:0:0:0:
320,192,138635,1,0,0:0:0:0:
64,192,138697,1,0,0:0:0:0:
192,192,138760,1,0,0:0:0:0:
448,192,138760,1,0,0:0:0:0:
320,192,138822,128,0,138947:0:0:0:0:
192,192,138947,128,0,139010:0:0:0:0:
448,192,139010,1,0,0:0:0:0:
64,192,139010,128,0,139072:0:0:0:0:
320,192,139072,128,0,139166:0:0:0:0:
192,192,139166,128,0,139260:0:0:0:0:
320,192,139260,1,0,0:0:0:0:
448,192,139260,1,0,0:0:0:0:
64,192,139322,1,0,0:0:0:0:
192,192,139416,1,0,0:0:0:0:
320,192,139510,1,0,0:0:0:0:
192,192,139572,1,0,0:0:0:0:
64,192,139635,1,0,0:0:0:0:
448,192,139635,1,0,0:0:0:0:
448,192,139760,1,0,0:0:0:0:
320,192,139822,1,0,0:0:0:0:
64,192,139885,1,0,0:0:0:0:
192,192,139885,1,0,0:0:0:0:
192,192,140010,1,0,0:0:0:0:
448,192,140010,1,0,0:0:0:0:
320,192,140072,1,0,0:0:0:0:
64,192,140135,1,0,0:0:0:0:
192,192,140197,1,0,0:0:0:0:
448,192,140260,1,0,0:0:0:0:
320,192,140322,1,0,0:0:0:0:
192,192,140385,1,0,0:0:0:0:
448,192,140510,1,0,0:0:0:0:
64,192,140510,1,0,0:0:0:0:
320,192,140635,1,0,0:0:0:0:
64,192,140635,1,0,0:0:0:0:
320,192,140760,1,0,0:0:0:0:
448,192,140760,128,0,141385:0:0:0:0:
192,192,140760,1,0,0:0:0:0:
320,192,141510,128,0,142135:0:0:0:0:
448,192,141510,128,0,142385:0:0:0:0:
64,192,142010,128,0,142135:0:0:0:0:
192,192,142010,128,0,142135:0:0:0:0:
64,192,142260,128,0,142510:0:0:0:0:
320,192,142260,128,0,142385:0:0:0:0:
448,192,142510,128,0,143010:0:0:0:0:
192,192,142510,128,0,142760:0:0:0:0:
64,192,142760,128,0,143010:0:0:0:0:
320,192,142760,128,0,143135:0:0:0:0:
448,192,143135,128,0,143760:0:0:0:0:
64,192,143135,128,0,143760:0:0:0:0:
320,192,143510,128,0,143760:0:0:0:0:
192,192,143510,128,0,143760:0:0:0:0:
64,192,143885,128,0,144760:0:0:0:0:
448,192,143885,128,0,144010:0:0:0:0:
320,192,144010,128,0,144260:0:0:0:0:
192,192,144260,128,0,144760:0:0:0:0:
320,192,144510,128,0,144760:0:0:0:0:
448,192,144510,128,0,144760:0:0:0:0:
320,192,145010,128,0,145135:0:0:0:0:
320,192,145260,128,0,145510:0:0:0:0:
448,192,145260,128,0,145885:0:0:0:0:
192,192,145510,128,0,145635:0:0:0:0:
64,192,145635,128,0,146260:0:0:0:0:
320,192,145635,128,0,146010:0:0:0:0:
448,192,146010,128,0,146760:0:0:0:0:
192,192,146260,128,0,146760:0:0:0:0:
64,192,146510,128,0,146760:0:0:0:0:
320,192,146510,128,0,146760:0:0:0:0:
64,192,147010,128,0,147135:0:0:0:0:
448,192,147010,128,0,147135:0:0:0:0:
448,192,147260,128,0,147385:0:0:0:0:
192,192,147385,1,0,0:0:0:0:
192,192,147478,128,0,147603:0:0:0:0:
64,192,147603,1,0,0:0:0:0:
320,192,147728,128,0,148010:0:0:0:0:
192,192,148010,128,0,148260:0:0:0:0:
448,192,148010,128,0,148260:0:0:0:0:
64,192,148260,128,0,148635:0:0:0:0:
320,192,148510,128,0,148635:0:0:0:0:
64,192,148760,1,0,0:0:0:0:
192,192,148760,1,0,0:0:0:0:
320,192,148760,1,0,0:0:0:0:
448,192,148760,1,0,0:0:0:0:
64,192,149510,128,0,150010:0:0:0:0:
192,192,149760,128,0,150010:0:0:0:0:
448,192,150010,128,0,150260:0:0:0:0:
320,192,150010,128,0,150260:0:0:0:0:
64,192,150260,128,0,150510:0:0:0:0:
448,192,150510,128,0,150760:0:0:0:0:
320,192,150510,128,0,150760:0:0:0:0:
192,192,150760,128,0,151385:0:0:0:0:
64,192,150885,128,0,151385:0:0:0:0:
320,192,151010,128,0,151385:0:0:0:0:
448,192,151135,128,0,151385:0:0:0:0:
448,192,151510,128,0,151885:0:0:0:0:
64,192,151510,128,0,152385:0:0:0:0:
448,192,152010,128,0,152385:0:0:0:0:
320,192,152010,128,0,152135:0:0:0:0:
192,192,152260,128,0,152635:0:0:0:0:
320,192,152260,128,0,152385:0:0:0:0:
448,192,152510,128,0,153135:0:0:0:0:
64,192,152510,128,0,152635:0:0:0:0:
320,192,152635,128,0,153635:0:0:0:0:
192,192,152760,128,0,154135:0:0:0:0:
64,192,152760,128,0,154635:0:0:0:0:
448,192,153260,128,0,155260:0:0:0:0:
320,192,153760,128,0,155260:0:0:0:0:
192,192,154260,128,0,155260:0:0:0:0:
64,192,154760,128,0,155260:0:0:0:0:
448,192,155760,1,0,0:0:0:0:
64,192,155760,1,0,0:0:0:0:
320,192,155760,1,0,0:0:0:0:
192,192,155760,1,0,0:0:0:0:
192,192,156760,1,0,0:0:0:0:
320,192,156760,1,0,0:0:0:0:
448,192,156760,1,0,0:0:0:0:
64,192,156760,128,0,157385:0:0:0:0:
448,192,157010,1,0,0:0:0:0:
192,192,157135,1,0,0:0:0:0:
448,192,157260,1,0,0:0:0:0:
320,192,157260,1,0,0:0:0:0:
64,192,157510,128,0,158010:0:0:0:0:
320,192,157635,1,0,0:0:0:0:
192,192,157760,1,0,0:0:0:0:
448,192,157760,1,0,0:0:0:0:
320,192,158010,128,0,158260:0:0:0:0:
64,192,158135,1,0,0:0:0:0:
192,192,158260,128,0,158510:0:0:0:0:
448,192,158260,1,0,0:0:0:0:
64,192,158510,128,0,158760:0:0:0:0:
192,192,158635,1,0,0:0:0:0:
320,192,158760,128,0,159010:0:0:0:0:
448,192,158760,128,0,159010:0:0:0:0:
64,192,159010,1,0,0:0:0:0:
320,192,159135,128,0,159385:0:0:0:0:
192,192,159135,128,0,159385:0:0:0:0:
448,192,159260,1,0,0:0:0:0:
192,192,159510,128,0,159760:0:0:0:0:
64,192,159510,128,0,159760:0:0:0:0:
448,192,159760,1,0,0:0:0:0:
320,192,159885,128,0,160010:0:0:0:0:
192,192,160010,128,0,160260:0:0:0:0:
320,192,160135,1,0,0:0:0:0:
64,192,160260,1,0,0:0:0:0:
448,192,160260,128,0,160510:0:0:0:0:
320,192,160510,128,0,160760:0:0:0:0:
192,192,160635,1,0,0:0:0:0:
64,192,160760,1,0,0:0:0:0:
448,192,160760,1,0,0:0:0:0:
192,192,161010,128,0,161135:0:0:0:0:
320,192,161135,1,0,0:0:0:0:
192,192,161260,128,0,161510:0:0:0:0:
64,192,161260,1,0,0:0:0:0:
448,192,161510,128,0,161635:0:0:0:0:
192,192,161635,1,0,0:0:0:0:
64,192,161760,128,0,162135:0:0:0:0:
320,192,161760,1,0,0:0:0:0:
448,192,161760,1,0,0:0:0:0:
192,192,162010,128,0,162135:0:0:0:0:
448,192,162010,128,0,162135:0:0:0:0:
192,192,162260,128,0,162385:0:0:0:0:
320,192,162260,128,0,162385:0:0:0:0:
192,192,162510,128,0,162760:0:0:0:0:
64,192,162510,128,0,162760:0:0:0:0:
448,192,162635,1,0,0:0:0:0:
320,192,162760,1,0,0:0:0:0:
448,192,162947,128,0,163197:0:0:0:0:
320,192,163010,128,0,163260:0:0:0:0:
64,192,163260,1,0,0:0:0:0:
448,192,163260,1,0,0:0:0:0:
192,192,163385,1,0,0:0:0:0:
320,192,163510,1,0,0:0:0:0:
64,192,163635,1,0,0:0:0:0:
448,192,163760,128,0,164010:0:0:0:0:
192,192,163760,1,0,0:0:0:0:
320,192,164010,128,0,164260:0:0:0:0:
64,192,164010,1,0,0:0:0:0:
192,192,164260,1,0,0:0:0:0:
64,192,164260,1,0,0:0:0:0:
320,192,164385,1,0,0:0:0:0:
448,192,164385,1,0,0:0:0:0:
192,192,164510,1,0,0:0:0:0:
64,192,164510,1,0,0:0:0:0:
320,192,164635,1,0,0:0:0:0:
448,192,164760,128,0,165260:0:0:0:0:
192,192,164760,1,0,0:0:0:0:
64,192,164760,1,0,0:0:0:0:
320,192,165010,1,0,0:0:0:0:
64,192,165135,1,0,0:0:0:0:
192,192,165260,1,0,0:0:0:0:
320,192,165260,1,0,0:0:0:0:
448,192,165510,128,0,165885:0:0:0:0:
320,192,165635,1,0,0:0:0:0:
192,192,165760,1,0,0:0:0:0:
64,192,165760,1,0,0:0:0:0:
320,192,166010,128,0,166135:0:0:0:0:
192,192,166135,1,0,0:0:0:0:
448,192,166260,128,0,166510:0:0:0:0:
64,192,166260,1,0,0:0:0:0:
320,192,166510,128,0,166760:0:0:0:0:
64,192,166760,128,0,167010:0:0:0:0:
192,192,166760,128,0,167010:0:0:0:0:
448,192,167010,1,0,0:0:0:0:
192,192,167135,128,0,167385:0:0:0:0:
320,192,167135,128,0,167385:0:0:0:0:
448,192,167260,1,0,0:0:0:0:
64,192,167385,128,0,167510:0:0:0:0:
320,192,167510,128,0,167760:0:0:0:0:
448,192,167510,128,0,168135:0:0:0:0:
192,192,167635,1,0,0:0:0:0:
64,192,167760,1,0,0:0:0:0:
64,192,168010,128,0,168135:0:0:0:0:
192,192,168010,128,0,168135:0:0:0:0:
192,192,168260,128,0,168385:0:0:0:0:
320,192,168260,128,0,168385:0:0:0:0:
320,192,168510,128,0,168760:0:0:0:0:
448,192,168510,128,0,168760:0:0:0:0:
64,192,168760,128,0,169510:0:0:0:0:
192,192,168760,1,0,0:0:0:0:
192,192,169010,1,0,0:0:0:0:
448,192,169135,1,0,0:0:0:0:
320,192,169260,1,0,0:0:0:0:
192,192,169260,1,0,0:0:0:0:
448,192,169510,128,0,169635:0:0:0:0:
320,192,169635,128,0,169760:0:0:0:0:
64,192,169760,1,0,0:0:0:0:
192,192,169760,128,0,169885:0:0:0:0:
320,192,169885,128,0,170010:0:0:0:0:
448,192,170010,128,0,170135:0:0:0:0:
64,192,170135,128,0,170385:0:0:0:0:
320,192,170260,1,0,0:0:0:0:
448,192,170260,1,0,0:0:0:0:
192,192,170385,1,0,0:0:0:0:
192,192,170510,128,0,170635:0:0:0:0:
320,192,170635,128,0,170760:0:0:0:0:
64,192,170760,128,0,171135:0:0:0:0:
448,192,170760,128,0,171135:0:0:0:0:
320,192,171010,1,0,0:0:0:0:
192,192,171135,1,0,0:0:0:0:
64,192,171260,1,0,0:0:0:0:
448,192,171260,1,0,0:0:0:0:
192,192,171510,1,0,0:0:0:0:
448,192,171635,1,0,0:0:0:0:
64,192,171760,128,0,171885:0:0:0:0:
320,192,171760,1,0,0:0:0:0:
192,192,171885,128,0,172010:0:0:0:0:
448,192,172010,128,0,172135:0:0:0:0:
320,192,172135,128,0,172260:0:0:0:0:
64,192,172260,1,0,0:0:0:0:
192,192,172260,128,0,172385:0:0:0:0:
320,192,172385,128,0,172510:0:0:0:0:
448,192,172510,128,0,172635:0:0:0:0:
192,192,172635,128,0,172760:0:0:0:0:
64,192,172760,1,0,0:0:0:0:
320,192,172760,1,0,0:0:0:0:
448,192,172760,1,0,0:0:0:0:
192,192,173010,1,0,0:0:0:0:
192,192,173135,1,0,0:0:0:0:
448,192,173260,1,0,0:0:0:0:
320,192,173260,1,0,0:0:0:0:
64,192,173510,128,0,173635:0:0:0:0:
192,192,173635,128,0,173760:0:0:0:0:
448,192,173760,1,0,0:0:0:0:
320,192,173760,128,0,173885:0:0:0:0:
192,192,173885,128,0,174010:0:0:0:0:
64,192,174010,128,0,174135:0:0:0:0:
448,192,174135,128,0,174385:0:0:0:0:
192,192,174260,1,0,0:0:0:0:
64,192,174260,1,0,0:0:0:0:
320,192,174385,1,0,0:0:0:0:
320,192,174510,128,0,174635:0:0:0:0:
192,192,174635,128,0,174760:0:0:0:0:
64,192,174760,128,0,174885:0:0:0:0:
448,192,174760,128,0,175135:0:0:0:0:
192,192,175010,1,0,0:0:0:0:
64,192,175010,1,0,0:0:0:0:
64,192,175260,1,0,0:0:0:0:
448,192,175260,1,0,0:0:0:0:
320,192,175510,1,0,0:0:0:0:
448,192,175510,1,0,0:0:0:0:
192,192,175635,1,0,0:0:0:0:
64,192,175760,1,0,0:0:0:0:
448,192,175760,1,0,0:0:0:0:
320,192,175760,1,0,0:0:0:0:
192,192,175885,1,0,0:0:0:0:
64,192,176010,1,0,0:0:0:0:
448,192,176010,1,0,0:0:0:0:
320,192,176135,1,0,0:0:0:0:
192,192,176260,1,0,0:0:0:0:
64,192,176260,1,0,0:0:0:0:
448,192,176322,1,0,0:0:0:0:
320,192,176385,1,0,0:0:0:0:
64,192,176447,1,0,0:0:0:0:
448,192,176510,1,0,0:0:0:0:
192,192,176572,1,0,0:0:0:0:
64,192,176635,1,0,0:0:0:0:
320,192,176697,1,0,0:0:0:0:
448,192,176760,128,0,176822:0:0:0:0:
192,192,176760,128,0,176822:0:0:0:0:
192,192,177135,128,0,177197:0:0:0:0:
448,192,177135,128,0,177197:0:0:0:0:
192,192,177510,128,0,177572:0:0:0:0:
448,192,177510,128,0,177572:0:0:0:0:
320,192,177510,128,0,178135:0:0:0:0:
