osu file format v14

[General]
AudioFilename: audio.mp3
AudioLeadIn: 0
PreviewTime: 60336
Countdown: 1
SampleSet: Soft
StackLeniency: 0.7
Mode: 0
LetterboxInBreaks: 0
WidescreenStoryboard: 0

[Editor]
DistanceSpacing: 2.2
BeatDivisor: 4
GridSize: 4
TimelineZoom: 1.850016

[Metadata]
Title:Toto x Peter Bence (Piano Cover)
TitleUnicode:Toto x Peter Bence (Piano Cover)
Artist:Africa
ArtistUnicode:Africa
Creator:222slavexx222
Version:Insane
Source:Peter Bence
Tags:Peter Bence, Toto, Africa, Piano, Cover, 222slavexx222
BeatmapID:1794073
BeatmapSetID:858441

[Difficulty]
HPDrainRate:5
CircleSize:3.8
OverallDifficulty:7
ApproachRate:8.5
SliderMultiplier:1.4
SliderTickRate:1

[Events]
//Background and Video events
0,0,"Peter Bence.jpg",0,0
//Break Periods
//Storyboard Layer 0 (Background)
//Storyboard Layer 1 (Fail)
//Storyboard Layer 2 (Pass)
//Storyboard Layer 3 (Foreground)
//Storyboard Sound Samples

[TimingPoints]
1014,299.98625817075,4,2,0,30,1,0
1014,-166.666666666667,4,2,0,30,0,0
60411,-100,4,2,0,40,0,0
61011,-100,4,2,0,45,0,1
82610,-166.666666666667,4,2,0,30,0,0

[HitObjects]
149,204,1014,5,0,0:0:0:0:
195,187,1163,1,0,0:0:0:0:
236,182,1313,1,0,0:0:0:0:
282,185,1463,1,0,0:0:0:0:
321,196,1613,6,0,P|359:204|385:245,1,83.9999974365235
387,266,2063,1,0,0:0:0:0:
354,294,2213,1,0,0:0:0:0:
316,313,2363,1,0,0:0:0:0:
273,327,2513,1,0,0:0:0:0:
228,322,2663,1,0,0:0:0:0:
186,311,2813,6,0,P|148:277|134:239,1,83.9999974365235
273,89,3413,5,0,0:0:0:0:
307,121,3562,1,0,0:0:0:0:
328,167,3712,1,0,0:0:0:0:
332,214,3862,1,0,0:0:0:0:
325,255,4012,6,0,P|305:302|266:319,1,83.9999974365235
255,321,4462,1,0,0:0:0:0:
227,288,4612,1,0,0:0:0:0:
207,247,4762,1,0,0:0:0:0:
194,207,4912,1,0,0:0:0:0:
199,162,5062,1,0,0:0:0:0:
210,120,5212,6,0,P|239:79|282:62,1,83.9999974365235
449,177,5813,6,0,L|450:265,1,83.9999974365235
249,325,6263,1,0,0:0:0:0:
362,212,6413,2,0,L|362:123,1,83.9999974365235
210,161,6863,6,0,L|181:205,1,41.9999987182618
36,291,7163,2,0,L|69:241,1,41.9999987182618
113,117,7463,1,0,0:0:0:0:
167,289,7613,2,0,P|193:321|233:330,1,83.9999974365235
377,185,8213,6,0,L|293:185,1,83.9999974365235
153,76,8663,1,0,0:0:0:0:
204,221,8813,2,0,L|159:311,1,83.9999974365235
122,155,9263,6,0,L|176:155,1,41.9999987182618
361,83,9563,2,0,L|316:103,1,41.9999987182618
272,266,9863,1,0,0:0:0:0:
233,81,10013,2,0,P|196:47|152:35,1,83.9999974365235
82,233,10613,5,0,0:0:0:0:
272,266,10913,2,0,P|304:244|325:202,1,83.9999974365235
351,116,11363,2,0,L|309:128,1,41.9999987182618
129,181,11663,1,0,0:0:0:0:
114,186,11813,1,0,0:0:0:0:
406,197,12113,6,0,P|443:247|445:322,1,125.999996154785
437,335,12713,1,0,0:0:0:0:
412,361,12863,1,0,0:0:0:0:
373,369,13013,5,0,0:0:0:0:
218,308,13313,2,0,P|198:262|212:215,1,83.9999974365235
215,106,13763,2,0,L|191:147,1,41.9999987182618
86,306,14063,1,0,0:0:0:0:
74,323,14213,1,0,0:0:0:0:
287,168,14513,6,0,P|332:127|393:133,1,125.999996154785
417,152,15113,1,0,0:0:0:0:
432,187,15263,1,0,0:0:0:0:
426,221,15413,6,0,P|397:255|350:267,1,83.9999974365235
86,163,16013,2,0,P|115:129|162:117,1,83.9999974365235
277,289,16613,2,0,P|247:322|200:335,1,83.9999974365235
235,95,17213,2,0,P|264:61|311:49,1,83.9999974365235
418,176,17813,2,0,P|432:218|419:264,1,83.9999974365235
94,208,18413,2,0,P|79:165|92:119,1,83.9999974365235
317,42,19013,2,0,P|355:64|375:108,1,83.9999974365235
195,342,19613,2,0,P|156:319|136:275,1,83.9999974365235
169,71,20213,6,0,L|235:130,1,83.9999974365235
360,278,20663,2,0,L|320:246,1,41.9999987182618
130,164,20963,2,0,L|153:201,1,41.9999987182618
231,344,21263,1,0,0:0:0:0:
258,88,21413,6,0,L|254:137,1,41.9999987182618
161,291,21713,2,0,L|203:268,1,41.9999987182618
395,169,22013,1,0,0:0:0:0:
163,62,22313,2,0,L|159:92,1,20.9999993591309
147,190,22463,1,0,0:0:0:0:
231,85,22613,1,0,0:0:0:0:
212,215,22763,1,0,0:0:0:0:
296,111,22912,1,0,0:0:0:0:
158,134,23062,2,0,L|154:164,1,20.9999993591309
142,262,23212,1,0,0:0:0:0:
226,157,23362,1,0,0:0:0:0:
207,287,23512,1,0,0:0:0:0:
291,183,23661,1,0,0:0:0:0:
157,201,23812,2,0,L|153:231,1,20.9999993591309
141,329,23962,1,0,0:0:0:0:
225,224,24112,1,0,0:0:0:0:
206,354,24262,1,0,0:0:0:0:
290,250,24411,1,0,0:0:0:0:
393,348,24562,1,0,0:0:0:0:
393,348,24637,1,0,0:0:0:0:
393,348,24712,1,0,0:0:0:0:
71,142,25012,6,0,L|105:231,1,83.9999974365235
266,344,25462,2,0,L|312:322,1,41.9999987182618
434,117,25762,2,0,L|390:142,1,41.9999987182618
249,245,26062,1,0,0:0:0:0:
303,29,26212,6,0,L|321:85,1,41.9999987182618
418,292,26512,2,0,L|379:251,1,41.9999987182618
191,114,26812,1,0,0:0:0:0:
349,322,27112,2,0,L|353:292,1,20.9999993591309
365,194,27262,1,0,0:0:0:0:
281,299,27412,1,0,0:0:0:0:
300,169,27562,1,0,0:0:0:0:
216,273,27711,1,0,0:0:0:0:
354,250,27861,2,0,L|358:220,1,20.9999993591309
370,122,28011,1,0,0:0:0:0:
286,227,28161,1,0,0:0:0:0:
305,97,28311,1,0,0:0:0:0:
221,201,28460,1,0,0:0:0:0:
355,183,28611,2,0,L|359:153,1,20.9999993591309
371,55,28761,1,0,0:0:0:0:
287,160,28911,1,0,0:0:0:0:
306,30,29061,1,0,0:0:0:0:
222,134,29210,1,0,0:0:0:0:
140,31,29361,1,0,0:0:0:0:
77,226,29511,1,0,0:0:0:0:
105,290,29812,6,0,L|161:290,1,41.9999987182618
250,262,30112,1,0,0:0:0:0:
313,211,30262,1,0,0:0:0:0:
358,132,30412,2,0,L|263:108,1,83.9999974365235
123,164,31012,5,0,0:0:0:0:
156,233,31162,2,0,L|224:289,1,83.9999974365235
309,288,31612,2,0,L|351:260,1,41.9999987182618
383,180,31912,1,0,0:0:0:0:
365,84,32062,6,0,L|153:77,1,209.999993591309
221,135,33412,5,0,0:0:0:0:
135,184,33562,2,0,L|172:231,1,41.9999987182618
219,307,33862,2,0,L|268:294,1,41.9999987182618
339,241,34162,2,0,L|344:157,1,83.9999974365235
344,123,34612,5,0,0:0:0:0:
279,97,34762,2,0,L|226:96,1,41.9999987182618
254,178,35062,2,0,L|198:175,1,41.9999987182618
166,244,35362,2,0,L|120:244,1,41.9999987182618
170,326,35662,6,0,L|222:325,1,41.9999987182618
246,249,35962,2,0,L|290:248,1,41.9999987182618
292,169,36262,2,0,L|347:169,1,41.9999987182618
344,92,36562,2,0,P|390:93|421:122,1,83.9999974365235
427,197,37012,6,0,P|382:287|308:315,1,167.999994873047
119,195,37912,1,0,0:0:0:0:
119,195,37987,1,0,0:0:0:0:
119,195,38062,1,0,0:0:0:0:
119,195,38137,1,0,0:0:0:0:
119,195,38212,6,0,L|153:284,1,83.9999974365235
247,305,38662,2,0,L|301:288,1,41.9999987182618
242,206,38962,2,0,L|275:164,1,41.9999987182618
330,92,39262,5,0,0:0:0:0:
385,172,39412,2,0,L|363:227,1,41.9999987182618
285,162,39712,2,0,L|246:121,1,41.9999987182618
158,93,40012,2,0,P|103:175|111:214,1,125.999996154785
192,288,40612,5,0,0:0:0:0:
334,276,40912,2,0,L|326:217,1,41.9999987182618
253,196,41212,2,0,L|250:151,1,41.9999987182618
173,108,41512,1,0,0:0:0:0:
108,168,41662,6,0,L|106:226,1,41.9999987182618
139,309,41962,2,0,L|231:324,1,83.9999974365235
314,307,42412,1,0,0:0:0:0:
365,232,42562,2,0,L|387:182,1,41.9999987182618
352,88,42862,6,0,L|132:57,1,209.999993591309
105,209,44212,5,0,0:0:0:0:
185,211,44362,1,0,0:0:0:0:
262,215,44512,1,0,0:0:0:0:
340,218,44662,2,0,L|375:258,1,41.9999987182618
352,331,44961,2,0,L|257:324,1,83.9999974365235
157,318,45411,5,0,0:0:0:0:
176,228,45561,2,0,L|232:211,1,41.9999987182618
303,259,45861,2,0,L|301:208,1,41.9999987182618
267,129,46161,1,0,0:0:0:0:
203,69,46311,6,0,L|103:146,1,125.999996154785
94,239,46911,1,0,0:0:0:0:
119,313,47061,2,0,L|175:311,1,41.9999987182618
267,298,47361,2,0,L|350:275,1,83.9999974365235
379,188,47811,6,0,P|383:118|306:63,1,167.999994873047
119,195,49011,6,0,L|153:284,1,83.9999974365235
276,322,49461,2,0,L|330:305,1,41.9999987182618
256,183,49761,2,0,L|289:141,1,41.9999987182618
308,49,50061,5,0,0:0:0:0:
401,174,50211,2,0,L|379:229,1,41.9999987182618
281,149,50511,2,0,L|242:108,1,41.9999987182618
147,79,50811,2,0,P|102:85|69:128,1,83.9999974365235
412,185,51411,5,0,0:0:0:0:
179,308,51711,2,0,L|236:300,1,41.9999987182618
315,278,52011,2,0,L|339:233,1,41.9999987182618
336,140,52311,5,0,0:0:0:0:
254,104,52461,2,0,L|197:104,1,41.9999987182618
134,164,52761,2,0,L|122:220,1,41.9999987182618
95,273,53136,5,0,0:0:0:0:
102,276,53211,2,0,L|124:285,1,20.9999993591309
152,295,53361,2,0,L|203:296,1,41.9999987182618
288,317,53811,2,0,P|379:284|402:209,1,167.999994873047
303,86,55011,6,0,L|252:84,1,41.9999987182618
110,123,55311,1,0,0:0:0:0:
155,294,55461,2,0,L|198:308,1,41.9999987182618
401,188,55761,1,0,0:0:0:0:
239,88,56211,5,0,0:0:0:0:
160,109,56361,2,0,L|121:149,1,41.9999987182618
166,300,56661,2,0,L|216:301,1,41.9999987182618
363,264,56961,1,0,0:0:0:0:
352,128,57111,2,0,P|309:96|261:85,1,83.9999974365235
68,219,57711,1,0,0:0:0:0:
443,320,58011,1,0,0:0:0:0:
256,192,58311,12,0,60411,0:0:0:0:
70,244,61011,6,0,L|159:267,1,70
257,320,61311,1,0,0:0:0:0:
214,174,61461,1,0,0:0:0:0:
370,233,61611,2,0,P|393:193|391:151,1,70
310,75,61911,5,0,0:0:0:0:
174,72,62061,2,0,P|128:84|106:117,1,70
214,174,62361,2,0,L|253:245,1,70
379,315,62661,2,0,L|405:238,1,70
371,99,62961,2,0,P|333:64|242:44,1,140
214,174,63411,5,0,0:0:0:0:
79,131,64311,5,0,0:0:0:0:
281,271,64461,2,0,P|346:244|397:118,1,210
79,131,65061,2,0,L|224:136,1,140
360,235,65511,2,0,L|346:148,1,70
213,248,65811,1,0,0:0:0:0:
332,62,66111,6,0,L|257:63,1,70
117,127,66411,1,0,0:0:0:0:
91,215,66560,1,0,0:0:0:0:
118,306,66710,1,0,0:0:0:0:
203,340,66860,1,0,0:0:0:0:
293,315,67010,1,0,0:0:0:0:
393,214,67160,6,0,L|321:214,1,70
176,49,67460,2,0,L|187:120,1,70
75,261,67760,2,0,L|220:251,1,140
390,57,68210,1,0,0:0:0:0:
291,233,68660,5,0,0:0:0:0:
196,164,68810,1,0,0:0:0:0:
224,48,68960,2,0,L|144:48,1,70
68,241,69260,2,0,P|143:308|267:307,1,210
174,160,69860,5,0,0:0:0:0:
318,72,70310,1,0,0:0:0:0:
120,275,70610,6,0,L|212:288,1,70
417,276,70910,2,0,L|408:194,1,70
318,72,71210,2,0,L|215:73,1,70
206,231,71510,5,0,0:0:0:0:
130,61,71660,2,0,P|51:131|88:295,1,280
174,168,72410,1,0,0:0:0:0:
300,325,72710,1,0,0:0:0:0:
235,101,72860,2,0,P|328:60|442:253,1,350
153,171,73910,5,0,0:0:0:0:
235,296,74060,2,0,L|159:286,1,70
338,148,74360,1,0,0:0:0:0:
153,171,74510,1,0,0:0:0:0:
254,193,74660,6,0,P|235:121|165:72,1,140
63,119,75110,2,0,L|63:208,1,70
152,337,75410,2,0,L|235:332,1,70
387,189,75710,2,0,L|407:107,1,70
245,235,76010,5,0,0:0:0:0:
248,142,76160,1,0,0:0:0:0:
184,82,76310,1,0,0:0:0:0:
96,85,76460,1,0,0:0:0:0:
49,164,76610,1,0,0:0:0:0:
136,261,76760,6,0,L|44:267,1,70
323,313,77060,2,0,L|254:314,1,70
249,76,77360,2,0,L|269:218,1,140
64,341,77810,1,0,0:0:0:0:
110,164,78260,1,0,0:0:0:0:
274,128,78410,1,0,0:0:0:0:
269,326,78560,2,0,L|419:326,1,140
110,73,79010,5,0,0:0:0:0:
292,184,79760,1,0,0:0:0:0:
333,84,79910,2,0,L|410:88,1,70
115,291,80210,5,0,0:0:0:0:
379,124,80960,1,0,0:0:0:0:
446,262,81110,2,0,L|382:318,1,70
92,79,81410,5,0,0:0:0:0:
379,124,82160,1,0,0:0:0:0:
393,195,82610,6,0,L|359:284,1,83.9999974365235
241,329,83060,2,0,L|187:312,1,41.9999987182618
275,192,83360,2,0,L|242:150,1,41.9999987182618
138,72,83660,5,0,0:0:0:0:
86,187,83810,2,0,L|108:242,1,41.9999987182618
255,191,84110,2,0,L|294:150,1,41.9999987182618
424,58,84410,1,0,0:0:0:0:
436,192,84709,5,0,0:0:0:0:
436,297,84859,1,0,0:0:0:0:
346,245,85009,1,0,0:0:0:0:
346,349,85159,1,0,0:0:0:0:
256,298,85309,1,0,0:0:0:0:
166,349,85459,1,0,0:0:0:0:
166,245,85609,1,0,0:0:0:0:
76,297,85759,1,0,0:0:0:0:
76,192,85909,1,0,0:0:0:0:
76,87,86059,1,0,0:0:0:0:
166,139,86209,5,0,0:0:0:0:
166,35,86359,1,0,0:0:0:0:
256,86,86509,1,0,0:0:0:0:
346,35,86659,1,0,0:0:0:0:
346,139,86809,1,0,0:0:0:0:
436,87,86959,1,0,0:0:0:0:
436,192,87109,1,0,0:0:0:0:
119,195,87409,6,0,L|153:284,1,83.9999974365235
264,322,87859,2,0,L|318:305,1,41.9999987182618
245,202,88159,2,0,L|278:160,1,41.9999987182618
349,79,88459,5,0,0:0:0:0:
420,183,88609,2,0,L|398:238,1,41.9999987182618
285,162,88909,2,0,L|246:121,1,41.9999987182618
103,63,89209,1,0,0:0:0:0:
425,195,89509,5,0,0:0:0:0:
425,290,89659,1,0,0:0:0:0:
344,243,89809,1,0,0:0:0:0:
344,338,89959,1,0,0:0:0:0:
263,291,90109,1,0,0:0:0:0:
182,338,90259,1,0,0:0:0:0:
182,243,90409,1,0,0:0:0:0:
101,290,90559,1,0,0:0:0:0:
101,195,90709,1,0,0:0:0:0:
101,94,90859,1,0,0:0:0:0:
182,141,91009,5,0,0:0:0:0:
182,46,91159,1,0,0:0:0:0:
263,93,91309,1,0,0:0:0:0:
344,46,91459,1,0,0:0:0:0:
344,141,91609,1,0,0:0:0:0:
425,94,91759,1,0,0:0:0:0:
425,189,91909,1,0,0:0:0:0:
342,230,92209,6,0,L|308:319,1,83.9999974365235
225,325,92659,2,0,L|171:308,1,41.9999987182618
255,229,92959,2,0,L|222:187,1,41.9999987182618
175,101,93259,5,0,0:0:0:0:
116,176,93409,2,0,L|138:231,1,41.9999987182618
229,195,93709,2,0,L|268:154,1,41.9999987182618
358,77,94009,1,0,0:0:0:0:
431,218,94309,5,0,0:0:0:0:
431,302,94459,1,0,0:0:0:0:
359,260,94609,1,0,0:0:0:0:
359,344,94759,1,0,0:0:0:0:
287,302,94909,1,0,0:0:0:0:
215,344,95059,1,0,0:0:0:0:
215,260,95209,1,0,0:0:0:0:
143,302,95359,1,0,0:0:0:0:
143,218,95509,1,0,0:0:0:0:
143,134,95659,1,0,0:0:0:0:
215,176,95809,5,0,0:0:0:0:
215,92,95959,1,0,0:0:0:0:
287,134,96109,1,0,0:0:0:0:
359,92,96259,1,0,0:0:0:0:
359,176,96409,1,0,0:0:0:0:
431,134,96559,1,0,0:0:0:0:
431,218,96709,1,0,0:0:0:0:
119,195,97008,6,0,L|153:284,1,83.9999974365235
214,305,97458,2,0,L|268:288,1,41.9999987182618
244,223,97758,2,0,L|277:181,1,41.9999987182618
325,121,98058,5,0,0:0:0:0:
383,197,98208,2,0,L|361:252,1,41.9999987182618
334,305,98508,2,0,L|295:264,1,41.9999987182618
244,223,98808,1,0,0:0:0:0:
256,192,99109,12,0,101808,0:0:0:0:
