osu file format v14

[General]
AudioFilename: NouCum.mp3
AudioLeadIn: 1500
PreviewTime: 38732
Countdown: 0
SampleSet: Normal
StackLeniency: 0.7
Mode: 1
LetterboxInBreaks: 0
WidescreenStoryboard: 1

[Editor]
DistanceSpacing: 0.9
BeatDivisor: 2
GridSize: 16
TimelineZoom: 1

[Metadata]
Title:S.M.L* (TV size ver.)
TitleUnicode:S・M・L☆ (TV size ver.)
Artist:Afilia Saga
ArtistUnicode:アフィリア・サーガ
Creator:Neppu
Version:Kantan
Source:俺の脳内選択肢が、学園ラブコメを全力で邪魔している
Tags:NouCome sml Ore no Nounai Sentakushi ga, Gakuen Lovecome o Zenryoku de Jama Shiteiru My Mental Choices are Completely Interfering with my School Romantic Comedy のうコメ 桃井はるこ Momoi Haruko 濱田幹浩 Hamada Mikihiro MACARONI op opening taiko_maniac1811 JUDYDANNY qoot8123 Jerry
BeatmapID:323812
BeatmapSetID:126770

[Difficulty]
HPDrainRate:8
CircleSize:5
OverallDifficulty:3
ApproachRate:5
SliderMultiplier:1.4
SliderTickRate:1

[Events]
//Background and Video events
0,0,"normaldiffbg.jpg",0,60
//Break Periods
//Storyboard Layer 0 (Background)
//Storyboard Layer 1 (Fail)
//Storyboard Layer 2 (Pass)
//Storyboard Layer 3 (Foreground)
//Storyboard Sound Samples

[TimingPoints]
405,300,4,1,0,100,1,0
38805,-100,4,1,0,100,0,1
67605,-100,4,1,0,100,0,0

[Colours]
Combo1 : 217,234,255
Combo2 : 210,255,210

[HitObjects]
256,192,405,5,4,0:0:0:0:
256,192,1605,1,0,0:0:0:0:
256,192,2805,1,0,0:0:0:0:
256,192,4005,1,0,0:0:0:0:
256,192,4305,1,0,0:0:0:0:
256,192,4905,1,8,0:0:0:0:
256,192,5205,1,4,0:0:0:0:
256,192,6405,1,0,0:0:0:0:
256,192,7605,1,0,0:0:0:0:
256,192,8205,1,8,0:0:0:0:
256,192,8805,1,0,0:0:0:0:
256,192,9405,1,8,0:0:0:0:
256,192,9705,1,8,0:0:0:0:
256,192,10005,5,0,0:0:0:0:
256,192,11205,1,0,0:0:0:0:
256,192,11805,1,8,0:0:0:0:
256,192,12405,1,0,0:0:0:0:
256,192,13605,1,8,0:0:0:0:
256,192,14205,1,8,0:0:0:0:
256,192,14805,1,0,0:0:0:0:
256,192,15405,1,8,0:0:0:0:
256,192,16005,1,0,0:0:0:0:
256,192,16605,1,0,0:0:0:0:
256,192,17205,1,8,0:0:0:0:
256,192,18405,1,0,0:0:0:0:
256,192,18705,1,8,0:0:0:0:
256,192,19305,1,8,0:0:0:0:
256,192,19605,5,4,0:0:0:0:
256,192,20805,1,0,0:0:0:0:
256,192,21405,1,8,0:0:0:0:
256,192,22005,1,0,0:0:0:0:
256,192,23205,1,8,0:0:0:0:
256,192,23805,1,8,0:0:0:0:
256,192,24405,1,0,0:0:0:0:
256,192,25605,1,0,0:0:0:0:
256,192,26205,1,8,0:0:0:0:
256,192,26805,1,0,0:0:0:0:
256,192,27405,1,0,0:0:0:0:
256,192,28005,1,8,0:0:0:0:
256,192,28605,1,8,0:0:0:0:
256,192,28905,1,8,0:0:0:0:
256,192,29205,5,4,0:0:0:0:
256,192,30405,1,0,0:0:0:0:
256,192,31005,1,8,0:0:0:0:
256,192,31605,1,0,0:0:0:0:
256,192,32805,1,8,0:0:0:0:
256,192,33405,1,8,0:0:0:0:
256,192,34005,1,4,0:0:0:0:
256,192,34605,1,4,0:0:0:0:
256,192,35205,1,12,0:0:0:0:
256,192,35805,1,12,0:0:0:0:
256,192,36405,1,0,0:0:0:0:
256,192,37005,1,8,0:0:0:0:
256,192,37605,12,0,38205,0:0:0:0:
256,192,38805,5,4,0:0:0:0:
256,192,39405,1,8,0:0:0:0:
256,192,40005,1,0,0:0:0:0:
256,192,40305,1,0,0:0:0:0:
256,192,40605,1,8,0:0:0:0:
256,192,41205,1,0,0:0:0:0:
256,192,42405,1,0,0:0:0:0:
256,192,43005,1,8,0:0:0:0:
256,192,43605,1,4,0:0:0:0:
256,192,44805,1,0,0:0:0:0:
256,192,45405,1,0,0:0:0:0:
256,192,45705,1,8,0:0:0:0:
256,192,46005,1,0,0:0:0:0:
256,192,47205,1,8,0:0:0:0:
256,192,47805,1,8,0:0:0:0:
256,192,48105,1,8,0:0:0:0:
256,192,48405,5,4,0:0:0:0:
256,192,49005,1,8,0:0:0:0:
256,192,49605,1,0,0:0:0:0:
256,192,49905,1,0,0:0:0:0:
256,192,50205,1,8,0:0:0:0:
256,192,50805,1,0,0:0:0:0:
256,192,52005,1,0,0:0:0:0:
256,192,52605,1,8,0:0:0:0:
256,192,53205,1,4,0:0:0:0:
256,192,54405,1,0,0:0:0:0:
256,192,55005,1,8,0:0:0:0:
256,192,55305,1,8,0:0:0:0:
256,192,55605,1,0,0:0:0:0:
256,192,56805,1,8,0:0:0:0:
256,192,57405,1,8,0:0:0:0:
256,192,57705,1,8,0:0:0:0:
256,192,58005,5,4,0:0:0:0:
256,192,58605,1,8,0:0:0:0:
256,192,59205,1,0,0:0:0:0:
256,192,59805,1,8,0:0:0:0:
256,192,60105,1,0,0:0:0:0:
256,192,60405,1,0,0:0:0:0:
256,192,61005,1,8,0:0:0:0:
256,192,61605,1,0,0:0:0:0:
256,192,62805,1,0,0:0:0:0:
256,192,63405,1,0,0:0:0:0:
256,192,64005,1,8,0:0:0:0:
256,192,64605,1,8,0:0:0:0:
256,192,64905,1,8,0:0:0:0:
256,192,65205,1,4,0:0:0:0:
256,192,65805,1,12,0:0:0:0:
256,192,66405,1,4,0:0:0:0:
256,192,67005,1,8,0:0:0:0:
256,192,67305,1,0,0:0:0:0:
256,192,67605,5,4,0:0:0:0:
256,192,68805,1,0,0:0:0:0:
256,192,69405,1,8,0:0:0:0:
256,192,70005,1,0,0:0:0:0:
256,192,71205,1,0,0:0:0:0:
256,192,71805,1,0,0:0:0:0:
256,192,72405,1,8,0:0:0:0:
256,192,73605,1,0,0:0:0:0:
256,192,74205,1,8,0:0:0:0:
256,192,74805,1,0,0:0:0:0:
256,192,75405,1,0,0:0:0:0:
256,192,76005,1,8,0:0:0:0:
256,192,76605,1,8,0:0:0:0:
256,192,77205,5,4,0:0:0:0:
256,192,78405,1,0,0:0:0:0:
256,192,79005,1,8,0:0:0:0:
256,192,79605,1,4,0:0:0:0:
256,192,80805,1,0,0:0:0:0:
256,192,81405,1,8,0:0:0:0:
256,192,82005,1,4,0:0:0:0:
256,192,83205,1,0,0:0:0:0:
256,192,83805,1,8,0:0:0:0:
256,192,84405,1,4,0:0:0:0:
256,192,85605,1,0,0:0:0:0:
256,192,86205,1,8,0:0:0:0:
256,192,86505,1,8,0:0:0:0:
256,192,86805,1,4,0:0:0:0:
