osu file format v14

[General]
AudioFilename: NouCum.mp3
AudioLeadIn: 1500
PreviewTime: 38732
Countdown: 0
SampleSet: Normal
StackLeniency: 0.7
Mode: 1
LetterboxInBreaks: 0
WidescreenStoryboard: 1

[Editor]
Bookmarks: 10005,19605,46530
DistanceSpacing: 0.9
BeatDivisor: 4
GridSize: 32
TimelineZoom: 3.599999

[Metadata]
Title:S.M.L* (TV size ver.)
TitleUnicode:S・M・L☆ (TV size ver.)
Artist:Afilia Saga
ArtistUnicode:アフィリア・サーガ
Creator:Neppu
Version:JuDa's Oni
Source:俺の脳内選択肢が、学園ラブコメを全力で邪魔している
Tags:NouCome sml Ore no Nounai Sentakushi ga, Gakuen Lovecome o Zenryoku de Jama Shiteiru My Mental Choices are Completely Interfering with my School Romantic Comedy のうコメ 桃井はるこ Momoi Haruko 濱田幹浩 Hamada Mikihiro MACARONI op opening taiko_maniac1811 JUDYDANNY qoot8123 Jerry
BeatmapID:352605
BeatmapSetID:126770

[Difficulty]
HPDrainRate:6
CircleSize:5
OverallDifficulty:6
ApproachRate:5
SliderMultiplier:1.4
SliderTickRate:1

[Events]
//Background and Video events
0,0,"juda.jpg",0,60
//Break Periods
//Storyboard Layer 0 (Background)
//Storyboard Layer 1 (Fail)
//Storyboard Layer 2 (Pass)
//Storyboard Layer 3 (Foreground)
//Storyboard Sound Samples

[TimingPoints]
405,300,4,1,0,100,1,0
38805,-100,4,1,0,100,0,1
67605,-100,4,1,0,100,0,0

[Colours]
Combo1 : 217,234,255
Combo2 : 210,255,210

[HitObjects]
256,192,405,5,4,0:0:0:0:
256,192,705,1,2,0:0:0:0:
256,192,855,1,0,0:0:0:0:
256,192,1005,1,0,0:0:0:0:
256,192,1080,1,0,0:0:0:0:
256,192,1155,1,0,0:0:0:0:
256,192,1305,1,2,0:0:0:0:
256,192,1455,1,8,0:0:0:0:
256,192,1530,1,2,0:0:0:0:
256,192,1605,1,0,0:0:0:0:
256,192,1755,1,0,0:0:0:0:
352,16,1905,1,2,0:0:0:0:
256,192,2055,1,2,0:0:0:0:
256,192,2205,1,0,0:0:0:0:
432,144,2280,1,0,0:0:0:0:
448,160,2355,1,0,0:0:0:0:
464,176,2430,1,0,0:0:0:0:
496,16,2505,1,2,0:0:0:0:
512,16,2655,1,2,0:0:0:0:
0,144,2805,5,0,0:0:0:0:
48,64,3105,1,2,0:0:0:0:
80,336,3255,1,0,0:0:0:0:
112,96,3405,5,0,0:0:0:0:
128,96,3480,1,0,0:0:0:0:
144,96,3555,1,0,0:0:0:0:
176,32,3705,1,2,0:0:0:0:
224,32,3855,1,2,0:0:0:0:
240,32,3930,1,2,0:0:0:0:
272,32,4005,1,0,0:0:0:0:
112,320,4155,5,8,0:0:0:0:
432,144,4305,1,8,0:0:0:0:
80,112,4455,1,8,0:0:0:0:
320,336,4755,1,12,0:0:0:0:
272,32,4905,1,12,0:0:0:0:
192,128,5205,5,4,0:0:0:0:
192,128,5505,1,2,0:0:0:0:
192,128,5655,1,0,0:0:0:0:
196,128,5805,1,0,0:0:0:0:
196,128,5880,1,0,0:0:0:0:
196,128,5955,1,0,0:0:0:0:
196,128,6105,1,2,0:0:0:0:
208,96,6255,1,2,0:0:0:0:
176,64,6330,1,2,0:0:0:0:
176,64,6405,1,0,0:0:0:0:
196,128,6555,1,0,0:0:0:0:
196,128,6705,1,2,0:0:0:0:
196,128,6855,1,2,0:0:0:0:
196,128,7005,1,0,0:0:0:0:
192,128,7080,1,0,0:0:0:0:
196,128,7155,1,0,0:0:0:0:
208,96,7230,1,0,0:0:0:0:
196,128,7305,1,2,0:0:0:0:
208,96,7455,1,0,0:0:0:0:
288,48,7605,5,12,0:0:0:0:
448,144,7755,5,0,0:0:0:0:
352,144,7905,5,0,0:0:0:0:
512,48,8055,5,12,0:0:0:0:
48,256,8355,5,2,0:0:0:0:
112,352,8505,1,0,0:0:0:0:
176,256,8655,1,12,0:0:0:0:
256,368,8955,1,4,0:0:0:0:
336,368,9105,1,4,0:0:0:0:
416,304,9255,1,4,0:0:0:0:
480,240,9405,1,12,0:0:0:0:
176,144,9705,5,6,0:0:0:0:
176,144,9855,5,2,0:0:0:0:
176,144,9930,1,2,0:0:0:0:
176,144,10005,5,0,0:0:0:0:
176,144,10305,1,2,0:0:0:0:
196,128,10605,1,0,0:0:0:0:
176,48,10755,1,0,0:0:0:0:
176,144,10905,1,2,0:0:0:0:
176,144,11205,1,0,0:0:0:0:
176,144,11505,1,2,0:0:0:0:
176,144,11655,1,2,0:0:0:0:
176,80,11805,1,0,0:0:0:0:
176,80,11955,1,0,0:0:0:0:
176,144,12105,1,2,0:0:0:0:
176,144,12405,5,0,0:0:0:0:
176,144,12705,1,2,0:0:0:0:
176,144,13005,1,0,0:0:0:0:
224,128,13155,1,0,0:0:0:0:
176,144,13305,1,2,0:0:0:0:
176,80,13455,1,2,0:0:0:0:
176,144,13605,1,0,0:0:0:0:
176,144,13905,1,2,0:0:0:0:
176,144,14055,1,0,0:0:0:0:
176,48,14355,1,0,0:0:0:0:
176,144,14505,1,2,0:0:0:0:
176,144,14805,5,0,0:0:0:0:
176,144,15105,1,2,0:0:0:0:
176,48,15255,1,2,0:0:0:0:
176,144,15405,1,0,0:0:0:0:
176,176,15555,1,0,0:0:0:0:
176,144,15705,1,2,0:0:0:0:
176,144,16005,1,0,0:0:0:0:
144,64,16155,1,0,0:0:0:0:
176,144,16305,1,2,0:0:0:0:
176,144,16455,1,2,0:0:0:0:
176,144,16605,1,0,0:0:0:0:
176,144,16905,1,2,0:0:0:0:
176,144,17055,1,2,0:0:0:0:
144,64,17130,1,2,0:0:0:0:
176,144,17205,5,0,0:0:0:0:
176,144,17505,1,2,0:0:0:0:
176,80,17805,1,0,0:0:0:0:
176,144,17955,1,0,0:0:0:0:
160,32,18030,1,0,0:0:0:0:
176,144,18105,1,2,0:0:0:0:
176,80,18255,1,0,0:0:0:0:
64,240,18405,5,12,0:0:0:0:
128,288,18555,1,4,0:0:0:0:
192,240,18705,1,4,0:0:0:0:
256,240,18855,1,12,0:0:0:0:
336,192,19155,1,12,0:0:0:0:
400,192,19305,1,12,0:0:0:0:
176,144,19605,5,4,0:0:0:0:
176,144,19905,1,2,0:0:0:0:
176,144,20205,1,0,0:0:0:0:
176,144,20355,1,0,0:0:0:0:
176,144,20505,1,2,0:0:0:0:
176,144,20805,1,0,0:0:0:0:
176,144,21105,1,2,0:0:0:0:
176,144,21255,1,2,0:0:0:0:
176,144,21405,1,0,0:0:0:0:
176,144,21705,1,2,0:0:0:0:
160,32,21855,1,0,0:0:0:0:
176,144,22005,1,0,0:0:0:0:
176,144,22305,1,2,0:0:0:0:
176,144,22455,1,0,0:0:0:0:
176,144,22605,1,0,0:0:0:0:
176,144,22755,1,0,0:0:0:0:
176,144,22905,1,2,0:0:0:0:
176,144,23205,1,0,0:0:0:0:
176,144,23505,1,2,0:0:0:0:
176,144,23655,1,0,0:0:0:0:
176,144,23955,1,0,0:0:0:0:
176,144,24105,1,2,0:0:0:0:
176,144,24405,1,4,0:0:0:0:
176,144,24705,1,2,0:0:0:0:
176,144,24855,1,2,0:0:0:0:
176,144,25005,1,0,0:0:0:0:
192,80,25155,1,0,0:0:0:0:
176,144,25305,1,2,0:0:0:0:
176,144,25605,1,0,0:0:0:0:
176,144,25755,1,0,0:0:0:0:
176,144,25905,1,2,0:0:0:0:
176,144,26055,1,2,0:0:0:0:
192,80,26205,1,0,0:0:0:0:
176,144,26505,1,2,0:0:0:0:
176,144,26805,1,0,0:0:0:0:
176,144,26955,1,0,0:0:0:0:
160,16,27030,1,0,0:0:0:0:
176,144,27105,1,2,0:0:0:0:
176,144,27255,1,2,0:0:0:0:
176,144,27405,1,0,0:0:0:0:
176,144,27555,1,0,0:0:0:0:
160,16,27630,1,0,0:0:0:0:
176,144,27705,1,2,0:0:0:0:
176,144,27855,1,2,0:0:0:0:
176,144,28005,1,4,0:0:0:0:
176,144,28305,1,4,0:0:0:0:
176,144,28605,1,6,0:0:0:0:
176,144,28905,1,6,0:0:0:0:
256,224,29205,5,4,0:0:0:0:
176,144,29505,1,2,0:0:0:0:
176,144,29655,1,2,0:0:0:0:
304,160,29805,1,0,0:0:0:0:
176,144,29955,1,0,0:0:0:0:
176,144,30105,1,2,0:0:0:0:
352,272,30405,1,0,0:0:0:0:
112,112,30555,1,0,0:0:0:0:
176,112,30630,1,0,0:0:0:0:
176,144,30705,1,2,0:0:0:0:
176,144,30855,1,2,0:0:0:0:
416,128,31005,1,0,0:0:0:0:
176,144,31080,1,0,0:0:0:0:
176,144,31155,1,0,0:0:0:0:
176,144,31305,1,2,0:0:0:0:
256,224,31605,1,4,0:0:0:0:
176,144,31905,1,2,0:0:0:0:
176,112,32055,1,2,0:0:0:0:
304,160,32205,1,0,0:0:0:0:
176,144,32355,1,0,0:0:0:0:
176,112,32505,1,2,0:0:0:0:
352,80,32805,1,2,0:0:0:0:
208,64,32955,1,2,0:0:0:0:
176,144,33030,1,2,0:0:0:0:
176,112,33105,1,0,0:0:0:0:
176,144,33255,1,2,0:0:0:0:
432,128,33405,1,0,0:0:0:0:
208,64,33480,1,0,0:0:0:0:
176,144,33555,1,0,0:0:0:0:
176,144,33705,1,2,0:0:0:0:
176,144,33855,1,2,0:0:0:0:
176,144,34005,1,4,0:0:0:0:
176,144,34155,1,4,0:0:0:0:
176,144,34605,1,4,0:0:0:0:
176,144,34755,1,4,0:0:0:0:
176,144,35205,1,6,0:0:0:0:
176,144,35355,1,6,0:0:0:0:
176,144,35805,1,6,0:0:0:0:
176,144,35955,1,6,0:0:0:0:
176,144,36405,1,4,0:0:0:0:
176,144,36705,1,2,0:0:0:0:
192,112,36855,1,0,0:0:0:0:
176,144,37005,1,2,0:0:0:0:
192,80,37080,1,2,0:0:0:0:
192,112,37155,1,0,0:0:0:0:
192,112,37230,1,0,0:0:0:0:
192,112,37305,1,2,0:0:0:0:
192,112,37455,1,2,0:0:0:0:
176,144,37605,1,4,0:0:0:0:
160,120,37805,1,4,0:0:0:0:
160,120,38005,1,4,0:0:0:0:
160,120,38205,1,6,0:0:0:0:
160,120,38505,1,2,0:0:0:0:
160,120,38805,5,4,0:0:0:0:
144,96,38955,1,0,0:0:0:0:
140,68,39105,1,2,0:0:0:0:
160,48,39255,1,0,0:0:0:0:
140,68,39405,1,0,0:0:0:0:
160,48,39480,1,0,0:0:0:0:
140,68,39555,1,0,0:0:0:0:
144,96,39630,1,0,0:0:0:0:
140,68,39705,1,2,0:0:0:0:
160,48,39855,1,0,0:0:0:0:
140,68,40005,1,2,0:0:0:0:
140,68,40155,1,0,0:0:0:0:
140,68,40230,1,0,0:0:0:0:
140,68,40305,1,2,0:0:0:0:
140,68,40455,1,2,0:0:0:0:
160,48,40530,1,2,0:0:0:0:
140,68,40605,5,0,0:0:0:0:
140,68,40755,1,0,0:0:0:0:
140,68,40905,1,2,0:0:0:0:
140,68,41055,1,2,0:0:0:0:
140,68,41205,1,0,0:0:0:0:
140,68,41280,1,0,0:0:0:0:
160,48,41355,1,0,0:0:0:0:
140,68,41505,1,2,0:0:0:0:
140,68,41655,1,0,0:0:0:0:
140,68,41805,1,0,0:0:0:0:
160,48,41880,1,0,0:0:0:0:
140,68,41955,1,0,0:0:0:0:
140,68,42105,1,2,0:0:0:0:
192,48,42255,1,2,0:0:0:0:
140,68,42405,1,0,0:0:0:0:
140,68,42555,1,0,0:0:0:0:
144,64,42705,1,2,0:0:0:0:
140,68,42855,1,0,0:0:0:0:
140,68,42930,1,0,0:0:0:0:
140,68,43005,1,2,0:0:0:0:
140,68,43155,1,0,0:0:0:0:
144,64,43305,1,2,0:0:0:0:
160,48,43380,1,2,0:0:0:0:
140,68,43455,1,2,0:0:0:0:
140,68,43530,1,2,0:0:0:0:
140,68,43605,1,0,0:0:0:0:
140,68,43905,1,0,0:0:0:0:
140,68,44055,1,2,0:0:0:0:
140,68,44205,1,0,0:0:0:0:
140,68,44280,1,0,0:0:0:0:
140,68,44355,1,0,0:0:0:0:
140,68,44505,1,2,0:0:0:0:
140,68,44655,1,0,0:0:0:0:
176,48,44730,1,2,0:0:0:0:
140,68,44805,1,0,0:0:0:0:
140,68,45105,1,2,0:0:0:0:
140,68,45255,1,2,0:0:0:0:
140,68,45330,1,2,0:0:0:0:
140,68,45405,1,0,0:0:0:0:
140,68,45555,1,0,0:0:0:0:
140,68,45705,1,2,0:0:0:0:
140,68,46005,1,0,0:0:0:0:
176,16,46155,1,0,0:0:0:0:
140,68,46305,1,2,0:0:0:0:
160,96,46455,1,2,0:0:0:0:
140,68,46605,1,0,0:0:0:0:
140,68,46680,1,0,0:0:0:0:
179,32,46755,1,2,0:0:0:0:
173,44,46830,1,2,0:0:0:0:
140,68,46905,1,0,0:0:0:0:
140,68,47055,1,2,0:0:0:0:
140,68,47205,1,4,0:0:0:0:
140,68,47505,1,4,0:0:0:0:
140,68,47805,1,4,0:0:0:0:
140,68,48105,1,6,0:0:0:0:
140,68,48405,5,4,0:0:0:0:
140,68,48555,1,0,0:0:0:0:
140,68,48705,1,2,0:0:0:0:
140,68,48855,1,0,0:0:0:0:
140,68,49005,1,0,0:0:0:0:
160,32,49080,1,0,0:0:0:0:
160,32,49155,1,0,0:0:0:0:
160,32,49230,1,0,0:0:0:0:
140,68,49305,1,2,0:0:0:0:
160,32,49455,1,0,0:0:0:0:
160,32,49605,1,2,0:0:0:0:
160,32,49755,1,0,0:0:0:0:
160,32,49830,1,0,0:0:0:0:
160,32,49905,1,2,0:0:0:0:
160,32,50055,1,2,0:0:0:0:
140,68,50130,1,2,0:0:0:0:
140,68,50205,5,0,0:0:0:0:
140,68,50355,1,0,0:0:0:0:
140,68,50505,1,2,0:0:0:0:
140,68,50655,1,2,0:0:0:0:
140,68,50805,1,0,0:0:0:0:
160,32,50880,1,0,0:0:0:0:
140,68,50955,1,0,0:0:0:0:
140,68,51105,1,2,0:0:0:0:
160,160,51255,1,0,0:0:0:0:
160,32,51330,1,0,0:0:0:0:
140,68,51405,1,2,0:0:0:0:
140,68,51555,1,0,0:0:0:0:
140,68,51705,1,2,0:0:0:0:
192,32,51855,1,2,0:0:0:0:
144,128,51930,1,2,0:0:0:0:
140,68,52005,1,0,0:0:0:0:
140,68,52155,1,0,0:0:0:0:
160,32,52230,1,0,0:0:0:0:
140,68,52305,1,2,0:0:0:0:
160,32,52455,1,0,0:0:0:0:
160,32,52605,1,2,0:0:0:0:
140,68,52755,1,0,0:0:0:0:
160,32,52830,1,0,0:0:0:0:
140,68,52905,1,2,0:0:0:0:
140,68,53055,1,2,0:0:0:0:
160,32,53130,1,2,0:0:0:0:
140,68,53205,5,0,0:0:0:0:
140,68,53505,1,0,0:0:0:0:
140,68,53655,1,2,0:0:0:0:
140,68,53805,1,0,0:0:0:0:
140,68,53880,1,0,0:0:0:0:
140,68,53955,1,0,0:0:0:0:
140,68,54105,1,2,0:0:0:0:
140,68,54255,1,0,0:0:0:0:
160,32,54330,1,2,0:0:0:0:
140,68,54405,1,0,0:0:0:0:
140,68,54555,1,0,0:0:0:0:
140,68,54705,1,2,0:0:0:0:
140,68,54855,1,0,0:0:0:0:
160,32,54930,1,0,0:0:0:0:
140,68,55005,5,2,0:0:0:0:
140,68,55155,1,0,0:0:0:0:
140,68,55305,1,2,0:0:0:0:
140,68,55605,5,4,0:0:0:0:
140,68,55905,1,2,0:0:0:0:
140,68,56055,1,0,0:0:0:0:
140,68,56205,1,0,0:0:0:0:
140,68,56355,1,0,0:0:0:0:
140,68,56505,1,2,0:0:0:0:
140,68,56655,1,0,0:0:0:0:
16,256,56805,5,2,0:0:0:0:
64,208,56955,5,2,0:0:0:0:
112,208,57030,1,2,0:0:0:0:
160,256,57105,1,0,0:0:0:0:
208,208,57255,5,2,0:0:0:0:
256,208,57330,1,2,0:0:0:0:
304,256,57405,1,0,0:0:0:0:
352,208,57555,5,2,0:0:0:0:
400,208,57630,1,2,0:0:0:0:
448,128,57705,1,0,0:0:0:0:
496,128,57780,1,2,0:0:0:0:
496,128,57855,5,2,0:0:0:0:
496,128,58005,5,4,0:0:0:0:
140,68,58305,1,8,0:0:0:0:
140,68,58455,1,0,0:0:0:0:
140,68,58530,1,0,0:0:0:0:
140,68,58605,1,8,0:0:0:0:
140,68,58755,1,0,0:0:0:0:
140,68,58905,1,8,0:0:0:0:
140,68,59055,1,8,0:0:0:0:
176,32,59130,1,8,0:0:0:0:
140,68,59205,1,0,0:0:0:0:
140,68,59355,1,8,0:0:0:0:
140,68,59505,1,0,0:0:0:0:
140,68,59655,1,8,0:0:0:0:
140,68,59730,1,8,0:0:0:0:
140,68,59805,1,0,0:0:0:0:
140,68,59955,1,8,0:0:0:0:
140,68,60105,1,8,0:0:0:0:
140,68,60405,1,0,0:0:0:0:
176,32,60555,1,0,0:0:0:0:
140,68,60705,1,8,0:0:0:0:
192,48,60855,1,0,0:0:0:0:
128,32,60930,1,0,0:0:0:0:
140,68,61005,1,8,0:0:0:0:
140,68,61155,1,0,0:0:0:0:
140,68,61305,1,8,0:0:0:0:
160,32,61455,1,8,0:0:0:0:
140,68,61530,1,8,0:0:0:0:
160,32,61605,1,0,0:0:0:0:
140,68,61755,1,0,0:0:0:0:
140,68,61905,1,8,0:0:0:0:
160,32,62055,1,0,0:0:0:0:
140,68,62130,1,0,0:0:0:0:
140,68,62205,1,8,0:0:0:0:
140,68,62355,1,0,0:0:0:0:
140,68,62505,1,8,0:0:0:0:
176,64,62655,1,8,0:0:0:0:
176,64,62730,1,8,0:0:0:0:
140,68,62805,1,0,0:0:0:0:
140,68,63105,5,2,0:0:0:0:
140,68,63255,1,2,0:0:0:0:
140,68,63405,1,0,0:0:0:0:
140,68,63555,1,0,0:0:0:0:
140,68,63705,1,2,0:0:0:0:
140,68,63855,1,2,0:0:0:0:
192,32,63930,1,2,0:0:0:0:
192,32,64005,1,0,0:0:0:0:
140,68,64155,1,0,0:0:0:0:
140,68,64305,1,2,0:0:0:0:
192,32,64455,1,0,0:0:0:0:
192,32,64530,1,2,0:0:0:0:
140,68,64605,1,0,0:0:0:0:
140,68,64755,1,0,0:0:0:0:
140,68,64905,1,2,0:0:0:0:
140,68,65055,1,2,0:0:0:0:
140,68,65205,1,4,0:0:0:0:
140,68,65505,1,2,0:0:0:0:
140,68,65805,1,4,0:0:0:0:
140,68,66105,1,2,0:0:0:0:
140,68,66255,1,4,0:0:0:0:
140,68,66555,1,2,0:0:0:0:
140,68,66705,1,4,0:0:0:0:
140,68,67005,1,2,0:0:0:0:
140,68,67105,1,2,0:0:0:0:
140,68,67205,1,0,0:0:0:0:
140,68,67305,1,2,0:0:0:0:
140,68,67605,5,4,0:0:0:0:
140,68,67905,1,0,0:0:0:0:
140,68,68055,1,0,0:0:0:0:
140,68,68205,1,6,0:0:0:0:
140,68,68505,1,0,0:0:0:0:
140,68,68655,1,2,0:0:0:0:
140,68,68955,1,0,0:0:0:0:
140,68,69105,1,0,0:0:0:0:
140,68,69255,1,0,0:0:0:0:
140,68,69405,1,6,0:0:0:0:
140,68,69705,1,2,0:0:0:0:
140,68,69855,1,0,0:0:0:0:
140,68,70005,1,2,0:0:0:0:
140,68,70305,1,0,0:0:0:0:
140,68,70455,1,0,0:0:0:0:
140,68,70605,1,6,0:0:0:0:
140,68,70905,1,2,0:0:0:0:
140,68,71055,1,0,0:0:0:0:
140,68,71355,1,0,0:0:0:0:
140,68,71505,1,2,0:0:0:0:
140,68,71655,1,0,0:0:0:0:
140,68,71805,1,6,0:0:0:0:
140,68,72105,1,6,0:0:0:0:
140,68,72405,5,4,0:0:0:0:
480,320,72705,1,8,0:0:0:0:
140,68,72855,1,0,0:0:0:0:
140,68,73005,1,0,0:0:0:0:
140,68,73080,1,0,0:0:0:0:
140,68,73155,1,0,0:0:0:0:
140,68,73305,1,2,0:0:0:0:
176,16,73455,5,2,0:0:0:0:
140,68,73605,1,0,0:0:0:0:
140,68,73755,1,0,0:0:0:0:
168,58,73830,1,0,0:0:0:0:
140,68,73905,1,2,0:0:0:0:
140,68,74055,1,0,0:0:0:0:
176,64,74130,1,0,0:0:0:0:
140,68,74205,1,2,0:0:0:0:
140,68,74280,1,2,0:0:0:0:
140,68,74355,1,0,0:0:0:0:
140,68,74505,1,2,0:0:0:0:
140,68,74655,1,0,0:0:0:0:
140,68,74805,5,2,0:0:0:0:
176,16,74880,1,2,0:0:0:0:
140,68,74955,1,0,0:0:0:0:
140,68,75105,1,2,0:0:0:0:
140,68,75255,1,0,0:0:0:0:
140,68,75405,1,2,0:0:0:0:
140,68,75480,1,2,0:0:0:0:
140,68,75555,1,0,0:0:0:0:
140,68,75705,1,2,0:0:0:0:
140,68,75855,1,0,0:0:0:0:
140,68,76005,1,2,0:0:0:0:
174,48,76080,1,2,0:0:0:0:
140,68,76155,1,0,0:0:0:0:
140,68,76305,1,2,0:0:0:0:
176,16,76380,1,2,0:0:0:0:
140,68,76455,1,0,0:0:0:0:
140,68,76605,1,2,0:0:0:0:
140,68,76680,1,2,0:0:0:0:
224,112,76755,1,0,0:0:0:0:
224,112,76830,1,0,0:0:0:0:
140,68,76905,1,2,0:0:0:0:
169,39,76980,1,2,0:0:0:0:
169,39,77055,1,2,0:0:0:0:
140,68,77205,5,4,0:0:0:0:
140,68,77355,1,0,0:0:0:0:
140,68,77505,1,2,0:0:0:0:
140,68,77655,1,0,0:0:0:0:
140,68,77805,1,2,0:0:0:0:
140,68,77955,1,0,0:0:0:0:
160,32,78030,1,0,0:0:0:0:
140,68,78105,1,2,0:0:0:0:
140,68,78255,1,0,0:0:0:0:
140,68,78405,1,2,0:0:0:0:
140,68,78555,1,0,0:0:0:0:
140,68,78630,1,0,0:0:0:0:
140,68,78705,1,2,0:0:0:0:
140,68,78855,1,2,0:0:0:0:
140,68,79155,1,6,0:0:0:0:
140,68,79305,1,6,0:0:0:0:
140,68,79605,1,2,0:0:0:0:
140,68,79755,1,0,0:0:0:0:
140,68,79905,1,2,0:0:0:0:
140,68,80055,1,0,0:0:0:0:
140,68,80205,1,2,0:0:0:0:
160,32,80280,1,2,0:0:0:0:
140,68,80355,1,0,0:0:0:0:
140,68,80505,1,2,0:0:0:0:
140,68,80655,1,0,0:0:0:0:
140,68,80805,1,2,0:0:0:0:
160,32,80880,1,2,0:0:0:0:
140,68,80955,1,0,0:0:0:0:
140,68,81105,1,2,0:0:0:0:
140,68,81255,1,2,0:0:0:0:
140,68,81555,1,6,0:0:0:0:
140,68,81705,1,6,0:0:0:0:
140,68,82005,1,0,0:0:0:0:
140,68,82155,1,0,0:0:0:0:
140,68,82305,1,2,0:0:0:0:
140,68,82455,1,0,0:0:0:0:
140,68,82605,1,2,0:0:0:0:
352,224,82755,1,0,0:0:0:0:
352,224,82830,1,0,0:0:0:0:
140,68,82905,1,2,0:0:0:0:
140,68,83055,1,0,0:0:0:0:
140,68,83205,1,2,0:0:0:0:
140,68,83355,1,0,0:0:0:0:
160,32,83430,1,0,0:0:0:0:
140,68,83505,1,2,0:0:0:0:
140,68,83655,1,2,0:0:0:0:
140,68,83955,1,6,0:0:0:0:
140,68,84105,1,6,0:0:0:0:
140,68,84405,1,2,0:0:0:0:
160,32,84555,1,0,0:0:0:0:
140,68,84705,1,2,0:0:0:0:
140,68,84855,1,0,0:0:0:0:
140,68,85005,1,2,0:0:0:0:
160,16,85080,1,2,0:0:0:0:
140,68,85155,1,0,0:0:0:0:
140,68,85305,1,2,0:0:0:0:
140,68,85455,1,0,0:0:0:0:
140,68,85605,1,2,0:0:0:0:
192,48,85680,1,2,0:0:0:0:
140,68,85755,1,0,0:0:0:0:
160,32,85830,1,0,0:0:0:0:
140,68,85905,1,2,0:0:0:0:
160,32,86055,1,2,0:0:0:0:
140,68,86355,1,6,0:0:0:0:
160,32,86505,1,6,0:0:0:0:
140,68,86805,1,4,0:0:0:0:
