osu file format v14

[General]
AudioFilename: NouCum.mp3
AudioLeadIn: 1500
PreviewTime: 38732
Countdown: 0
SampleSet: Normal
StackLeniency: 0.7
Mode: 1
LetterboxInBreaks: 0
WidescreenStoryboard: 1

[Editor]
DistanceSpacing: 1.4
BeatDivisor: 2
GridSize: 16
TimelineZoom: 1

[Metadata]
Title:S.M.L* (TV size ver.)
TitleUnicode:S・M・L☆ (TV size ver.)
Artist:Afilia Saga
ArtistUnicode:アフィリア・サーガ
Creator:Neppu
Version:Futsuu
Source:俺の脳内選択肢が、学園ラブコメを全力で邪魔している
Tags:NouCome sml Ore no Nounai Sentakushi ga, Gakuen Lovecome o Zenryoku de Jama Shiteiru My Mental Choices are Completely Interfering with my School Romantic Comedy のうコメ 桃井はるこ Momoi Haruko 濱田幹浩 Hamada Mikihiro MACARONI op opening taiko_maniac1811 JUDYDANNY qoot8123 Jerry
BeatmapID:323811
BeatmapSetID:126770

[Difficulty]
HPDrainRate:7
CircleSize:5
OverallDifficulty:4
ApproachRate:5
SliderMultiplier:1.4
SliderTickRate:1

[Events]
//Background and Video events
0,0,"normaldiffbg.jpg",0,60
//Break Periods
//Storyboard Layer 0 (Background)
//Storyboard Layer 1 (Fail)
//Storyboard Layer 2 (Pass)
//Storyboard Layer 3 (Foreground)
//Storyboard Sound Samples

[TimingPoints]
405,300,4,1,0,100,1,0
38805,-100,4,1,0,100,0,1
67605,-100,4,1,0,100,0,0

[Colours]
Combo1 : 217,234,255
Combo2 : 210,255,210

[HitObjects]
256,188,405,5,4,0:0:0:0:
256,188,1005,1,8,0:0:0:0:
256,188,1605,1,0,0:0:0:0:
256,188,1905,1,0,0:0:0:0:
256,188,2205,1,8,0:0:0:0:
256,188,2805,1,0,0:0:0:0:
256,188,3405,1,8,0:0:0:0:
256,188,4005,1,0,0:0:0:0:
256,188,4305,1,0,0:0:0:0:
256,188,4905,1,8,0:0:0:0:
256,188,5205,1,4,0:0:0:0:
256,188,5805,1,8,0:0:0:0:
256,188,6405,1,0,0:0:0:0:
256,188,6705,1,0,0:0:0:0:
256,188,7005,1,8,0:0:0:0:
256,188,7605,1,0,0:0:0:0:
256,188,8055,1,8,0:0:0:0:
256,188,8655,1,0,0:0:0:0:
256,188,9105,1,0,0:0:0:0:
256,188,9405,1,8,0:0:0:0:
256,188,9705,1,8,0:0:0:0:
256,188,10005,5,0,0:0:0:0:
256,188,10605,1,8,0:0:0:0:
256,188,11205,1,0,0:0:0:0:
254,190,11805,1,0,0:0:0:0:
254,190,12105,1,8,0:0:0:0:
254,190,12405,1,0,0:0:0:0:
254,190,13005,1,8,0:0:0:0:
254,190,13605,1,0,0:0:0:0:
254,190,14205,1,8,0:0:0:0:
254,190,14505,1,8,0:0:0:0:
254,190,14805,1,0,0:0:0:0:
254,190,15405,1,8,0:0:0:0:
272,272,16005,1,0,0:0:0:0:
257,191,16305,1,0,0:0:0:0:
88,116,16605,1,8,0:0:0:0:
257,191,16905,1,8,0:0:0:0:
392,128,17205,1,0,0:0:0:0:
116,68,17805,1,8,0:0:0:0:
254,192,18405,1,0,0:0:0:0:
254,192,18705,1,8,0:0:0:0:
254,192,19305,1,8,0:0:0:0:
120,292,19605,5,0,0:0:0:0:
416,312,20205,1,8,0:0:0:0:
116,68,20805,1,0,0:0:0:0:
92,184,21105,1,0,0:0:0:0:
148,144,21405,1,8,0:0:0:0:
200,104,22005,1,0,0:0:0:0:
96,256,22605,1,8,0:0:0:0:
260,184,23205,1,0,0:0:0:0:
260,184,23805,1,8,0:0:0:0:
260,184,24105,1,8,0:0:0:0:
260,184,24405,1,0,0:0:0:0:
260,184,25005,1,8,0:0:0:0:
260,184,25605,1,0,0:0:0:0:
260,184,25905,1,0,0:0:0:0:
260,184,26205,1,8,0:0:0:0:
260,184,26805,1,0,0:0:0:0:
260,184,27405,1,0,0:0:0:0:
260,184,28005,1,8,0:0:0:0:
260,184,28305,1,8,0:0:0:0:
260,184,28605,1,8,0:0:0:0:
260,184,28905,1,8,0:0:0:0:
260,184,29205,5,4,0:0:0:0:
260,184,29805,1,8,0:0:0:0:
260,184,30405,1,0,0:0:0:0:
260,184,31005,1,0,0:0:0:0:
260,184,31305,1,8,0:0:0:0:
260,184,31605,1,0,0:0:0:0:
260,184,32205,1,8,0:0:0:0:
260,184,32805,1,0,0:0:0:0:
260,184,33405,1,8,0:0:0:0:
260,184,33705,1,8,0:0:0:0:
260,184,34005,1,4,0:0:0:0:
260,184,34605,1,12,0:0:0:0:
260,184,35205,1,4,0:0:0:0:
260,184,35805,1,12,0:0:0:0:
260,184,36405,1,0,0:0:0:0:
260,184,36705,1,0,0:0:0:0:
260,184,37005,1,8,0:0:0:0:
104,104,37605,2,0,L|400:96,1,280,8|0,0:0|0:0,0:0:0:0:
260,184,38805,5,4,0:0:0:0:
260,184,39405,1,8,0:0:0:0:
260,184,40005,1,0,0:0:0:0:
260,184,40305,1,0,0:0:0:0:
260,184,40605,1,8,0:0:0:0:
260,184,40905,1,8,0:0:0:0:
260,184,41205,1,0,0:0:0:0:
260,184,41805,1,8,0:0:0:0:
260,184,42105,1,0,0:0:0:0:
260,184,42405,1,8,0:0:0:0:
260,184,43005,1,8,0:0:0:0:
260,184,43605,1,4,0:0:0:0:
260,184,44505,1,8,0:0:0:0:
260,184,44805,1,0,0:0:0:0:
260,184,45405,1,8,0:0:0:0:
260,184,45705,1,8,0:0:0:0:
260,184,46005,1,0,0:0:0:0:
260,184,46605,1,8,0:0:0:0:
260,184,47205,1,0,0:0:0:0:
260,184,47505,1,8,0:0:0:0:
260,184,47805,1,0,0:0:0:0:
260,184,47955,1,0,0:0:0:0:
260,184,48105,1,8,0:0:0:0:
260,184,48405,5,4,0:0:0:0:
260,184,49005,1,8,0:0:0:0:
260,184,49605,1,0,0:0:0:0:
260,184,49905,1,0,0:0:0:0:
260,184,50205,1,8,0:0:0:0:
260,184,50505,1,8,0:0:0:0:
260,184,50805,1,0,0:0:0:0:
260,184,51405,1,8,0:0:0:0:
260,184,51705,1,0,0:0:0:0:
260,184,52005,1,8,0:0:0:0:
260,184,52605,1,8,0:0:0:0:
260,184,53205,1,4,0:0:0:0:
260,184,54105,1,8,0:0:0:0:
260,184,54405,1,0,0:0:0:0:
260,184,55005,1,8,0:0:0:0:
260,184,55305,1,8,0:0:0:0:
260,184,55605,1,0,0:0:0:0:
260,184,56205,1,8,0:0:0:0:
260,184,56805,1,0,0:0:0:0:
260,184,57105,1,8,0:0:0:0:
260,184,57405,1,0,0:0:0:0:
260,184,57555,1,0,0:0:0:0:
260,184,57705,1,8,0:0:0:0:
260,184,58005,5,4,0:0:0:0:
260,184,58605,1,8,0:0:0:0:
260,184,59205,1,0,0:0:0:0:
260,184,59505,1,0,0:0:0:0:
260,184,59805,1,8,0:0:0:0:
260,184,60105,1,8,0:0:0:0:
260,184,60405,1,0,0:0:0:0:
260,184,61005,1,8,0:0:0:0:
260,184,61605,1,0,0:0:0:0:
260,184,62205,1,8,0:0:0:0:
260,184,62505,1,8,0:0:0:0:
260,184,62805,1,0,0:0:0:0:
260,184,63405,1,8,0:0:0:0:
260,184,64005,1,0,0:0:0:0:
260,184,64305,1,0,0:0:0:0:
260,184,64605,1,8,0:0:0:0:
260,184,64905,1,8,0:0:0:0:
260,184,65205,1,4,0:0:0:0:
260,184,65805,1,12,0:0:0:0:
260,184,66405,1,4,0:0:0:0:
260,184,67005,1,8,0:0:0:0:
260,184,67305,1,0,0:0:0:0:
260,184,67605,5,4,0:0:0:0:
260,184,68205,1,8,0:0:0:0:
260,184,68805,1,0,0:0:0:0:
260,184,69105,1,0,0:0:0:0:
260,184,69405,1,8,0:0:0:0:
260,184,70005,1,0,0:0:0:0:
260,184,70605,1,8,0:0:0:0:
260,184,71205,1,0,0:0:0:0:
260,184,71505,1,0,0:0:0:0:
260,184,71805,1,8,0:0:0:0:
260,184,72105,1,8,0:0:0:0:
260,184,72405,1,0,0:0:0:0:
260,184,73005,1,8,0:0:0:0:
260,184,73605,1,0,0:0:0:0:
260,184,74205,1,8,0:0:0:0:
260,184,74505,1,8,0:0:0:0:
260,184,74805,1,0,0:0:0:0:
260,184,75405,1,0,0:0:0:0:
260,184,76005,1,8,0:0:0:0:
260,184,76605,1,8,0:0:0:0:
260,184,77205,5,4,0:0:0:0:
260,184,77805,1,8,0:0:0:0:
260,184,78405,1,0,0:0:0:0:
260,184,79005,1,8,0:0:0:0:
260,184,79305,1,8,0:0:0:0:
260,184,79605,1,4,0:0:0:0:
260,184,80205,1,8,0:0:0:0:
260,184,80805,1,0,0:0:0:0:
260,184,81405,1,8,0:0:0:0:
260,184,81705,1,8,0:0:0:0:
260,184,82005,1,4,0:0:0:0:
260,184,82605,1,8,0:0:0:0:
260,184,83205,1,0,0:0:0:0:
260,184,83805,1,8,0:0:0:0:
260,184,84105,1,8,0:0:0:0:
260,184,84405,1,4,0:0:0:0:
260,184,85005,1,8,0:0:0:0:
260,184,85605,1,0,0:0:0:0:
260,184,85905,1,0,0:0:0:0:
260,184,86205,1,8,0:0:0:0:
260,184,86505,1,8,0:0:0:0:
260,184,86805,1,4,0:0:0:0:
