osu file format v14

[General]
AudioFilename: NouCum.mp3
AudioLeadIn: 1500
PreviewTime: 38732
Countdown: 0
SampleSet: Normal
StackLeniency: 0.7
Mode: 1
LetterboxInBreaks: 0
WidescreenStoryboard: 1

[Editor]
DistanceSpacing: 0.5
BeatDivisor: 4
GridSize: 32
TimelineZoom: 1.9

[Metadata]
Title:S.M.L* (TV size ver.)
TitleUnicode:S・M・L☆ (TV size ver.)
Artist:Afilia Saga
ArtistUnicode:アフィリア・サーガ
Creator:Neppu
Version:1811's Oni
Source:俺の脳内選択肢が、学園ラブコメを全力で邪魔している
Tags:NouCome sml Ore no Nounai Sentakushi ga, Gakuen Lovecome o Zenryoku de Jama Shiteiru My Mental Choices are Completely Interfering with my School Romantic Comedy のうコメ 桃井はるこ Momoi Haruko 濱田幹浩 Hamada Mikihiro MACARONI op opening taiko_maniac1811 JUDYDANNY qoot8123 Jerry
BeatmapID:322009
BeatmapSetID:126770

[Difficulty]
HPDrainRate:6
CircleSize:5
OverallDifficulty:6
ApproachRate:5
SliderMultiplier:1.4
SliderTickRate:1

[Events]
//Background and Video events
0,0,"pls rank this.jpg",0,35
//Break Periods
//Storyboard Layer 0 (Background)
//Storyboard Layer 1 (Fail)
//Storyboard Layer 2 (Pass)
//Storyboard Layer 3 (Foreground)
//Storyboard Sound Samples

[TimingPoints]
405,300,4,1,0,100,1,0
38805,-100,4,1,0,100,0,1
67605,-100,4,1,0,100,0,0

[Colours]
Combo1 : 217,234,255
Combo2 : 210,255,210

[HitObjects]
256,192,405,5,0,0:0:0:0:
256,192,630,1,0,0:0:0:0:
256,192,705,1,8,0:0:0:0:
256,192,855,1,0,0:0:0:0:
256,192,1005,1,8,0:0:0:0:
256,192,1305,1,0,0:0:0:0:
256,192,1455,1,8,0:0:0:0:
256,192,1605,1,0,0:0:0:0:
256,192,1680,1,0,0:0:0:0:
256,192,1755,1,8,0:0:0:0:
256,192,1905,1,0,0:0:0:0:
256,192,2055,1,8,0:0:0:0:
256,192,2205,1,0,0:0:0:0:
256,192,2280,1,0,0:0:0:0:
256,192,2355,1,0,0:0:0:0:
256,192,2430,1,0,0:0:0:0:
256,192,2505,1,8,0:0:0:0:
256,192,2655,1,0,0:0:0:0:
256,192,2730,1,0,0:0:0:0:
256,192,2805,1,0,0:0:0:0:
256,192,3105,1,8,0:0:0:0:
256,192,3405,1,0,0:0:0:0:
256,192,3555,1,0,0:0:0:0:
256,192,3705,1,8,0:0:0:0:
256,192,4005,1,4,0:0:0:0:
256,192,4155,1,4,0:0:0:0:
256,192,4305,1,4,0:0:0:0:
256,192,4455,1,4,0:0:0:0:
256,192,4755,1,12,0:0:0:0:
256,192,4905,1,12,0:0:0:0:
256,192,5205,1,0,0:0:0:0:
256,192,5430,1,0,0:0:0:0:
256,192,5505,1,8,0:0:0:0:
256,192,5655,1,0,0:0:0:0:
256,192,5805,1,8,0:0:0:0:
256,192,6105,1,0,0:0:0:0:
256,192,6255,1,8,0:0:0:0:
256,192,6405,1,0,0:0:0:0:
256,192,6480,1,0,0:0:0:0:
256,192,6555,1,8,0:0:0:0:
256,192,6705,1,0,0:0:0:0:
256,192,6855,1,8,0:0:0:0:
256,192,7005,1,0,0:0:0:0:
256,192,7080,1,0,0:0:0:0:
256,192,7155,1,0,0:0:0:0:
256,192,7230,1,0,0:0:0:0:
256,192,7305,1,8,0:0:0:0:
256,192,7605,1,4,0:0:0:0:
256,192,7755,1,4,0:0:0:0:
256,192,7905,1,4,0:0:0:0:
256,192,8055,1,12,0:0:0:0:
256,192,8355,1,4,0:0:0:0:
256,192,8505,1,4,0:0:0:0:
256,192,8655,1,12,0:0:0:0:
256,192,8955,1,4,0:0:0:0:
256,192,9105,1,12,0:0:0:0:
256,192,9255,1,12,0:0:0:0:
256,192,9405,1,12,0:0:0:0:
256,192,9705,1,12,0:0:0:0:
256,192,9855,1,8,0:0:0:0:
256,192,9930,1,8,0:0:0:0:
256,192,10005,1,0,0:0:0:0:
256,192,10155,1,0,0:0:0:0:
256,192,10305,1,8,0:0:0:0:
256,192,10455,1,0,0:0:0:0:
256,192,10530,1,0,0:0:0:0:
256,192,10605,1,0,0:0:0:0:
256,192,10755,1,0,0:0:0:0:
256,192,10905,1,8,0:0:0:0:
256,192,11055,1,0,0:0:0:0:
256,192,11130,1,0,0:0:0:0:
256,192,11205,1,8,0:0:0:0:
256,192,11355,1,0,0:0:0:0:
256,192,11505,1,8,0:0:0:0:
256,192,11655,1,0,0:0:0:0:
256,192,11730,1,0,0:0:0:0:
256,192,11805,1,8,0:0:0:0:
256,192,11880,1,8,0:0:0:0:
256,192,11955,1,0,0:0:0:0:
256,192,12105,1,8,0:0:0:0:
256,192,12255,1,0,0:0:0:0:
256,192,12405,1,0,0:0:0:0:
256,192,12705,1,8,0:0:0:0:
256,192,12855,1,0,0:0:0:0:
256,192,13155,1,0,0:0:0:0:
256,192,13305,1,8,0:0:0:0:
256,192,13455,1,8,0:0:0:0:
256,192,13530,1,8,0:0:0:0:
256,192,13605,1,0,0:0:0:0:
256,192,13755,1,0,0:0:0:0:
256,192,13905,1,8,0:0:0:0:
256,192,14055,1,0,0:0:0:0:
256,192,14130,1,0,0:0:0:0:
256,192,14205,1,8,0:0:0:0:
256,192,14355,1,0,0:0:0:0:
256,192,14505,1,8,0:0:0:0:
256,192,14655,1,8,0:0:0:0:
256,192,14805,1,0,0:0:0:0:
256,192,15105,1,8,0:0:0:0:
256,192,15255,1,0,0:0:0:0:
256,192,15405,1,8,0:0:0:0:
256,192,15480,1,8,0:0:0:0:
256,192,15555,1,0,0:0:0:0:
256,192,15705,1,8,0:0:0:0:
256,192,15855,1,0,0:0:0:0:
256,192,16005,1,8,0:0:0:0:
256,192,16080,1,0,0:0:0:0:
256,192,16155,1,0,0:0:0:0:
256,192,16305,1,8,0:0:0:0:
256,192,16455,1,0,0:0:0:0:
256,192,16605,1,8,0:0:0:0:
256,192,16680,1,8,0:0:0:0:
256,192,16755,1,0,0:0:0:0:
256,192,16905,1,8,0:0:0:0:
256,192,17055,1,8,0:0:0:0:
256,192,17205,1,0,0:0:0:0:
256,192,17505,1,8,0:0:0:0:
256,192,17805,1,0,0:0:0:0:
256,192,17955,1,0,0:0:0:0:
256,192,18105,1,8,0:0:0:0:
256,192,18405,1,4,0:0:0:0:
256,192,18555,1,4,0:0:0:0:
256,192,18705,1,4,0:0:0:0:
256,192,18855,1,4,0:0:0:0:
256,192,19155,1,12,0:0:0:0:
256,192,19305,1,12,0:0:0:0:
256,192,19605,1,0,0:0:0:0:
256,192,19755,1,0,0:0:0:0:
256,192,19905,1,8,0:0:0:0:
256,192,20055,1,0,0:0:0:0:
256,192,20130,1,0,0:0:0:0:
256,192,20205,1,0,0:0:0:0:
256,192,20355,1,0,0:0:0:0:
256,192,20505,1,8,0:0:0:0:
256,192,20655,1,0,0:0:0:0:
256,192,20730,1,0,0:0:0:0:
256,192,20805,1,8,0:0:0:0:
256,192,20955,1,0,0:0:0:0:
256,192,21105,1,8,0:0:0:0:
256,192,21255,1,0,0:0:0:0:
256,192,21330,1,0,0:0:0:0:
256,192,21405,1,8,0:0:0:0:
256,192,21480,1,8,0:0:0:0:
256,192,21555,1,0,0:0:0:0:
256,192,21705,1,8,0:0:0:0:
256,192,21855,1,0,0:0:0:0:
256,192,22005,1,0,0:0:0:0:
256,192,22305,1,8,0:0:0:0:
256,192,22455,1,0,0:0:0:0:
256,192,22755,1,0,0:0:0:0:
256,192,22905,1,8,0:0:0:0:
256,192,23055,1,8,0:0:0:0:
256,192,23130,1,8,0:0:0:0:
256,192,23205,1,0,0:0:0:0:
256,192,23355,1,0,0:0:0:0:
256,192,23505,1,8,0:0:0:0:
256,192,23655,1,0,0:0:0:0:
256,192,23730,1,0,0:0:0:0:
256,192,23805,1,8,0:0:0:0:
256,192,23955,1,0,0:0:0:0:
256,192,24105,1,8,0:0:0:0:
256,192,24255,1,8,0:0:0:0:
256,192,24405,1,0,0:0:0:0:
256,192,24705,1,8,0:0:0:0:
256,192,24855,1,0,0:0:0:0:
256,192,25005,1,8,0:0:0:0:
256,192,25080,1,8,0:0:0:0:
256,192,25155,1,0,0:0:0:0:
256,192,25305,1,8,0:0:0:0:
256,192,25455,1,0,0:0:0:0:
256,192,25605,1,8,0:0:0:0:
256,192,25680,1,0,0:0:0:0:
256,192,25755,1,0,0:0:0:0:
256,192,25905,1,8,0:0:0:0:
256,192,26055,1,0,0:0:0:0:
256,192,26205,1,8,0:0:0:0:
256,192,26280,1,8,0:0:0:0:
256,192,26355,1,0,0:0:0:0:
256,192,26505,1,8,0:0:0:0:
256,192,26655,1,0,0:0:0:0:
256,192,26805,1,0,0:0:0:0:
256,192,27105,1,12,0:0:0:0:
256,192,27405,1,0,0:0:0:0:
256,192,27555,1,0,0:0:0:0:
256,192,27705,1,12,0:0:0:0:
256,192,28005,1,4,0:0:0:0:
256,192,28305,1,4,0:0:0:0:
256,192,28605,1,12,0:0:0:0:
256,192,28905,1,12,0:0:0:0:
256,192,29205,1,4,0:0:0:0:
256,192,29505,1,8,0:0:0:0:
256,192,29655,1,0,0:0:0:0:
256,192,29730,1,0,0:0:0:0:
256,192,29805,1,0,0:0:0:0:
256,192,29955,1,0,0:0:0:0:
256,192,30105,1,8,0:0:0:0:
256,192,30405,1,0,0:0:0:0:
256,192,30630,1,0,0:0:0:0:
256,192,30705,1,8,0:0:0:0:
256,192,31005,1,0,0:0:0:0:
256,192,31155,1,0,0:0:0:0:
256,192,31230,1,0,0:0:0:0:
256,192,31305,1,8,0:0:0:0:
256,192,31605,1,0,0:0:0:0:
256,192,31905,1,8,0:0:0:0:
256,192,32055,1,0,0:0:0:0:
256,192,32130,1,0,0:0:0:0:
256,192,32205,1,0,0:0:0:0:
256,192,32355,1,0,0:0:0:0:
256,192,32505,1,8,0:0:0:0:
256,192,32805,1,0,0:0:0:0:
256,192,33030,1,0,0:0:0:0:
256,192,33105,1,8,0:0:0:0:
256,192,33255,1,0,0:0:0:0:
256,192,33405,1,8,0:0:0:0:
256,192,33555,1,0,0:0:0:0:
256,192,33705,1,8,0:0:0:0:
256,192,34005,1,4,0:0:0:0:
256,192,34155,1,4,0:0:0:0:
256,192,34605,1,4,0:0:0:0:
256,192,34755,1,4,0:0:0:0:
256,192,35205,1,4,0:0:0:0:
256,192,35355,1,4,0:0:0:0:
256,192,35805,1,4,0:0:0:0:
256,192,35955,1,4,0:0:0:0:
256,192,36405,1,8,0:0:0:0:
256,192,36480,1,8,0:0:0:0:
256,192,36555,1,0,0:0:0:0:
256,192,36705,1,8,0:0:0:0:
256,192,36780,1,8,0:0:0:0:
256,192,36855,1,0,0:0:0:0:
256,192,37005,1,8,0:0:0:0:
256,192,37080,1,8,0:0:0:0:
256,192,37155,1,0,0:0:0:0:
256,192,37230,1,0,0:0:0:0:
256,192,37305,1,8,0:0:0:0:
256,192,37605,1,12,0:0:0:0:
256,192,37805,1,4,0:0:0:0:
256,192,38005,1,12,0:0:0:0:
256,192,38205,1,4,0:0:0:0:
256,192,38505,1,12,0:0:0:0:
256,192,38805,1,4,0:0:0:0:
256,192,39105,1,8,0:0:0:0:
256,192,39330,1,0,0:0:0:0:
256,192,39405,1,0,0:0:0:0:
256,192,39705,1,8,0:0:0:0:
256,192,39930,1,8,0:0:0:0:
256,192,40005,1,0,0:0:0:0:
256,192,40155,1,0,0:0:0:0:
256,192,40305,1,8,0:0:0:0:
256,192,40455,1,0,0:0:0:0:
256,192,40530,1,0,0:0:0:0:
256,192,40605,1,8,0:0:0:0:
256,192,40755,1,0,0:0:0:0:
256,192,40905,1,8,0:0:0:0:
256,192,41205,1,0,0:0:0:0:
256,192,41505,1,8,0:0:0:0:
256,192,41730,1,0,0:0:0:0:
256,192,41805,1,0,0:0:0:0:
256,192,41955,1,0,0:0:0:0:
256,192,42105,1,8,0:0:0:0:
256,192,42255,1,0,0:0:0:0:
256,192,42405,1,8,0:0:0:0:
256,192,42705,1,8,0:0:0:0:
256,192,42930,1,8,0:0:0:0:
256,192,43005,1,0,0:0:0:0:
256,192,43155,1,0,0:0:0:0:
256,192,43305,1,8,0:0:0:0:
256,192,43455,1,8,0:0:0:0:
256,192,43530,1,8,0:0:0:0:
256,192,43605,1,0,0:0:0:0:
256,192,43755,1,0,0:0:0:0:
256,192,43905,1,8,0:0:0:0:
256,192,44055,1,0,0:0:0:0:
256,192,44205,1,0,0:0:0:0:
256,192,44505,1,8,0:0:0:0:
256,192,44655,1,0,0:0:0:0:
256,192,44955,1,0,0:0:0:0:
256,192,45105,1,8,0:0:0:0:
256,192,45255,1,0,0:0:0:0:
256,192,45330,1,0,0:0:0:0:
256,192,45405,1,0,0:0:0:0:
256,192,45555,1,0,0:0:0:0:
256,192,45705,1,8,0:0:0:0:
256,192,46005,1,0,0:0:0:0:
256,192,46305,1,8,0:0:0:0:
256,192,46530,1,0,0:0:0:0:
256,192,46605,1,0,0:0:0:0:
256,192,46755,1,0,0:0:0:0:
256,192,46905,1,8,0:0:0:0:
256,192,47055,1,0,0:0:0:0:
256,192,47205,1,8,0:0:0:0:
256,192,47280,1,8,0:0:0:0:
256,192,47355,1,0,0:0:0:0:
256,192,47505,1,8,0:0:0:0:
256,192,47580,1,8,0:0:0:0:
256,192,47655,1,0,0:0:0:0:
256,192,47805,1,8,0:0:0:0:
256,192,47880,1,8,0:0:0:0:
256,192,47955,1,0,0:0:0:0:
256,192,48030,1,0,0:0:0:0:
256,192,48105,1,8,0:0:0:0:
256,192,48180,1,8,0:0:0:0:
256,192,48255,1,0,0:0:0:0:
256,192,48405,1,4,0:0:0:0:
256,192,48705,1,8,0:0:0:0:
256,192,48930,1,0,0:0:0:0:
256,192,49005,1,0,0:0:0:0:
256,192,49305,1,8,0:0:0:0:
256,192,49530,1,8,0:0:0:0:
256,192,49605,1,0,0:0:0:0:
256,192,49755,1,0,0:0:0:0:
256,192,49905,1,8,0:0:0:0:
256,192,50055,1,0,0:0:0:0:
256,192,50130,1,0,0:0:0:0:
256,192,50205,1,8,0:0:0:0:
256,192,50355,1,0,0:0:0:0:
256,192,50505,1,8,0:0:0:0:
256,192,50805,1,0,0:0:0:0:
256,192,51105,1,8,0:0:0:0:
256,192,51330,1,0,0:0:0:0:
256,192,51405,1,0,0:0:0:0:
256,192,51555,1,0,0:0:0:0:
256,192,51705,1,8,0:0:0:0:
256,192,51855,1,0,0:0:0:0:
256,192,52005,1,8,0:0:0:0:
256,192,52305,1,8,0:0:0:0:
256,192,52530,1,8,0:0:0:0:
256,192,52605,1,0,0:0:0:0:
256,192,52755,1,0,0:0:0:0:
256,192,52905,1,8,0:0:0:0:
256,192,53055,1,8,0:0:0:0:
256,192,53130,1,8,0:0:0:0:
256,192,53205,1,0,0:0:0:0:
256,192,53355,1,0,0:0:0:0:
256,192,53505,1,8,0:0:0:0:
256,192,53655,1,0,0:0:0:0:
256,192,53805,1,0,0:0:0:0:
256,192,54105,1,8,0:0:0:0:
256,192,54255,1,0,0:0:0:0:
256,192,54555,1,0,0:0:0:0:
256,192,54705,1,8,0:0:0:0:
256,192,54855,1,0,0:0:0:0:
256,192,54930,1,0,0:0:0:0:
256,192,55005,1,8,0:0:0:0:
256,192,55155,1,0,0:0:0:0:
256,192,55305,1,8,0:0:0:0:
256,192,55455,1,8,0:0:0:0:
256,192,55605,1,4,0:0:0:0:
256,192,55905,1,8,0:0:0:0:
256,192,56055,1,0,0:0:0:0:
256,192,56130,1,0,0:0:0:0:
256,192,56205,1,0,0:0:0:0:
256,192,56355,1,0,0:0:0:0:
256,192,56505,1,8,0:0:0:0:
256,192,56655,1,0,0:0:0:0:
256,192,56805,1,8,0:0:0:0:
256,192,56880,1,8,0:0:0:0:
256,192,56955,1,0,0:0:0:0:
256,192,57105,1,8,0:0:0:0:
256,192,57180,1,8,0:0:0:0:
256,192,57255,1,0,0:0:0:0:
256,192,57405,1,8,0:0:0:0:
256,192,57480,1,8,0:0:0:0:
256,192,57555,1,0,0:0:0:0:
256,192,57630,1,0,0:0:0:0:
256,192,57705,1,8,0:0:0:0:
256,192,57780,1,8,0:0:0:0:
256,192,57855,1,0,0:0:0:0:
256,192,58005,1,4,0:0:0:0:
256,192,58305,1,8,0:0:0:0:
256,192,58455,1,8,0:0:0:0:
256,192,58530,1,8,0:0:0:0:
256,192,58605,1,0,0:0:0:0:
256,192,58755,1,0,0:0:0:0:
256,192,58905,1,8,0:0:0:0:
256,192,59055,1,8,0:0:0:0:
256,192,59130,1,0,0:0:0:0:
256,192,59205,1,0,0:0:0:0:
256,192,59355,1,0,0:0:0:0:
256,192,59430,1,0,0:0:0:0:
256,192,59505,1,8,0:0:0:0:
256,192,59655,1,8,0:0:0:0:
256,192,59805,1,0,0:0:0:0:
256,192,60030,1,0,0:0:0:0:
256,192,60105,1,8,0:0:0:0:
256,192,60255,1,8,0:0:0:0:
256,192,60405,1,0,0:0:0:0:
256,192,60705,1,8,0:0:0:0:
256,192,60855,1,8,0:0:0:0:
256,192,60930,1,0,0:0:0:0:
256,192,61005,1,0,0:0:0:0:
256,192,61155,1,0,0:0:0:0:
256,192,61305,1,8,0:0:0:0:
256,192,61455,1,0,0:0:0:0:
256,192,61605,1,8,0:0:0:0:
256,192,61905,1,8,0:0:0:0:
256,192,62205,1,8,0:0:0:0:
256,192,62355,1,8,0:0:0:0:
256,192,62430,1,8,0:0:0:0:
256,192,62505,1,8,0:0:0:0:
256,192,62655,1,8,0:0:0:0:
256,192,62805,1,4,0:0:0:0:
256,192,63105,1,8,0:0:0:0:
256,192,63255,1,0,0:0:0:0:
256,192,63330,1,0,0:0:0:0:
256,192,63405,1,0,0:0:0:0:
256,192,63555,1,0,0:0:0:0:
256,192,63705,1,8,0:0:0:0:
256,192,63855,1,0,0:0:0:0:
256,192,64155,1,0,0:0:0:0:
256,192,64305,1,8,0:0:0:0:
256,192,64455,1,0,0:0:0:0:
256,192,64530,1,0,0:0:0:0:
256,192,64605,1,8,0:0:0:0:
256,192,64755,1,0,0:0:0:0:
256,192,64905,1,8,0:0:0:0:
256,192,65055,1,0,0:0:0:0:
256,192,65205,1,8,0:0:0:0:
256,192,65280,1,8,0:0:0:0:
256,192,65355,1,0,0:0:0:0:
256,192,65505,1,8,0:0:0:0:
256,192,65580,1,8,0:0:0:0:
256,192,65655,1,0,0:0:0:0:
256,192,65805,1,8,0:0:0:0:
256,192,65880,1,8,0:0:0:0:
256,192,65955,1,0,0:0:0:0:
256,192,66030,1,0,0:0:0:0:
256,192,66105,1,8,0:0:0:0:
256,192,66255,1,4,0:0:0:0:
256,192,66705,1,8,0:0:0:0:
256,192,66805,1,0,0:0:0:0:
256,192,66905,1,0,0:0:0:0:
256,192,67005,1,8,0:0:0:0:
256,192,67105,1,0,0:0:0:0:
256,192,67205,1,0,0:0:0:0:
256,192,67305,1,8,0:0:0:0:
256,192,67405,1,0,0:0:0:0:
256,192,67505,1,0,0:0:0:0:
256,192,67605,1,0,0:0:0:0:
256,192,67905,1,0,0:0:0:0:
256,192,68205,1,12,0:0:0:0:
256,192,68505,1,0,0:0:0:0:
256,192,68655,1,0,0:0:0:0:
256,192,68955,1,8,0:0:0:0:
256,192,69105,1,0,0:0:0:0:
256,192,69255,1,0,0:0:0:0:
256,192,69405,1,8,0:0:0:0:
256,192,69705,1,8,0:0:0:0:
256,192,70005,1,4,0:0:0:0:
256,192,70305,1,0,0:0:0:0:
256,192,70605,1,12,0:0:0:0:
256,192,70905,1,8,0:0:0:0:
256,192,71055,1,0,0:0:0:0:
256,192,71355,1,0,0:0:0:0:
256,192,71505,1,8,0:0:0:0:
256,192,71655,1,0,0:0:0:0:
256,192,71730,1,0,0:0:0:0:
256,192,71805,1,8,0:0:0:0:
256,192,71955,1,0,0:0:0:0:
256,192,72105,1,8,0:0:0:0:
256,192,72255,1,8,0:0:0:0:
256,192,72330,1,8,0:0:0:0:
256,192,72405,1,0,0:0:0:0:
256,192,72705,1,8,0:0:0:0:
256,192,72930,1,0,0:0:0:0:
256,192,73005,1,0,0:0:0:0:
256,192,73155,1,0,0:0:0:0:
256,192,73305,1,8,0:0:0:0:
256,192,73455,1,8,0:0:0:0:
256,192,73530,1,8,0:0:0:0:
256,192,73605,1,0,0:0:0:0:
256,192,73905,1,8,0:0:0:0:
256,192,74055,1,0,0:0:0:0:
256,192,74355,1,0,0:0:0:0:
256,192,74505,1,8,0:0:0:0:
256,192,74655,1,8,0:0:0:0:
256,192,74730,1,8,0:0:0:0:
256,192,74805,1,0,0:0:0:0:
256,192,75105,1,8,0:0:0:0:
256,192,75255,1,8,0:0:0:0:
256,192,75330,1,0,0:0:0:0:
256,192,75405,1,0,0:0:0:0:
256,192,75705,1,8,0:0:0:0:
256,192,75855,1,8,0:0:0:0:
256,192,75930,1,8,0:0:0:0:
256,192,76005,1,0,0:0:0:0:
256,192,76305,1,8,0:0:0:0:
256,192,76455,1,8,0:0:0:0:
256,192,76530,1,0,0:0:0:0:
256,192,76605,1,0,0:0:0:0:
256,192,76905,1,8,0:0:0:0:
256,192,77055,1,8,0:0:0:0:
256,192,77130,1,8,0:0:0:0:
256,192,77205,1,0,0:0:0:0:
256,192,77355,1,0,0:0:0:0:
256,192,77430,1,0,0:0:0:0:
256,192,77505,1,8,0:0:0:0:
256,192,77655,1,0,0:0:0:0:
256,192,77805,1,8,0:0:0:0:
256,192,77955,1,0,0:0:0:0:
256,192,78030,1,8,0:0:0:0:
256,192,78105,1,8,0:0:0:0:
256,192,78255,1,0,0:0:0:0:
256,192,78405,1,8,0:0:0:0:
256,192,78480,1,8,0:0:0:0:
256,192,78555,1,0,0:0:0:0:
256,192,78705,1,8,0:0:0:0:
256,192,78780,1,8,0:0:0:0:
256,192,78855,1,0,0:0:0:0:
256,192,79005,1,0,0:0:0:0:
256,192,79155,1,8,0:0:0:0:
256,192,79230,1,0,0:0:0:0:
256,192,79305,1,8,0:0:0:0:
256,192,79455,1,8,0:0:0:0:
256,192,79530,1,8,0:0:0:0:
256,192,79605,1,0,0:0:0:0:
256,192,79755,1,0,0:0:0:0:
256,192,79830,1,0,0:0:0:0:
256,192,79905,1,8,0:0:0:0:
256,192,80055,1,0,0:0:0:0:
256,192,80205,1,8,0:0:0:0:
256,192,80355,1,0,0:0:0:0:
256,192,80430,1,8,0:0:0:0:
256,192,80505,1,8,0:0:0:0:
256,192,80655,1,0,0:0:0:0:
256,192,80805,1,8,0:0:0:0:
256,192,80880,1,8,0:0:0:0:
256,192,80955,1,0,0:0:0:0:
256,192,81030,1,0,0:0:0:0:
256,192,81105,1,8,0:0:0:0:
256,192,81180,1,8,0:0:0:0:
256,192,81255,1,0,0:0:0:0:
256,192,81405,1,0,0:0:0:0:
256,192,81555,1,8,0:0:0:0:
256,192,81630,1,8,0:0:0:0:
256,192,81705,1,8,0:0:0:0:
256,192,81855,1,8,0:0:0:0:
256,192,81930,1,8,0:0:0:0:
256,192,82005,1,0,0:0:0:0:
256,192,82155,1,0,0:0:0:0:
256,192,82230,1,0,0:0:0:0:
256,192,82305,1,8,0:0:0:0:
256,192,82455,1,0,0:0:0:0:
256,192,82605,1,8,0:0:0:0:
256,192,82755,1,0,0:0:0:0:
256,192,82830,1,8,0:0:0:0:
256,192,82905,1,8,0:0:0:0:
256,192,83055,1,0,0:0:0:0:
256,192,83205,1,8,0:0:0:0:
256,192,83280,1,8,0:0:0:0:
256,192,83355,1,0,0:0:0:0:
256,192,83505,1,8,0:0:0:0:
256,192,83580,1,8,0:0:0:0:
256,192,83655,1,0,0:0:0:0:
256,192,83805,1,0,0:0:0:0:
256,192,83955,1,8,0:0:0:0:
256,192,84030,1,0,0:0:0:0:
256,192,84105,1,8,0:0:0:0:
256,192,84255,1,8,0:0:0:0:
256,192,84330,1,8,0:0:0:0:
256,192,84405,1,0,0:0:0:0:
256,192,84555,1,0,0:0:0:0:
256,192,84630,1,0,0:0:0:0:
256,192,84705,1,8,0:0:0:0:
256,192,84855,1,0,0:0:0:0:
256,192,85005,1,8,0:0:0:0:
256,192,85155,1,0,0:0:0:0:
256,192,85230,1,8,0:0:0:0:
256,192,85305,1,8,0:0:0:0:
256,192,85455,1,0,0:0:0:0:
256,192,85605,1,8,0:0:0:0:
256,192,85680,1,8,0:0:0:0:
256,192,85755,1,0,0:0:0:0:
256,192,85830,1,0,0:0:0:0:
256,192,85905,1,8,0:0:0:0:
256,192,85980,1,8,0:0:0:0:
256,192,86055,1,0,0:0:0:0:
256,192,86205,1,0,0:0:0:0:
256,192,86355,1,8,0:0:0:0:
256,192,86505,1,8,0:0:0:0:
256,192,86805,12,0,88905,0:0:0:0:
