osu file format v14

[General]
AudioFilename: NouCum.mp3
AudioLeadIn: 1500
PreviewTime: 38732
Countdown: 0
SampleSet: Normal
StackLeniency: 0.7
Mode: 1
LetterboxInBreaks: 0
WidescreenStoryboard: 1

[Editor]
DistanceSpacing: 1
BeatDivisor: 4
GridSize: 16
TimelineZoom: 2.1

[Metadata]
Title:S.M.L* (TV size ver.)
TitleUnicode:S・M・L☆ (TV size ver.)
Artist:Afilia Saga
ArtistUnicode:アフィリア・サーガ
Creator:Neppu
Version:Oni
Source:俺の脳内選択肢が、学園ラブコメを全力で邪魔している
Tags:NouCome sml Ore no Nounai Sentakushi ga, Gakuen Lovecome o Zenryoku de Jama Shiteiru My Mental Choices are Completely Interfering with my School Romantic Comedy のうコメ 桃井はるこ Momoi Haruko 濱田幹浩 Hamada Mikihiro MACARONI op opening taiko_maniac1811 JUDYDANNY qoot8123 Jerry
BeatmapID:879735
BeatmapSetID:126770

[Difficulty]
HPDrainRate:6
CircleSize:5
OverallDifficulty:5
ApproachRate:5
SliderMultiplier:1.4
SliderTickRate:1

[Events]
//Background and Video events
0,0,"normaldiffbg.jpg",0,60
//Break Periods
//Storyboard Layer 0 (Background)
//Storyboard Layer 1 (Fail)
//Storyboard Layer 2 (Pass)
//Storyboard Layer 3 (Foreground)
//Storyboard Sound Samples

[TimingPoints]
405,300,4,1,0,100,1,0
38805,-100,4,1,0,100,0,1
67605,-100,4,1,0,100,0,0

[Colours]
Combo1 : 217,234,255
Combo2 : 210,255,210

[HitObjects]
400,144,405,5,4,0:0:0:0:
400,144,705,1,0,0:0:0:0:
400,144,1005,1,8,0:0:0:0:
400,144,1080,1,8,0:0:0:0:
400,144,1155,1,8,0:0:0:0:
400,144,1305,1,0,0:0:0:0:
400,144,1455,1,0,0:0:0:0:
400,144,1755,1,0,0:0:0:0:
400,144,2055,1,0,0:0:0:0:
400,144,2205,1,8,0:0:0:0:
400,144,2280,1,8,0:0:0:0:
400,144,2355,1,8,0:0:0:0:
400,144,2505,1,0,0:0:0:0:
400,144,2805,1,0,0:0:0:0:
400,144,3105,1,0,0:0:0:0:
400,144,3405,1,8,0:0:0:0:
400,144,3480,1,8,0:0:0:0:
400,144,3555,1,8,0:0:0:0:
400,144,3705,1,0,0:0:0:0:
400,144,3855,1,0,0:0:0:0:
400,144,4155,1,0,0:0:0:0:
400,144,4305,1,0,0:0:0:0:
400,144,4455,1,0,0:0:0:0:
400,144,4755,1,12,0:0:0:0:
400,144,4905,1,12,0:0:0:0:
400,144,5205,1,4,0:0:0:0:
400,144,5505,1,0,0:0:0:0:
400,144,5805,1,8,0:0:0:0:
400,144,5880,1,8,0:0:0:0:
400,144,5955,1,8,0:0:0:0:
400,144,6105,1,0,0:0:0:0:
400,144,6255,1,0,0:0:0:0:
400,144,6555,1,0,0:0:0:0:
400,144,6855,1,0,0:0:0:0:
400,144,7005,1,8,0:0:0:0:
400,144,7080,1,8,0:0:0:0:
400,144,7155,1,8,0:0:0:0:
400,144,7305,1,0,0:0:0:0:
400,144,7605,1,8,0:0:0:0:
400,144,7755,1,0,0:0:0:0:
400,144,7905,1,0,0:0:0:0:
400,144,8055,1,8,0:0:0:0:
400,144,8355,1,0,0:0:0:0:
400,144,8505,1,8,0:0:0:0:
400,144,8655,1,0,0:0:0:0:
400,144,8955,1,0,0:0:0:0:
400,144,9105,1,0,0:0:0:0:
400,144,9255,1,8,0:0:0:0:
400,144,9405,1,8,0:0:0:0:
400,144,9705,1,12,0:0:0:0:
400,144,10005,1,0,0:0:0:0:
96,64,10305,5,8,0:0:0:0:
96,64,10455,1,0,0:0:0:0:
96,64,10755,1,0,0:0:0:0:
96,64,10905,1,8,0:0:0:0:
96,64,11055,1,8,0:0:0:0:
96,64,11205,1,0,0:0:0:0:
96,64,11505,1,8,0:0:0:0:
96,64,11655,1,8,0:0:0:0:
96,64,11955,1,0,0:0:0:0:
96,64,12105,1,8,0:0:0:0:
96,64,12255,1,0,0:0:0:0:
96,64,12405,1,0,0:0:0:0:
96,64,12705,1,8,0:0:0:0:
96,64,12855,1,8,0:0:0:0:
96,64,13155,1,0,0:0:0:0:
96,64,13305,1,8,0:0:0:0:
96,64,13605,1,0,0:0:0:0:
96,64,13905,1,8,0:0:0:0:
96,63,14055,1,0,0:0:0:0:
95,62,14355,1,0,0:0:0:0:
94,63,14505,1,8,0:0:0:0:
96,64,14655,1,8,0:0:0:0:
96,64,14805,1,0,0:0:0:0:
95,65,15105,1,8,0:0:0:0:
90,66,15255,1,0,0:0:0:0:
95,65,15555,1,0,0:0:0:0:
95,65,15705,1,8,0:0:0:0:
95,65,15855,1,0,0:0:0:0:
95,65,16005,1,0,0:0:0:0:
95,65,16305,1,8,0:0:0:0:
95,65,16455,1,8,0:0:0:0:
95,65,16605,1,0,0:0:0:0:
95,65,16755,1,8,0:0:0:0:
95,65,16830,1,8,0:0:0:0:
95,65,16905,1,8,0:0:0:0:
95,65,17055,1,8,0:0:0:0:
95,65,17205,1,0,0:0:0:0:
95,65,17505,1,8,0:0:0:0:
95,65,17655,1,0,0:0:0:0:
95,65,17955,1,0,0:0:0:0:
95,65,18105,1,8,0:0:0:0:
95,65,18255,1,0,0:0:0:0:
95,64,18405,1,8,0:0:0:0:
94,64,18555,1,8,0:0:0:0:
94,64,18630,1,8,0:0:0:0:
97,68,18705,1,8,0:0:0:0:
94,66,18855,1,8,0:0:0:0:
98,65,19155,1,12,0:0:0:0:
96,65,19305,1,12,0:0:0:0:
144,320,19605,5,0,0:0:0:0:
144,320,19905,1,8,0:0:0:0:
144,320,20055,1,0,0:0:0:0:
144,320,20355,1,0,0:0:0:0:
144,320,20505,1,8,0:0:0:0:
144,320,20655,1,8,0:0:0:0:
144,320,20805,1,0,0:0:0:0:
144,320,21105,1,8,0:0:0:0:
144,320,21255,1,8,0:0:0:0:
144,320,21555,1,0,0:0:0:0:
144,320,21705,1,8,0:0:0:0:
144,320,21855,1,8,0:0:0:0:
144,320,22005,1,0,0:0:0:0:
144,320,22305,1,8,0:0:0:0:
144,320,22455,1,0,0:0:0:0:
144,320,22755,1,0,0:0:0:0:
144,320,22905,1,8,0:0:0:0:
144,320,23055,1,0,0:0:0:0:
144,320,23205,1,8,0:0:0:0:
144,320,23355,1,0,0:0:0:0:
144,320,23505,1,8,0:0:0:0:
144,320,23655,1,8,0:0:0:0:
144,320,23955,1,0,0:0:0:0:
144,320,24105,1,8,0:0:0:0:
144,320,24255,1,8,0:0:0:0:
144,320,24405,1,4,0:0:0:0:
144,320,24705,1,8,0:0:0:0:
144,320,24855,1,8,0:0:0:0:
144,320,25155,1,0,0:0:0:0:
144,320,25305,1,8,0:0:0:0:
144,320,25455,1,0,0:0:0:0:
144,320,25605,1,0,0:0:0:0:
144,320,25905,1,8,0:0:0:0:
144,320,26055,1,8,0:0:0:0:
144,320,26355,1,0,0:0:0:0:
144,320,26505,1,8,0:0:0:0:
144,320,26580,1,8,0:0:0:0:
144,320,26655,1,8,0:0:0:0:
144,320,26805,1,4,0:0:0:0:
144,320,27105,1,8,0:0:0:0:
144,320,27255,1,8,0:0:0:0:
144,320,27405,1,4,0:0:0:0:
144,320,27705,1,8,0:0:0:0:
144,320,27780,1,8,0:0:0:0:
144,320,27855,1,8,0:0:0:0:
144,320,28005,1,4,0:0:0:0:
144,320,28305,1,4,0:0:0:0:
144,320,28605,1,12,0:0:0:0:
144,320,28905,1,12,0:0:0:0:
320,320,29205,5,4,0:0:0:0:
320,320,29505,1,8,0:0:0:0:
320,320,29805,1,0,0:0:0:0:
320,320,29880,1,0,0:0:0:0:
320,320,29955,1,0,0:0:0:0:
176,336,30105,1,8,0:0:0:0:
176,336,30405,1,0,0:0:0:0:
176,336,30480,1,0,0:0:0:0:
176,336,30555,1,0,0:0:0:0:
176,336,30705,1,8,0:0:0:0:
176,336,30855,1,0,0:0:0:0:
176,336,31005,1,8,0:0:0:0:
176,336,31080,1,8,0:0:0:0:
176,336,31155,1,8,0:0:0:0:
176,336,31305,1,8,0:0:0:0:
176,336,31605,1,4,0:0:0:0:
176,336,31905,1,8,0:0:0:0:
176,336,32205,1,0,0:0:0:0:
176,336,32280,1,0,0:0:0:0:
176,336,32355,1,0,0:0:0:0:
176,336,32505,1,8,0:0:0:0:
176,336,32805,1,0,0:0:0:0:
176,336,32880,1,0,0:0:0:0:
176,336,32955,1,0,0:0:0:0:
176,336,33105,1,8,0:0:0:0:
176,336,33255,1,0,0:0:0:0:
176,336,33405,1,8,0:0:0:0:
176,336,33480,1,8,0:0:0:0:
176,336,33555,1,8,0:0:0:0:
176,336,33705,1,8,0:0:0:0:
176,336,34005,1,4,0:0:0:0:
176,336,34155,1,4,0:0:0:0:
176,336,34605,1,12,0:0:0:0:
176,336,34755,1,12,0:0:0:0:
176,336,35205,1,4,0:0:0:0:
176,336,35355,1,4,0:0:0:0:
176,336,35805,1,12,0:0:0:0:
176,336,35955,1,12,0:0:0:0:
176,336,36405,1,4,0:0:0:0:
176,336,36705,1,0,0:0:0:0:
176,336,37005,1,8,0:0:0:0:
176,336,37305,1,8,0:0:0:0:
176,336,37605,1,12,0:0:0:0:
176,336,37805,1,12,0:0:0:0:
176,336,38005,1,4,0:0:0:0:
176,336,38205,1,4,0:0:0:0:
48,160,38805,5,4,0:0:0:0:
48,160,39105,1,8,0:0:0:0:
48,160,39405,1,0,0:0:0:0:
48,160,39555,1,0,0:0:0:0:
48,160,39705,1,8,0:0:0:0:
48,160,40005,1,0,0:0:0:0:
48,160,40155,1,0,0:0:0:0:
48,160,40305,1,8,0:0:0:0:
48,160,40455,1,0,0:0:0:0:
48,160,40605,1,0,0:0:0:0:
48,160,40680,1,0,0:0:0:0:
48,160,40755,1,0,0:0:0:0:
48,160,40905,1,8,0:0:0:0:
48,160,41055,1,8,0:0:0:0:
48,160,41205,1,0,0:0:0:0:
48,160,41505,1,8,0:0:0:0:
48,160,41580,1,8,0:0:0:0:
48,160,41655,1,8,0:0:0:0:
48,160,41805,1,0,0:0:0:0:
48,160,42105,1,8,0:0:0:0:
48,160,42255,1,8,0:0:0:0:
48,160,42405,1,0,0:0:0:0:
48,160,42555,1,0,0:0:0:0:
48,160,42705,1,8,0:0:0:0:
48,160,42855,1,0,0:0:0:0:
48,160,42930,1,0,0:0:0:0:
48,160,43005,1,8,0:0:0:0:
48,160,43155,1,0,0:0:0:0:
48,160,43305,1,8,0:0:0:0:
48,160,43455,1,8,0:0:0:0:
48,160,43530,1,8,0:0:0:0:
48,160,43605,1,0,0:0:0:0:
48,160,43905,1,8,0:0:0:0:
48,160,44055,1,8,0:0:0:0:
48,160,44205,1,0,0:0:0:0:
48,160,44505,1,8,0:0:0:0:
48,160,44655,1,0,0:0:0:0:
48,160,44955,1,0,0:0:0:0:
48,160,45105,1,8,0:0:0:0:
48,160,45255,1,0,0:0:0:0:
48,160,45330,1,0,0:0:0:0:
48,160,45405,1,0,0:0:0:0:
48,160,45555,1,0,0:0:0:0:
48,160,45705,1,8,0:0:0:0:
48,160,45855,1,0,0:0:0:0:
48,160,46005,1,8,0:0:0:0:
48,160,46305,1,8,0:0:0:0:
48,160,46455,1,0,0:0:0:0:
48,160,46530,1,0,0:0:0:0:
48,160,46605,1,0,0:0:0:0:
48,160,46755,1,0,0:0:0:0:
48,160,46905,1,8,0:0:0:0:
48,160,47055,1,8,0:0:0:0:
48,160,47205,1,0,0:0:0:0:
48,160,47280,1,0,0:0:0:0:
48,160,47355,1,0,0:0:0:0:
48,160,47505,1,8,0:0:0:0:
48,160,47805,1,0,0:0:0:0:
48,160,47880,1,0,0:0:0:0:
48,160,47955,1,0,0:0:0:0:
48,160,48105,1,8,0:0:0:0:
48,160,48405,5,4,0:0:0:0:
48,160,48705,1,8,0:0:0:0:
48,160,49005,1,0,0:0:0:0:
48,160,49155,1,0,0:0:0:0:
48,160,49305,1,8,0:0:0:0:
48,160,49605,1,0,0:0:0:0:
48,160,49755,1,0,0:0:0:0:
48,160,49905,1,8,0:0:0:0:
48,160,50055,1,0,0:0:0:0:
48,160,50130,1,0,0:0:0:0:
48,160,50205,1,8,0:0:0:0:
48,160,50355,1,8,0:0:0:0:
48,160,50505,1,0,0:0:0:0:
48,160,50655,1,8,0:0:0:0:
48,160,50805,1,0,0:0:0:0:
48,160,51105,1,8,0:0:0:0:
48,160,51255,1,8,0:0:0:0:
48,160,51405,1,0,0:0:0:0:
48,160,51705,1,8,0:0:0:0:
48,160,51855,1,8,0:0:0:0:
48,160,51930,1,8,0:0:0:0:
48,160,52005,1,0,0:0:0:0:
48,160,52155,1,0,0:0:0:0:
48,160,52305,1,8,0:0:0:0:
48,160,52455,1,0,0:0:0:0:
48,160,52605,1,8,0:0:0:0:
48,160,52680,1,8,0:0:0:0:
48,160,52755,1,8,0:0:0:0:
48,160,52905,1,8,0:0:0:0:
48,160,53055,1,8,0:0:0:0:
48,160,53205,1,4,0:0:0:0:
48,160,53505,1,8,0:0:0:0:
48,160,53655,1,0,0:0:0:0:
48,160,53805,1,0,0:0:0:0:
48,160,54105,1,8,0:0:0:0:
48,160,54255,1,0,0:0:0:0:
48,160,54555,1,0,0:0:0:0:
48,160,54705,1,8,0:0:0:0:
48,160,54855,1,0,0:0:0:0:
48,160,54930,1,0,0:0:0:0:
48,160,55005,1,0,0:0:0:0:
48,160,55155,1,0,0:0:0:0:
48,160,55305,1,8,0:0:0:0:
48,160,55455,1,8,0:0:0:0:
48,160,55605,1,4,0:0:0:0:
48,160,55905,1,8,0:0:0:0:
48,160,56055,1,0,0:0:0:0:
48,160,56355,1,0,0:0:0:0:
48,160,56505,1,8,0:0:0:0:
48,160,56655,1,0,0:0:0:0:
48,160,56805,1,0,0:0:0:0:
48,160,56880,1,0,0:0:0:0:
48,160,56955,1,0,0:0:0:0:
48,160,57105,1,8,0:0:0:0:
44,168,57255,1,0,0:0:0:0:
48,160,57405,1,0,0:0:0:0:
44,168,57480,1,0,0:0:0:0:
48,160,57555,1,0,0:0:0:0:
48,160,57705,1,8,0:0:0:0:
48,160,58005,5,4,0:0:0:0:
48,160,58305,1,8,0:0:0:0:
48,160,58605,1,0,0:0:0:0:
48,160,58680,1,0,0:0:0:0:
48,160,58755,1,0,0:0:0:0:
48,160,58905,1,8,0:0:0:0:
48,160,59055,1,0,0:0:0:0:
48,160,59355,1,0,0:0:0:0:
48,160,59505,1,8,0:0:0:0:
48,160,59655,1,0,0:0:0:0:
48,160,59805,1,0,0:0:0:0:
48,160,59880,1,0,0:0:0:0:
48,160,59955,1,0,0:0:0:0:
48,160,60105,1,8,0:0:0:0:
48,160,60405,1,0,0:0:0:0:
48,160,60705,1,8,0:0:0:0:
48,160,61005,1,0,0:0:0:0:
48,160,61080,1,0,0:0:0:0:
48,160,61155,1,0,0:0:0:0:
48,160,61305,1,8,0:0:0:0:
48,160,61455,1,0,0:0:0:0:
48,160,61755,1,0,0:0:0:0:
48,160,61905,1,8,0:0:0:0:
48,160,62055,1,0,0:0:0:0:
48,160,62205,1,8,0:0:0:0:
48,160,62280,1,8,0:0:0:0:
48,160,62355,1,8,0:0:0:0:
48,160,62505,1,8,0:0:0:0:
48,160,62655,1,8,0:0:0:0:
48,160,62805,1,0,0:0:0:0:
48,160,63105,1,8,0:0:0:0:
48,160,63405,1,0,0:0:0:0:
48,160,63480,1,0,0:0:0:0:
48,160,63555,1,0,0:0:0:0:
48,160,63705,1,8,0:0:0:0:
48,160,63855,1,0,0:0:0:0:
48,160,64155,1,0,0:0:0:0:
48,160,64305,1,8,0:0:0:0:
48,160,64455,1,0,0:0:0:0:
48,160,64605,1,0,0:0:0:0:
48,160,64680,1,0,0:0:0:0:
48,160,64755,1,0,0:0:0:0:
48,160,64905,1,8,0:0:0:0:
48,160,65055,1,8,0:0:0:0:
48,160,65205,1,4,0:0:0:0:
48,160,65505,1,8,0:0:0:0:
48,160,65805,1,4,0:0:0:0:
48,160,66105,1,8,0:0:0:0:
48,160,66255,1,4,0:0:0:0:
48,160,66555,1,0,0:0:0:0:
48,160,66705,1,8,0:0:0:0:
48,160,66855,1,0,0:0:0:0:
48,160,67005,1,8,0:0:0:0:
48,160,67105,1,8,0:0:0:0:
48,160,67205,1,8,0:0:0:0:
48,160,67305,1,0,0:0:0:0:
48,160,67405,1,0,0:0:0:0:
260,184,67505,1,8,0:0:0:0:
48,160,67605,5,0,0:0:0:0:
260,184,68205,1,8,0:0:0:0:
260,184,68655,1,0,0:0:0:0:
260,184,68955,1,0,0:0:0:0:
260,184,69105,1,8,0:0:0:0:
260,184,69255,1,0,0:0:0:0:
260,184,69405,1,8,0:0:0:0:
260,184,69555,1,0,0:0:0:0:
260,184,69630,1,0,0:0:0:0:
260,184,69705,1,8,0:0:0:0:
260,184,69855,1,0,0:0:0:0:
260,184,70005,1,0,0:0:0:0:
260,184,70605,1,8,0:0:0:0:
260,184,70905,1,8,0:0:0:0:
260,184,71055,1,0,0:0:0:0:
260,184,71355,1,0,0:0:0:0:
260,184,71505,1,8,0:0:0:0:
260,184,71655,1,0,0:0:0:0:
260,184,71730,1,0,0:0:0:0:
260,184,71805,1,0,0:0:0:0:
260,184,71955,1,0,0:0:0:0:
260,184,72105,1,8,0:0:0:0:
260,184,72255,1,0,0:0:0:0:
260,184,72405,1,0,0:0:0:0:
260,184,72705,1,8,0:0:0:0:
260,184,73005,1,0,0:0:0:0:
260,184,73080,1,0,0:0:0:0:
260,184,73155,1,0,0:0:0:0:
260,184,73305,1,8,0:0:0:0:
260,184,73455,1,0,0:0:0:0:
260,184,73605,1,0,0:0:0:0:
260,184,73905,1,8,0:0:0:0:
260,184,74055,1,0,0:0:0:0:
260,184,74355,1,0,0:0:0:0:
260,184,74505,1,8,0:0:0:0:
260,184,74655,1,0,0:0:0:0:
260,184,74805,1,4,0:0:0:0:
260,184,75105,1,8,0:0:0:0:
260,184,75405,1,4,0:0:0:0:
260,184,75705,1,8,0:0:0:0:
260,184,76005,1,4,0:0:0:0:
260,184,76305,1,4,0:0:0:0:
260,184,76605,1,12,0:0:0:0:
260,184,76905,1,12,0:0:0:0:
260,184,77205,5,4,0:0:0:0:
260,184,77505,1,8,0:0:0:0:
260,184,77805,1,8,0:0:0:0:
260,184,77955,1,0,0:0:0:0:
260,184,78105,1,8,0:0:0:0:
260,184,78405,1,0,0:0:0:0:
260,184,78555,1,0,0:0:0:0:
260,184,78705,1,8,0:0:0:0:
260,184,78855,1,0,0:0:0:0:
260,184,79155,1,0,0:0:0:0:
260,184,79305,1,8,0:0:0:0:
260,184,79455,1,0,0:0:0:0:
260,184,79605,1,4,0:0:0:0:
260,184,79905,1,8,0:0:0:0:
260,184,80205,1,8,0:0:0:0:
260,184,80355,1,0,0:0:0:0:
260,184,80505,1,8,0:0:0:0:
260,184,80805,1,0,0:0:0:0:
260,184,80955,1,0,0:0:0:0:
260,184,81105,1,8,0:0:0:0:
260,184,81255,1,8,0:0:0:0:
260,184,81555,1,0,0:0:0:0:
260,184,81705,1,8,0:0:0:0:
256,192,81855,1,8,0:0:0:0:
260,184,82005,1,4,0:0:0:0:
260,184,82305,1,8,0:0:0:0:
260,184,82605,1,8,0:0:0:0:
260,184,82755,1,0,0:0:0:0:
260,184,82905,1,8,0:0:0:0:
260,184,83205,1,8,0:0:0:0:
260,184,83280,1,8,0:0:0:0:
260,184,83355,1,8,0:0:0:0:
260,184,83505,1,0,0:0:0:0:
260,184,83655,1,8,0:0:0:0:
260,184,83955,1,0,0:0:0:0:
260,184,84105,1,8,0:0:0:0:
260,184,84255,1,0,0:0:0:0:
260,184,84405,1,4,0:0:0:0:
260,184,84705,1,8,0:0:0:0:
260,184,85005,1,8,0:0:0:0:
260,184,85155,1,0,0:0:0:0:
260,184,85305,1,8,0:0:0:0:
260,184,85605,1,8,0:0:0:0:
260,184,85680,1,8,0:0:0:0:
260,184,85755,1,8,0:0:0:0:
256,176,85905,1,0,0:0:0:0:
260,184,86055,1,8,0:0:0:0:
260,184,86355,1,12,0:0:0:0:
260,184,86505,1,12,0:0:0:0:
260,184,86805,1,4,0:0:0:0:
