osu file format v14

[General]
AudioFilename: audio.mp3
AudioLeadIn: 0
PreviewTime: 36332
Countdown: 0
SampleSet: Normal
StackLeniency: 0.7
Mode: 3
LetterboxInBreaks: 0
SpecialStyle: 0
WidescreenStoryboard: 1

[Editor]
DistanceSpacing: 0.8
BeatDivisor: 4
GridSize: 32
TimelineZoom: 3.499999

[Metadata]
Title:S.M.L (TV Size)
TitleUnicode:S.M.L (TV Size)
Artist:Afilia Saga
ArtistUnicode:Afilia Saga
Creator:Matsumoto
Version:Normal
Source:
Tags:
BeatmapID:1365942
BeatmapSetID:644503

[Difficulty]
HPDrainRate:8
CircleSize:4
OverallDifficulty:5
ApproachRate:5
SliderMultiplier:1.4
SliderTickRate:1

[Events]
//Background and Video events
0,0,"background.png",0,0
//Break Periods
//Storyboard Layer 0 (Background)
//Storyboard Layer 1 (Fail)
//Storyboard Layer 2 (Pass)
//Storyboard Layer 3 (Foreground)
//Storyboard Sound Samples

[TimingPoints]
332,300,4,1,0,0,1,0
34082,-10,4,1,0,0,0,0
34119,-133.333333333333,4,1,0,0,0,0
34138,-2000,4,1,0,0,0,0
34532,-100,4,1,0,0,0,0
34682,-10,4,1,0,0,0,0
34719,-133.333333333333,4,1,0,0,0,0
34738,-2000,4,1,0,0,0,0
35132,-100,4,1,0,0,0,0
35282,-10,4,1,0,0,0,0
35319,-133.333333333333,4,1,0,0,0,0
35338,-2000,4,1,0,0,0,0
35732,-100,4,1,0,0,0,0

[HitObjects]
64,192,332,5,0,0:0:0:0:
192,192,332,128,0,632:0:0:0:0:
448,192,632,128,0,932:0:0:0:0:
64,192,632,1,0,0:0:0:0:
320,192,782,1,0,0:0:0:0:
192,192,932,1,0,0:0:0:0:
64,192,932,128,0,1382:0:0:0:0:
448,192,1232,1,0,0:0:0:0:
192,192,1382,128,0,1682:0:0:0:0:
320,192,1382,1,0,0:0:0:0:
64,192,1532,1,0,0:0:0:0:
448,192,1682,128,0,2132:0:0:0:0:
320,192,1682,1,0,0:0:0:0:
64,192,1832,1,0,0:0:0:0:
320,192,1982,1,0,0:0:0:0:
64,192,2132,128,0,2432:0:0:0:0:
192,192,2132,1,0,0:0:0:0:
320,192,2282,1,0,0:0:0:0:
448,192,2432,128,0,2582:0:0:0:0:
320,192,2432,1,0,0:0:0:0:
64,192,2582,1,0,0:0:0:0:
192,192,2657,1,8,0:0:0:0:
320,192,2732,1,0,0:0:0:0:
448,192,2732,1,0,0:0:0:0:
64,192,2732,128,0,3032:0:0:0:0:
320,192,3032,128,0,3332:0:0:0:0:
448,192,3032,1,0,0:0:0:0:
192,192,3182,1,0,0:0:0:0:
64,192,3332,128,0,3632:0:0:0:0:
448,192,3332,1,0,0:0:0:0:
192,192,3482,1,0,0:0:0:0:
448,192,3632,128,8,3782:0:0:0:0:
320,192,3632,1,0,0:0:0:0:
192,192,3782,1,0,0:0:0:0:
64,192,3932,1,0,0:0:0:0:
192,192,4082,1,0,0:0:0:0:
320,192,4082,1,0,0:0:0:0:
192,192,4232,1,8,0:0:0:0:
320,192,4232,1,0,0:0:0:0:
64,192,4382,1,8,0:0:0:0:
448,192,4382,1,0,0:0:0:0:
320,192,4382,1,0,0:0:0:0:
320,192,4682,1,8,0:0:0:0:
64,192,4682,1,0,0:0:0:0:
448,192,4682,1,0,0:0:0:0:
64,192,4832,128,0,4982:0:0:0:0:
192,192,4832,128,0,4982:0:0:0:0:
320,192,4832,1,0,0:0:0:0:
448,192,5132,128,0,5432:0:0:0:0:
192,192,5132,1,0,0:0:0:0:
64,192,5282,1,0,0:0:0:0:
192,192,5432,128,0,5732:0:0:0:0:
320,192,5432,1,0,0:0:0:0:
64,192,5582,1,0,0:0:0:0:
448,192,5732,1,0,0:0:0:0:
64,192,5732,128,0,6182:0:0:0:0:
192,192,5882,1,0,0:0:0:0:
320,192,6032,1,0,0:0:0:0:
448,192,6032,1,0,0:0:0:0:
192,192,6182,128,0,6482:0:0:0:0:
448,192,6182,1,0,0:0:0:0:
320,192,6332,1,0,0:0:0:0:
64,192,6482,128,0,6782:0:0:0:0:
448,192,6482,1,0,0:0:0:0:
320,192,6632,1,8,0:0:0:0:
192,192,6782,128,0,6932:0:0:0:0:
448,192,6782,1,0,0:0:0:0:
64,192,6932,1,0,0:0:0:0:
448,192,6932,128,0,7232:0:0:0:0:
320,192,7082,1,0,0:0:0:0:
192,192,7232,1,8,0:0:0:0:
64,192,7382,1,0,0:0:0:0:
192,192,7532,1,4,0:0:0:0:
448,192,7532,1,0,0:0:0:0:
320,192,7532,1,0,0:0:0:0:
64,192,7682,1,8,0:0:0:0:
192,192,7682,1,0,0:0:0:0:
448,192,7682,1,0,0:0:0:0:
320,192,7832,1,0,0:0:0:0:
192,192,7832,1,0,0:0:0:0:
64,192,7832,1,0,0:0:0:0:
192,192,7982,1,0,0:0:0:0:
64,192,7982,1,0,0:0:0:0:
320,192,7982,1,0,0:0:0:0:
320,192,8282,1,8,0:0:0:0:
448,192,8282,1,0,0:0:0:0:
320,192,8432,1,0,0:0:0:0:
448,192,8432,1,0,0:0:0:0:
320,192,8582,1,8,0:0:0:0:
448,192,8582,1,0,0:0:0:0:
64,192,8582,1,0,0:0:0:0:
64,192,8882,1,8,0:0:0:0:
192,192,8882,1,0,0:0:0:0:
320,192,8882,1,0,0:0:0:0:
64,192,9032,1,8,0:0:0:0:
448,192,9032,1,0,0:0:0:0:
320,192,9032,1,0,0:0:0:0:
320,192,9182,1,8,0:0:0:0:
448,192,9182,1,0,0:0:0:0:
192,192,9182,1,0,0:0:0:0:
448,192,9332,1,0,0:0:0:0:
64,192,9332,1,0,0:0:0:0:
192,192,9332,1,0,0:0:0:0:
448,192,9632,1,0,0:0:0:0:
320,192,9632,1,0,0:0:0:0:
64,192,9782,1,0,0:0:0:0:
192,192,9857,1,0,0:0:0:0:
448,192,9932,1,8,0:0:0:0:
320,192,9932,1,0,0:0:0:0:
64,192,10082,1,0,0:0:0:0:
448,192,10232,1,0,0:0:0:0:
192,192,10232,1,0,0:0:0:0:
320,192,10382,1,0,0:0:0:0:
64,192,10532,1,0,0:0:0:0:
448,192,10532,1,0,0:0:0:0:
320,192,10682,1,0,0:0:0:0:
192,192,10682,1,0,0:0:0:0:
64,192,10832,1,8,0:0:0:0:
448,192,10832,1,0,0:0:0:0:
192,192,10982,1,0,0:0:0:0:
320,192,11132,1,0,0:0:0:0:
448,192,11132,1,0,0:0:0:0:
192,192,11282,1,0,0:0:0:0:
64,192,11282,1,0,0:0:0:0:
320,192,11432,1,8,0:0:0:0:
448,192,11432,1,0,0:0:0:0:
64,192,11582,1,0,0:0:0:0:
448,192,11582,1,0,0:0:0:0:
192,192,11732,1,0,0:0:0:0:
320,192,11882,1,0,0:0:0:0:
64,192,11882,1,0,0:0:0:0:
448,192,12032,1,8,0:0:0:0:
192,192,12032,1,0,0:0:0:0:
64,192,12182,1,0,0:0:0:0:
320,192,12332,1,0,0:0:0:0:
448,192,12332,1,0,0:0:0:0:
192,192,12482,1,0,0:0:0:0:
448,192,12632,1,0,0:0:0:0:
64,192,12632,1,0,0:0:0:0:
320,192,12782,1,0,0:0:0:0:
192,192,12932,1,0,0:0:0:0:
64,192,12932,1,0,0:0:0:0:
448,192,13082,1,0,0:0:0:0:
320,192,13082,1,0,0:0:0:0:
64,192,13232,1,8,0:0:0:0:
320,192,13232,1,0,0:0:0:0:
320,192,13382,1,0,0:0:0:0:
448,192,13532,1,0,0:0:0:0:
64,192,13532,1,0,0:0:0:0:
192,192,13682,1,0,0:0:0:0:
320,192,13682,1,0,0:0:0:0:
448,192,13832,1,0,0:0:0:0:
64,192,13832,1,0,0:0:0:0:
192,192,13982,1,0,0:0:0:0:
320,192,13982,1,0,0:0:0:0:
448,192,14132,1,0,0:0:0:0:
64,192,14282,1,0,0:0:0:0:
320,192,14282,1,0,0:0:0:0:
448,192,14432,1,0,0:0:0:0:
192,192,14432,1,0,0:0:0:0:
320,192,14582,1,0,0:0:0:0:
64,192,14732,1,0,0:0:0:0:
448,192,14732,1,0,0:0:0:0:
320,192,14882,1,0,0:0:0:0:
192,192,15032,1,0,0:0:0:0:
64,192,15032,1,0,0:0:0:0:
448,192,15182,1,0,0:0:0:0:
192,192,15332,1,0,0:0:0:0:
320,192,15332,1,0,0:0:0:0:
448,192,15482,1,0,0:0:0:0:
64,192,15482,1,0,0:0:0:0:
320,192,15632,1,0,0:0:0:0:
448,192,15632,1,0,0:0:0:0:
64,192,15782,1,0,0:0:0:0:
192,192,15932,1,0,0:0:0:0:
448,192,15932,1,0,0:0:0:0:
64,192,16082,1,0,0:0:0:0:
320,192,16082,1,0,0:0:0:0:
192,192,16232,1,8,0:0:0:0:
320,192,16232,1,0,0:0:0:0:
448,192,16382,1,0,0:0:0:0:
320,192,16382,1,0,0:0:0:0:
192,192,16532,1,0,0:0:0:0:
448,192,16682,1,0,0:0:0:0:
64,192,16682,1,0,0:0:0:0:
192,192,16832,1,0,0:0:0:0:
320,192,16832,1,0,0:0:0:0:
64,192,16982,1,0,0:0:0:0:
448,192,17132,1,4,0:0:0:0:
192,192,17132,1,0,0:0:0:0:
320,192,17132,1,0,0:0:0:0:
64,192,17282,1,0,0:0:0:0:
448,192,17432,1,0,0:0:0:0:
192,192,17432,1,0,0:0:0:0:
64,192,17582,1,0,0:0:0:0:
192,192,17582,1,0,0:0:0:0:
448,192,17732,1,0,0:0:0:0:
64,192,17882,1,0,0:0:0:0:
320,192,17882,1,0,0:0:0:0:
448,192,18032,1,8,0:0:0:0:
192,192,18032,1,0,0:0:0:0:
320,192,18182,1,0,0:0:0:0:
64,192,18332,128,8,18482:0:0:0:0:
192,192,18332,1,0,0:0:0:0:
448,192,18482,1,0,0:0:0:0:
320,192,18482,128,0,18632:0:0:0:0:
64,192,18632,1,0,0:0:0:0:
192,192,18632,128,0,18782:0:0:0:0:
448,192,18782,128,8,18932:0:0:0:0:
320,192,18782,1,0,0:0:0:0:
64,192,19082,128,0,19232:0:0:0:0:
192,192,19082,128,0,19232:0:0:0:0:
448,192,19232,128,8,19532:0:0:0:0:
320,192,19232,128,0,19532:0:0:0:0:
192,192,19532,1,4,0:0:0:0:
64,192,19532,1,0,0:0:0:0:
448,192,19682,1,0,0:0:0:0:
192,192,19832,1,8,0:0:0:0:
320,192,19832,1,0,0:0:0:0:
64,192,19982,1,0,0:0:0:0:
448,192,20132,1,0,0:0:0:0:
320,192,20132,1,0,0:0:0:0:
64,192,20282,1,0,0:0:0:0:
448,192,20282,1,0,0:0:0:0:
320,192,20432,1,0,0:0:0:0:
192,192,20432,1,0,0:0:0:0:
64,192,20582,1,0,0:0:0:0:
192,192,20732,1,0,0:0:0:0:
448,192,20732,1,0,0:0:0:0:
320,192,20882,1,0,0:0:0:0:
448,192,21032,1,0,0:0:0:0:
64,192,21032,1,0,0:0:0:0:
192,192,21182,1,8,0:0:0:0:
64,192,21182,1,0,0:0:0:0:
448,192,21332,1,0,0:0:0:0:
192,192,21482,1,0,0:0:0:0:
320,192,21482,1,0,0:0:0:0:
448,192,21632,1,8,0:0:0:0:
64,192,21632,1,0,0:0:0:0:
192,192,21782,1,0,0:0:0:0:
320,192,21932,1,0,0:0:0:0:
448,192,21932,1,0,0:0:0:0:
192,192,22082,1,0,0:0:0:0:
448,192,22232,1,8,0:0:0:0:
64,192,22232,1,0,0:0:0:0:
320,192,22382,1,0,0:0:0:0:
64,192,22532,1,0,0:0:0:0:
448,192,22532,1,0,0:0:0:0:
320,192,22682,1,0,0:0:0:0:
448,192,22682,1,0,0:0:0:0:
64,192,22832,1,0,0:0:0:0:
320,192,22832,1,0,0:0:0:0:
192,192,22982,1,0,0:0:0:0:
448,192,23132,1,0,0:0:0:0:
64,192,23132,1,0,0:0:0:0:
192,192,23282,1,0,0:0:0:0:
320,192,23282,1,0,0:0:0:0:
448,192,23432,1,0,0:0:0:0:
64,192,23432,1,0,0:0:0:0:
320,192,23582,1,0,0:0:0:0:
192,192,23582,1,0,0:0:0:0:
64,192,23732,1,0,0:0:0:0:
320,192,23732,1,0,0:0:0:0:
448,192,23882,1,0,0:0:0:0:
192,192,23882,1,0,0:0:0:0:
64,192,24032,1,0,0:0:0:0:
192,192,24032,1,0,0:0:0:0:
448,192,24182,1,0,0:0:0:0:
192,192,24332,1,0,0:0:0:0:
64,192,24332,1,0,0:0:0:0:
320,192,24332,1,0,0:0:0:0:
448,192,24482,1,0,0:0:0:0:
64,192,24632,1,0,0:0:0:0:
320,192,24632,1,0,0:0:0:0:
448,192,24782,1,0,0:0:0:0:
192,192,24782,1,0,0:0:0:0:
320,192,24932,1,0,0:0:0:0:
64,192,25082,1,0,0:0:0:0:
448,192,25082,1,0,0:0:0:0:
192,192,25232,1,0,0:0:0:0:
320,192,25232,1,0,0:0:0:0:
64,192,25382,1,0,0:0:0:0:
448,192,25532,1,0,0:0:0:0:
192,192,25532,1,0,0:0:0:0:
320,192,25682,1,0,0:0:0:0:
64,192,25832,1,0,0:0:0:0:
448,192,25832,1,0,0:0:0:0:
64,192,25982,1,0,0:0:0:0:
192,192,25982,1,0,0:0:0:0:
448,192,26132,1,0,0:0:0:0:
320,192,26282,1,0,0:0:0:0:
64,192,26282,1,0,0:0:0:0:
448,192,26432,1,0,0:0:0:0:
192,192,26432,1,0,0:0:0:0:
320,192,26582,1,0,0:0:0:0:
192,192,26732,1,0,0:0:0:0:
64,192,26732,1,0,0:0:0:0:
320,192,26882,1,0,0:0:0:0:
192,192,27032,1,0,0:0:0:0:
64,192,27032,1,4,0:0:0:0:
448,192,27032,1,0,0:0:0:0:
320,192,27182,1,0,0:0:0:0:
64,192,27332,1,0,0:0:0:0:
448,192,27332,1,0,0:0:0:0:
320,192,27482,1,0,0:0:0:0:
192,192,27482,1,0,0:0:0:0:
64,192,27632,1,8,0:0:0:0:
192,192,27632,1,0,0:0:0:0:
448,192,27632,1,0,0:0:0:0:
320,192,27782,1,0,0:0:0:0:
64,192,27932,1,0,0:0:0:0:
192,192,27932,1,0,0:0:0:0:
320,192,27932,1,0,0:0:0:0:
448,192,28082,1,0,0:0:0:0:
448,192,28232,1,0,0:0:0:0:
320,192,28232,1,0,0:0:0:0:
192,192,28232,1,0,0:0:0:0:
64,192,28382,1,0,0:0:0:0:
192,192,28532,1,0,0:0:0:0:
64,192,28532,1,0,0:0:0:0:
448,192,28532,1,0,0:0:0:0:
320,192,28682,1,0,0:0:0:0:
64,192,28832,1,0,0:0:0:0:
192,192,28832,1,0,0:0:0:0:
320,192,28832,1,0,0:0:0:0:
192,192,29132,1,0,0:0:0:0:
448,192,29132,1,0,0:0:0:0:
64,192,29132,1,0,0:0:0:0:
320,192,29282,1,0,0:0:0:0:
64,192,29432,1,0,0:0:0:0:
448,192,29432,128,0,29582:0:0:0:0:
192,192,29582,1,0,0:0:0:0:
320,192,29732,128,0,29882:0:0:0:0:
448,192,29732,1,0,0:0:0:0:
192,192,29882,1,0,0:0:0:0:
448,192,30032,1,0,0:0:0:0:
192,192,30032,128,0,30182:0:0:0:0:
320,192,30182,1,0,0:0:0:0:
448,192,30332,1,0,0:0:0:0:
320,192,30332,1,0,0:0:0:0:
64,192,30332,1,0,0:0:0:0:
192,192,30482,1,0,0:0:0:0:
192,192,30632,1,0,0:0:0:0:
64,192,30632,1,0,0:0:0:0:
320,192,30632,1,0,0:0:0:0:
448,192,30782,1,0,0:0:0:0:
64,192,30932,1,0,0:0:0:0:
448,192,30932,1,0,0:0:0:0:
320,192,30932,1,0,0:0:0:0:
192,192,31082,1,0,0:0:0:0:
192,192,31232,1,0,0:0:0:0:
448,192,31232,1,0,0:0:0:0:
64,192,31232,1,0,0:0:0:0:
320,192,31382,1,0,0:0:0:0:
192,192,31532,1,0,0:0:0:0:
64,192,31532,1,0,0:0:0:0:
448,192,31682,1,0,0:0:0:0:
320,192,31832,1,0,0:0:0:0:
192,192,31832,128,0,31982:0:0:0:0:
448,192,31982,1,0,0:0:0:0:
64,192,32132,1,0,0:0:0:0:
320,192,32132,128,0,32282:0:0:0:0:
192,192,32282,1,0,0:0:0:0:
64,192,32432,1,0,0:0:0:0:
448,192,32432,128,0,32582:0:0:0:0:
192,192,32582,1,0,0:0:0:0:
64,192,32732,1,0,0:0:0:0:
192,192,32732,1,0,0:0:0:0:
448,192,32732,1,0,0:0:0:0:
320,192,32882,1,0,0:0:0:0:
448,192,33032,1,0,0:0:0:0:
320,192,33032,1,0,0:0:0:0:
64,192,33032,1,0,0:0:0:0:
192,192,33182,1,0,0:0:0:0:
448,192,33332,1,0,0:0:0:0:
192,192,33332,1,0,0:0:0:0:
64,192,33332,1,0,0:0:0:0:
320,192,33482,1,0,0:0:0:0:
448,192,33632,1,0,0:0:0:0:
320,192,33632,1,0,0:0:0:0:
64,192,33632,1,0,0:0:0:0:
448,192,33932,1,0,0:0:0:0:
192,192,33932,1,0,0:0:0:0:
64,192,33932,1,0,0:0:0:0:
64,192,34082,1,0,0:0:0:0:
192,192,34082,1,0,0:0:0:0:
448,192,34082,1,0,0:0:0:0:
320,192,34532,1,0,0:0:0:0:
448,192,34532,1,0,0:0:0:0:
64,192,34532,1,0,0:0:0:0:
320,192,34682,1,0,0:0:0:0:
448,192,34682,1,0,0:0:0:0:
64,192,34682,1,0,0:0:0:0:
192,192,35132,1,0,0:0:0:0:
320,192,35132,1,0,0:0:0:0:
448,192,35132,1,0,0:0:0:0:
192,192,35282,1,0,0:0:0:0:
320,192,35282,1,0,0:0:0:0:
448,192,35282,1,0,0:0:0:0:
64,192,35732,1,0,0:0:0:0:
192,192,35732,1,0,0:0:0:0:
320,192,35732,1,0,0:0:0:0:
64,192,35882,1,0,0:0:0:0:
192,192,35882,1,0,0:0:0:0:
320,192,35882,1,0,0:0:0:0:
448,192,36332,1,0,0:0:0:0:
320,192,36332,1,0,0:0:0:0:
192,192,36407,1,0,0:0:0:0:
64,192,36482,1,0,0:0:0:0:
448,192,36557,1,0,0:0:0:0:
320,192,36632,1,0,0:0:0:0:
192,192,36632,1,0,0:0:0:0:
64,192,36707,1,0,0:0:0:0:
448,192,36782,1,0,0:0:0:0:
320,192,36857,1,0,0:0:0:0:
192,192,36932,1,0,0:0:0:0:
64,192,36932,1,0,0:0:0:0:
320,192,37007,1,0,0:0:0:0:
448,192,37007,1,0,0:0:0:0:
64,192,37082,1,0,0:0:0:0:
192,192,37082,1,0,0:0:0:0:
448,192,37157,1,0,0:0:0:0:
320,192,37157,1,0,0:0:0:0:
64,192,37232,1,0,0:0:0:0:
192,192,37232,1,0,0:0:0:0:
448,192,37307,1,0,0:0:0:0:
320,192,37307,1,0,0:0:0:0:
64,192,37382,1,0,0:0:0:0:
192,192,37382,1,0,0:0:0:0:
320,192,37457,1,0,0:0:0:0:
448,192,37457,1,0,0:0:0:0:
64,192,37532,1,0,0:0:0:0:
192,192,37532,1,0,0:0:0:0:
448,192,37757,1,0,0:0:0:0:
320,192,37757,1,0,0:0:0:0:
192,192,37907,1,0,0:0:0:0:
64,192,37907,1,0,0:0:0:0:
192,192,38132,1,0,0:0:0:0:
320,192,38132,1,0,0:0:0:0:
448,192,38132,1,4,0:0:0:0:
64,192,38432,128,0,38582:0:0:0:0:
448,192,38432,128,0,38582:0:0:0:0:
64,192,38732,1,0,0:0:0:0:
192,192,38732,1,0,0:0:0:0:
448,192,38732,1,0,0:0:0:0:
320,192,38807,1,0,0:0:0:0:
192,192,38882,1,0,0:0:0:0:
64,192,38957,1,0,0:0:0:0:
448,192,39032,1,0,0:0:0:0:
320,192,39032,1,0,0:0:0:0:
192,192,39107,1,0,0:0:0:0:
64,192,39182,1,0,0:0:0:0:
448,192,39257,1,0,0:0:0:0:
64,192,39332,1,0,0:0:0:0:
192,192,39332,1,0,0:0:0:0:
320,192,39407,1,0,0:0:0:0:
64,192,39482,1,0,0:0:0:0:
448,192,39482,1,0,0:0:0:0:
192,192,39557,1,0,0:0:0:0:
64,192,39632,1,0,0:0:0:0:
448,192,39632,1,0,0:0:0:0:
320,192,39632,1,0,0:0:0:0:
192,192,39707,1,0,0:0:0:0:
64,192,39782,1,0,0:0:0:0:
448,192,39857,1,0,0:0:0:0:
320,192,39932,1,0,0:0:0:0:
64,192,39932,1,0,0:0:0:0:
192,192,39932,1,0,0:0:0:0:
448,192,40007,1,0,0:0:0:0:
320,192,40082,1,0,0:0:0:0:
192,192,40157,1,0,0:0:0:0:
64,192,40232,1,0,0:0:0:0:
448,192,40232,1,0,0:0:0:0:
320,192,40307,1,0,0:0:0:0:
448,192,40382,1,0,0:0:0:0:
64,192,40457,1,0,0:0:0:0:
192,192,40532,1,0,0:0:0:0:
320,192,40532,1,0,0:0:0:0:
448,192,40607,1,0,0:0:0:0:
64,192,40682,1,0,0:0:0:0:
192,192,40682,1,0,0:0:0:0:
320,192,40757,1,0,0:0:0:0:
64,192,40832,1,0,0:0:0:0:
448,192,40832,1,0,0:0:0:0:
192,192,40832,1,0,0:0:0:0:
320,192,40907,1,0,0:0:0:0:
192,192,40982,1,0,0:0:0:0:
448,192,41057,1,0,0:0:0:0:
64,192,41132,1,0,0:0:0:0:
192,192,41132,1,0,0:0:0:0:
320,192,41132,1,0,0:0:0:0:
448,192,41207,1,0,0:0:0:0:
64,192,41282,1,0,0:0:0:0:
192,192,41357,1,0,0:0:0:0:
320,192,41432,1,0,0:0:0:0:
448,192,41432,1,0,0:0:0:0:
64,192,41507,1,0,0:0:0:0:
192,192,41582,1,0,0:0:0:0:
320,192,41657,1,0,0:0:0:0:
64,192,41732,1,0,0:0:0:0:
448,192,41732,1,0,0:0:0:0:
192,192,41807,1,0,0:0:0:0:
448,192,41882,1,0,0:0:0:0:
320,192,41882,1,0,0:0:0:0:
64,192,41957,1,0,0:0:0:0:
192,192,42032,1,0,0:0:0:0:
448,192,42032,1,0,0:0:0:0:
320,192,42032,1,0,0:0:0:0:
64,192,42107,1,0,0:0:0:0:
448,192,42182,1,0,0:0:0:0:
320,192,42257,1,0,0:0:0:0:
64,192,42332,1,0,0:0:0:0:
448,192,42332,1,0,0:0:0:0:
192,192,42332,1,0,0:0:0:0:
320,192,42407,1,0,0:0:0:0:
448,192,42482,1,0,0:0:0:0:
64,192,42557,1,0,0:0:0:0:
192,192,42632,1,0,0:0:0:0:
320,192,42632,1,0,0:0:0:0:
448,192,42707,1,0,0:0:0:0:
64,192,42782,1,0,0:0:0:0:
192,192,42857,1,0,0:0:0:0:
320,192,42932,1,0,0:0:0:0:
448,192,42932,1,0,0:0:0:0:
64,192,43007,1,0,0:0:0:0:
320,192,43082,1,0,0:0:0:0:
192,192,43082,1,0,0:0:0:0:
448,192,43157,1,0,0:0:0:0:
64,192,43232,1,0,0:0:0:0:
320,192,43232,1,0,0:0:0:0:
192,192,43232,1,0,0:0:0:0:
448,192,43307,1,0,0:0:0:0:
64,192,43382,1,0,0:0:0:0:
192,192,43457,1,0,0:0:0:0:
64,192,43532,1,0,0:0:0:0:
448,192,43532,1,0,0:0:0:0:
320,192,43532,1,0,0:0:0:0:
192,192,43607,1,0,0:0:0:0:
320,192,43682,1,0,0:0:0:0:
448,192,43757,1,0,0:0:0:0:
64,192,43832,1,0,0:0:0:0:
192,192,43832,1,0,0:0:0:0:
320,192,43832,1,0,0:0:0:0:
448,192,43907,1,0,0:0:0:0:
320,192,43982,1,0,0:0:0:0:
192,192,44057,1,0,0:0:0:0:
64,192,44132,1,0,0:0:0:0:
448,192,44132,1,0,0:0:0:0:
320,192,44207,1,0,0:0:0:0:
64,192,44282,1,0,0:0:0:0:
192,192,44282,1,0,0:0:0:0:
448,192,44357,1,0,0:0:0:0:
64,192,44432,1,0,0:0:0:0:
320,192,44432,1,0,0:0:0:0:
192,192,44432,1,0,0:0:0:0:
448,192,44507,1,0,0:0:0:0:
64,192,44582,1,0,0:0:0:0:
192,192,44657,1,0,0:0:0:0:
320,192,44732,1,0,0:0:0:0:
64,192,44732,1,0,0:0:0:0:
448,192,44732,1,0,0:0:0:0:
192,192,44807,1,0,0:0:0:0:
320,192,44882,1,0,0:0:0:0:
448,192,44957,1,0,0:0:0:0:
64,192,45032,1,0,0:0:0:0:
192,192,45032,1,0,0:0:0:0:
320,192,45107,1,0,0:0:0:0:
448,192,45182,1,0,0:0:0:0:
64,192,45257,1,0,0:0:0:0:
320,192,45332,1,0,0:0:0:0:
192,192,45332,1,0,0:0:0:0:
448,192,45407,1,0,0:0:0:0:
64,192,45482,1,0,0:0:0:0:
192,192,45482,1,0,0:0:0:0:
320,192,45557,1,0,0:0:0:0:
64,192,45632,1,0,0:0:0:0:
448,192,45632,1,0,0:0:0:0:
192,192,45632,1,0,0:0:0:0:
320,192,45707,1,0,0:0:0:0:
448,192,45782,1,0,0:0:0:0:
64,192,45857,1,0,0:0:0:0:
320,192,45932,1,0,0:0:0:0:
448,192,45932,1,0,0:0:0:0:
192,192,45932,1,0,0:0:0:0:
64,192,46007,1,0,0:0:0:0:
448,192,46082,1,0,0:0:0:0:
320,192,46157,1,0,0:0:0:0:
64,192,46232,1,0,0:0:0:0:
192,192,46232,1,0,0:0:0:0:
448,192,46307,1,0,0:0:0:0:
320,192,46382,1,0,0:0:0:0:
192,192,46457,1,0,0:0:0:0:
64,192,46532,1,0,0:0:0:0:
448,192,46532,1,0,0:0:0:0:
320,192,46607,1,0,0:0:0:0:
64,192,46682,1,0,0:0:0:0:
192,192,46682,1,0,0:0:0:0:
448,192,46757,1,0,0:0:0:0:
64,192,46832,1,0,0:0:0:0:
192,192,46832,1,0,0:0:0:0:
320,192,46832,1,0,0:0:0:0:
448,192,46907,1,0,0:0:0:0:
192,192,46982,1,0,0:0:0:0:
320,192,46982,1,0,0:0:0:0:
64,192,47132,1,0,0:0:0:0:
448,192,47132,1,0,0:0:0:0:
320,192,47282,1,0,0:0:0:0:
448,192,47432,1,0,0:0:0:0:
320,192,47432,1,0,0:0:0:0:
64,192,47432,1,0,0:0:0:0:
192,192,47582,1,0,0:0:0:0:
64,192,47732,1,4,0:0:0:0:
192,192,47732,1,0,0:0:0:0:
320,192,47732,1,0,0:0:0:0:
448,192,47882,1,0,0:0:0:0:
320,192,48032,1,0,0:0:0:0:
192,192,48032,1,0,0:0:0:0:
448,192,48032,1,0,0:0:0:0:
64,192,48182,1,0,0:0:0:0:
192,192,48257,1,0,0:0:0:0:
448,192,48332,1,0,0:0:0:0:
320,192,48332,1,0,0:0:0:0:
64,192,48332,1,0,0:0:0:0:
192,192,48407,1,0,0:0:0:0:
320,192,48482,1,0,0:0:0:0:
448,192,48557,1,0,0:0:0:0:
64,192,48632,1,8,0:0:0:0:
192,192,48632,1,0,0:0:0:0:
320,192,48707,1,0,0:0:0:0:
448,192,48782,1,0,0:0:0:0:
64,192,48857,1,0,0:0:0:0:
192,192,48932,1,0,0:0:0:0:
320,192,48932,1,0,0:0:0:0:
448,192,49007,1,0,0:0:0:0:
192,192,49082,1,0,0:0:0:0:
64,192,49082,1,0,0:0:0:0:
320,192,49157,1,0,0:0:0:0:
448,192,49232,1,8,0:0:0:0:
64,192,49232,1,0,0:0:0:0:
192,192,49232,1,0,0:0:0:0:
320,192,49307,1,0,0:0:0:0:
192,192,49382,1,0,0:0:0:0:
64,192,49457,1,0,0:0:0:0:
448,192,49532,1,0,0:0:0:0:
320,192,49532,1,0,0:0:0:0:
192,192,49532,1,0,0:0:0:0:
64,192,49607,1,0,0:0:0:0:
448,192,49682,1,0,0:0:0:0:
320,192,49757,1,0,0:0:0:0:
192,192,49832,1,0,0:0:0:0:
448,192,49832,1,0,0:0:0:0:
64,192,49907,1,0,0:0:0:0:
448,192,49982,1,0,0:0:0:0:
320,192,50057,1,8,0:0:0:0:
64,192,50132,1,0,0:0:0:0:
192,192,50132,1,0,0:0:0:0:
320,192,50207,1,0,0:0:0:0:
448,192,50282,1,0,0:0:0:0:
64,192,50282,1,0,0:0:0:0:
192,192,50357,1,0,0:0:0:0:
320,192,50432,1,0,0:0:0:0:
448,192,50432,1,0,0:0:0:0:
64,192,50432,1,0,0:0:0:0:
192,192,50507,1,0,0:0:0:0:
448,192,50582,1,0,0:0:0:0:
320,192,50657,1,0,0:0:0:0:
64,192,50732,1,0,0:0:0:0:
448,192,50732,1,0,0:0:0:0:
192,192,50732,1,0,0:0:0:0:
320,192,50807,1,0,0:0:0:0:
448,192,50882,1,0,0:0:0:0:
192,192,50957,1,0,0:0:0:0:
64,192,51032,1,0,0:0:0:0:
448,192,51032,1,0,0:0:0:0:
320,192,51107,1,0,0:0:0:0:
192,192,51182,1,0,0:0:0:0:
64,192,51257,1,0,0:0:0:0:
320,192,51332,1,0,0:0:0:0:
448,192,51332,1,0,0:0:0:0:
192,192,51407,1,0,0:0:0:0:
64,192,51482,1,0,0:0:0:0:
448,192,51482,1,0,0:0:0:0:
320,192,51557,1,0,0:0:0:0:
448,192,51632,1,8,0:0:0:0:
64,192,51632,1,0,0:0:0:0:
192,192,51632,1,0,0:0:0:0:
320,192,51707,1,0,0:0:0:0:
192,192,51782,1,0,0:0:0:0:
64,192,51857,1,0,0:0:0:0:
320,192,51932,1,0,0:0:0:0:
448,192,51932,1,0,0:0:0:0:
192,192,51932,1,0,0:0:0:0:
64,192,52007,1,0,0:0:0:0:
448,192,52082,1,0,0:0:0:0:
320,192,52157,1,0,0:0:0:0:
192,192,52232,1,8,0:0:0:0:
64,192,52232,1,0,0:0:0:0:
320,192,52307,1,0,0:0:0:0:
448,192,52382,1,0,0:0:0:0:
64,192,52457,1,0,0:0:0:0:
448,192,52532,1,0,0:0:0:0:
192,192,52532,1,0,0:0:0:0:
320,192,52607,1,0,0:0:0:0:
64,192,52682,1,0,0:0:0:0:
448,192,52682,1,0,0:0:0:0:
192,192,52757,1,0,0:0:0:0:
320,192,52832,1,0,0:0:0:0:
448,192,52832,1,0,0:0:0:0:
64,192,52832,1,0,0:0:0:0:
192,192,52907,1,0,0:0:0:0:
320,192,52982,1,0,0:0:0:0:
448,192,53057,1,0,0:0:0:0:
64,192,53132,1,0,0:0:0:0:
192,192,53132,1,0,0:0:0:0:
320,192,53132,1,0,0:0:0:0:
448,192,53207,1,0,0:0:0:0:
320,192,53282,1,0,0:0:0:0:
192,192,53357,1,0,0:0:0:0:
64,192,53432,1,8,0:0:0:0:
448,192,53432,1,0,0:0:0:0:
320,192,53507,1,0,0:0:0:0:
448,192,53582,1,0,0:0:0:0:
64,192,53657,1,0,0:0:0:0:
320,192,53732,1,0,0:0:0:0:
192,192,53732,1,0,0:0:0:0:
448,192,53807,1,0,0:0:0:0:
320,192,53882,1,0,0:0:0:0:
64,192,53882,1,0,0:0:0:0:
192,192,53957,1,0,0:0:0:0:
64,192,54032,1,0,0:0:0:0:
448,192,54032,1,0,0:0:0:0:
320,192,54032,1,0,0:0:0:0:
192,192,54107,1,0,0:0:0:0:
64,192,54182,1,0,0:0:0:0:
448,192,54257,1,0,0:0:0:0:
320,192,54332,1,0,0:0:0:0:
192,192,54332,1,0,0:0:0:0:
64,192,54332,1,0,0:0:0:0:
448,192,54407,1,0,0:0:0:0:
192,192,54482,1,0,0:0:0:0:
320,192,54557,1,0,0:0:0:0:
448,192,54632,1,0,0:0:0:0:
64,192,54632,1,0,0:0:0:0:
192,192,54707,1,0,0:0:0:0:
448,192,54782,1,0,0:0:0:0:
320,192,54857,1,0,0:0:0:0:
192,192,54932,1,0,0:0:0:0:
64,192,54932,1,0,0:0:0:0:
448,192,55007,1,0,0:0:0:0:
320,192,55082,1,0,0:0:0:0:
192,192,55082,1,0,0:0:0:0:
64,192,55157,1,0,0:0:0:0:
448,192,55232,1,0,0:0:0:0:
192,192,55232,1,0,0:0:0:0:
320,192,55232,1,0,0:0:0:0:
64,192,55307,1,0,0:0:0:0:
192,192,55382,1,0,0:0:0:0:
320,192,55457,1,0,0:0:0:0:
448,192,55532,1,0,0:0:0:0:
64,192,55532,1,0,0:0:0:0:
192,192,55532,1,0,0:0:0:0:
320,192,55607,1,0,0:0:0:0:
448,192,55682,1,0,0:0:0:0:
64,192,55757,1,0,0:0:0:0:
320,192,55832,1,8,0:0:0:0:
192,192,55832,1,0,0:0:0:0:
448,192,55907,1,0,0:0:0:0:
192,192,55982,1,0,0:0:0:0:
320,192,56057,1,0,0:0:0:0:
448,192,56132,1,0,0:0:0:0:
64,192,56132,1,0,0:0:0:0:
192,192,56207,1,0,0:0:0:0:
320,192,56282,1,0,0:0:0:0:
448,192,56282,1,0,0:0:0:0:
192,192,56357,1,0,0:0:0:0:
64,192,56432,1,0,0:0:0:0:
448,192,56432,1,0,0:0:0:0:
320,192,56432,1,0,0:0:0:0:
192,192,56507,1,0,0:0:0:0:
320,192,56582,1,8,0:0:0:0:
448,192,56582,1,0,0:0:0:0:
64,192,56657,1,8,0:0:0:0:
192,192,56732,1,4,0:0:0:0:
320,192,56732,1,0,0:0:0:0:
448,192,56732,1,0,0:0:0:0:
64,192,56882,1,0,0:0:0:0:
192,192,56957,1,0,0:0:0:0:
320,192,57032,1,4,0:0:0:0:
448,192,57032,1,0,0:0:0:0:
64,192,57182,1,0,0:0:0:0:
192,192,57257,1,0,0:0:0:0:
448,192,57332,1,0,0:0:0:0:
320,192,57332,1,0,0:0:0:0:
320,192,57482,1,0,0:0:0:0:
192,192,57557,1,0,0:0:0:0:
448,192,57632,1,4,0:0:0:0:
64,192,57632,1,0,0:0:0:0:
320,192,57707,1,0,0:0:0:0:
192,192,57782,1,0,0:0:0:0:
64,192,57857,1,0,0:0:0:0:
320,192,57932,1,4,0:0:0:0:
192,192,57932,1,0,0:0:0:0:
448,192,57932,1,0,0:0:0:0:
64,192,58082,1,0,0:0:0:0:
192,192,58232,1,0,0:0:0:0:
320,192,58232,1,0,0:0:0:0:
448,192,58382,1,0,0:0:0:0:
320,192,58457,1,0,0:0:0:0:
64,192,58532,1,0,0:0:0:0:
192,192,58532,1,0,0:0:0:0:
448,192,58682,1,0,0:0:0:0:
320,192,58682,1,0,0:0:0:0:
64,192,58832,1,8,0:0:0:0:
192,192,58832,1,0,0:0:0:0:
320,192,58982,1,0,0:0:0:0:
64,192,59132,1,0,0:0:0:0:
448,192,59132,1,0,0:0:0:0:
192,192,59282,1,0,0:0:0:0:
320,192,59432,1,8,0:0:0:0:
448,192,59432,1,0,0:0:0:0:
64,192,59582,1,0,0:0:0:0:
192,192,59657,1,0,0:0:0:0:
320,192,59732,1,0,0:0:0:0:
448,192,59732,1,0,0:0:0:0:
64,192,59882,1,0,0:0:0:0:
192,192,59882,1,0,0:0:0:0:
448,192,60032,1,8,0:0:0:0:
64,192,60032,1,0,0:0:0:0:
320,192,60182,1,0,0:0:0:0:
64,192,60332,1,0,0:0:0:0:
192,192,60332,1,0,0:0:0:0:
448,192,60482,1,0,0:0:0:0:
64,192,60632,1,0,0:0:0:0:
320,192,60632,1,0,0:0:0:0:
192,192,60782,1,0,0:0:0:0:
320,192,60857,1,0,0:0:0:0:
64,192,60932,1,0,0:0:0:0:
448,192,60932,1,0,0:0:0:0:
192,192,61082,1,0,0:0:0:0:
320,192,61082,1,0,0:0:0:0:
448,192,61232,1,0,0:0:0:0:
64,192,61232,1,0,0:0:0:0:
320,192,61382,1,0,0:0:0:0:
192,192,61532,1,0,0:0:0:0:
64,192,61532,1,0,0:0:0:0:
320,192,61682,1,0,0:0:0:0:
64,192,61832,1,8,0:0:0:0:
448,192,61832,1,0,0:0:0:0:
192,192,61982,1,0,0:0:0:0:
320,192,62057,1,0,0:0:0:0:
448,192,62132,1,0,0:0:0:0:
64,192,62132,1,0,0:0:0:0:
192,192,62282,1,0,0:0:0:0:
320,192,62432,1,0,0:0:0:0:
448,192,62432,1,0,0:0:0:0:
64,192,62582,1,0,0:0:0:0:
192,192,62657,1,0,0:0:0:0:
320,192,62732,1,4,0:0:0:0:
448,192,62732,1,0,0:0:0:0:
192,192,62882,1,0,0:0:0:0:
448,192,63032,1,0,0:0:0:0:
64,192,63032,1,4,0:0:0:0:
320,192,63182,1,0,0:0:0:0:
192,192,63257,1,0,0:0:0:0:
448,192,63332,1,0,0:0:0:0:
64,192,63332,1,0,0:0:0:0:
320,192,63482,1,0,0:0:0:0:
448,192,63482,1,0,0:0:0:0:
64,192,63632,1,8,0:0:0:0:
192,192,63632,1,0,0:0:0:0:
448,192,63782,1,0,0:0:0:0:
64,192,63932,1,0,0:0:0:0:
320,192,63932,1,0,0:0:0:0:
192,192,64082,1,0,0:0:0:0:
320,192,64232,1,8,0:0:0:0:
448,192,64232,1,0,0:0:0:0:
64,192,64382,1,0,0:0:0:0:
192,192,64457,1,0,0:0:0:0:
448,192,64532,1,0,0:0:0:0:
320,192,64532,1,0,0:0:0:0:
192,192,64682,1,0,0:0:0:0:
64,192,64682,1,0,0:0:0:0:
448,192,64832,1,0,0:0:0:0:
64,192,64832,1,0,0:0:0:0:
320,192,64982,1,0,0:0:0:0:
192,192,65057,1,0,0:0:0:0:
448,192,65132,1,0,0:0:0:0:
64,192,65132,1,0,0:0:0:0:
320,192,65282,1,0,0:0:0:0:
192,192,65432,1,4,0:0:0:0:
64,192,65432,1,0,0:0:0:0:
320,192,65582,1,0,0:0:0:0:
448,192,65582,1,0,0:0:0:0:
320,192,65732,1,0,0:0:0:0:
448,192,65732,1,0,0:0:0:0:
64,192,65732,1,0,0:0:0:0:
192,192,65882,1,0,0:0:0:0:
448,192,66032,1,0,0:0:0:0:
64,192,66032,1,0,0:0:0:0:
64,192,66182,1,0,0:0:0:0:
448,192,66182,1,0,0:0:0:0:
320,192,66182,1,0,0:0:0:0:
64,192,66332,1,0,0:0:0:0:
192,192,66332,1,0,0:0:0:0:
320,192,66407,1,0,0:0:0:0:
448,192,66482,1,0,0:0:0:0:
64,192,66557,1,0,0:0:0:0:
192,192,66632,1,0,0:0:0:0:
320,192,66632,1,0,0:0:0:0:
448,192,66707,1,0,0:0:0:0:
64,192,66782,1,0,0:0:0:0:
192,192,66857,1,0,0:0:0:0:
320,192,66932,1,0,0:0:0:0:
448,192,66932,1,0,0:0:0:0:
192,192,67007,1,0,0:0:0:0:
64,192,67082,1,0,0:0:0:0:
448,192,67157,1,0,0:0:0:0:
320,192,67232,1,0,0:0:0:0:
192,192,67232,1,0,0:0:0:0:
64,192,67307,1,0,0:0:0:0:
448,192,67382,1,0,0:0:0:0:
320,192,67457,1,0,0:0:0:0:
192,192,67532,1,0,0:0:0:0:
64,192,67532,1,0,0:0:0:0:
448,192,67832,1,0,0:0:0:0:
64,192,67832,1,0,0:0:0:0:
192,192,67982,1,0,0:0:0:0:
64,192,68132,1,8,0:0:0:0:
320,192,68132,1,0,0:0:0:0:
448,192,68282,1,0,0:0:0:0:
64,192,68432,1,0,0:0:0:0:
320,192,68432,1,0,0:0:0:0:
192,192,68582,1,0,0:0:0:0:
320,192,68732,1,0,0:0:0:0:
448,192,68732,1,0,0:0:0:0:
192,192,68882,1,0,0:0:0:0:
448,192,68882,1,0,0:0:0:0:
64,192,69032,1,0,0:0:0:0:
320,192,69032,1,0,0:0:0:0:
192,192,69182,1,0,0:0:0:0:
448,192,69332,1,0,0:0:0:0:
64,192,69332,1,0,0:0:0:0:
320,192,69482,1,0,0:0:0:0:
64,192,69632,1,0,0:0:0:0:
192,192,69632,1,0,0:0:0:0:
320,192,69782,1,0,0:0:0:0:
448,192,69782,1,0,0:0:0:0:
192,192,69932,1,0,0:0:0:0:
64,192,69932,1,0,0:0:0:0:
320,192,70082,1,0,0:0:0:0:
448,192,70082,1,0,0:0:0:0:
64,192,70232,1,0,0:0:0:0:
448,192,70232,1,0,0:0:0:0:
192,192,70382,1,0,0:0:0:0:
448,192,70532,1,8,0:0:0:0:
64,192,70532,1,0,0:0:0:0:
320,192,70532,1,0,0:0:0:0:
192,192,70682,1,0,0:0:0:0:
64,192,70832,1,0,0:0:0:0:
448,192,70832,1,0,0:0:0:0:
192,192,70982,1,0,0:0:0:0:
320,192,70982,1,0,0:0:0:0:
64,192,71132,1,0,0:0:0:0:
448,192,71132,1,0,0:0:0:0:
320,192,71132,1,0,0:0:0:0:
192,192,71282,1,0,0:0:0:0:
320,192,71282,1,0,0:0:0:0:
64,192,71432,1,0,0:0:0:0:
320,192,71432,1,0,0:0:0:0:
448,192,71432,1,0,0:0:0:0:
448,192,71582,1,0,0:0:0:0:
64,192,71582,1,0,0:0:0:0:
320,192,71732,1,8,0:0:0:0:
448,192,71732,1,0,0:0:0:0:
192,192,71732,1,0,0:0:0:0:
64,192,71882,1,0,0:0:0:0:
320,192,71882,1,0,0:0:0:0:
192,192,72032,1,0,0:0:0:0:
448,192,72032,1,0,0:0:0:0:
64,192,72032,1,0,0:0:0:0:
448,192,72182,1,0,0:0:0:0:
320,192,72182,1,0,0:0:0:0:
192,192,72257,1,0,0:0:0:0:
64,192,72332,1,8,0:0:0:0:
448,192,72332,1,0,0:0:0:0:
320,192,72332,1,0,0:0:0:0:
192,192,72482,1,0,0:0:0:0:
320,192,72632,1,8,0:0:0:0:
448,192,72632,1,0,0:0:0:0:
448,192,72782,1,0,0:0:0:0:
320,192,72857,1,0,0:0:0:0:
192,192,72932,1,8,0:0:0:0:
64,192,72932,1,0,0:0:0:0:
320,192,73082,1,0,0:0:0:0:
448,192,73082,1,0,0:0:0:0:
64,192,73232,1,0,0:0:0:0:
192,192,73232,1,0,0:0:0:0:
320,192,73382,1,0,0:0:0:0:
64,192,73532,1,0,0:0:0:0:
448,192,73532,1,0,0:0:0:0:
320,192,73682,1,0,0:0:0:0:
192,192,73682,1,0,0:0:0:0:
64,192,73832,1,0,0:0:0:0:
448,192,73832,1,0,0:0:0:0:
192,192,73982,1,0,0:0:0:0:
320,192,74132,1,8,0:0:0:0:
64,192,74132,1,0,0:0:0:0:
448,192,74282,1,0,0:0:0:0:
192,192,74282,1,0,0:0:0:0:
64,192,74432,1,0,0:0:0:0:
448,192,74432,1,0,0:0:0:0:
64,192,74582,1,0,0:0:0:0:
192,192,74582,1,0,0:0:0:0:
320,192,74657,1,0,0:0:0:0:
192,192,74732,1,4,0:0:0:0:
448,192,74732,1,0,0:0:0:0:
64,192,74732,1,0,0:0:0:0:
448,192,74882,1,0,0:0:0:0:
320,192,74882,1,0,0:0:0:0:
192,192,75032,1,0,0:0:0:0:
64,192,75032,1,0,0:0:0:0:
448,192,75182,1,8,0:0:0:0:
64,192,75182,1,0,0:0:0:0:
320,192,75257,1,8,0:0:0:0:
192,192,75332,1,4,0:0:0:0:
64,192,75332,1,0,0:0:0:0:
448,192,75482,1,0,0:0:0:0:
320,192,75482,1,0,0:0:0:0:
192,192,75632,1,0,0:0:0:0:
64,192,75632,1,0,0:0:0:0:
192,192,75782,1,0,0:0:0:0:
448,192,75782,1,0,0:0:0:0:
320,192,75932,1,0,0:0:0:0:
64,192,75932,1,0,0:0:0:0:
448,192,76082,1,0,0:0:0:0:
192,192,76082,1,0,0:0:0:0:
192,192,76232,1,8,0:0:0:0:
320,192,76232,1,0,0:0:0:0:
64,192,76382,1,8,0:0:0:0:
448,192,76382,1,0,0:0:0:0:
192,192,76457,1,8,0:0:0:0:
448,192,76532,1,4,0:0:0:0:
320,192,76532,1,0,0:0:0:0:
64,192,76682,1,0,0:0:0:0:
320,192,76682,1,0,0:0:0:0:
448,192,76832,1,8,0:0:0:0:
192,192,76832,1,0,0:0:0:0:
64,192,76982,1,0,0:0:0:0:
448,192,76982,1,0,0:0:0:0:
64,192,77132,1,4,0:0:0:0:
192,192,77132,1,0,0:0:0:0:
320,192,77132,1,0,0:0:0:0:
192,192,77282,1,0,0:0:0:0:
320,192,77282,1,0,0:0:0:0:
320,192,77432,1,0,0:0:0:0:
448,192,77432,1,0,0:0:0:0:
64,192,77432,1,0,0:0:0:0:
64,192,77582,1,0,0:0:0:0:
320,192,77582,1,0,0:0:0:0:
64,192,77732,1,0,0:0:0:0:
192,192,77732,1,0,0:0:0:0:
320,192,77732,1,0,0:0:0:0:
448,192,77882,1,0,0:0:0:0:
320,192,77882,1,0,0:0:0:0:
192,192,78032,1,0,0:0:0:0:
320,192,78032,1,0,0:0:0:0:
448,192,78032,1,0,0:0:0:0:
64,192,78182,1,0,0:0:0:0:
192,192,78182,1,0,0:0:0:0:
64,192,78332,1,8,0:0:0:0:
448,192,78332,1,0,0:0:0:0:
320,192,78332,1,0,0:0:0:0:
192,192,78482,1,0,0:0:0:0:
320,192,78482,1,0,0:0:0:0:
320,192,78632,1,8,0:0:0:0:
448,192,78632,1,0,0:0:0:0:
64,192,78632,1,0,0:0:0:0:
64,192,78782,1,0,0:0:0:0:
320,192,78782,1,0,0:0:0:0:
448,192,78932,1,8,0:0:0:0:
192,192,78932,1,0,0:0:0:0:
320,192,78932,1,0,0:0:0:0:
192,192,79082,1,0,0:0:0:0:
448,192,79082,1,0,0:0:0:0:
192,192,79232,1,8,0:0:0:0:
448,192,79232,1,0,0:0:0:0:
64,192,79232,1,0,0:0:0:0:
320,192,79382,1,0,0:0:0:0:
192,192,79457,1,8,0:0:0:0:
448,192,79532,1,0,0:0:0:0:
64,192,79532,1,0,0:0:0:0:
320,192,79532,1,0,0:0:0:0:
192,192,79682,1,0,0:0:0:0:
320,192,79682,1,0,0:0:0:0:
448,192,79832,1,8,0:0:0:0:
64,192,79832,1,0,0:0:0:0:
320,192,79832,1,0,0:0:0:0:
192,192,79982,1,0,0:0:0:0:
64,192,79982,1,0,0:0:0:0:
64,192,80132,1,0,0:0:0:0:
192,192,80132,1,0,0:0:0:0:
320,192,80132,1,0,0:0:0:0:
192,192,80282,1,0,0:0:0:0:
448,192,80282,1,0,0:0:0:0:
64,192,80432,1,0,0:0:0:0:
448,192,80432,1,0,0:0:0:0:
320,192,80432,1,0,0:0:0:0:
320,192,80582,1,0,0:0:0:0:
192,192,80582,1,0,0:0:0:0:
64,192,80732,1,0,0:0:0:0:
448,192,80732,1,0,0:0:0:0:
192,192,80732,1,0,0:0:0:0:
320,192,80882,1,0,0:0:0:0:
448,192,80882,1,0,0:0:0:0:
448,192,81032,1,0,0:0:0:0:
64,192,81032,1,0,0:0:0:0:
320,192,81032,1,0,0:0:0:0:
448,192,81182,1,0,0:0:0:0:
64,192,81182,1,0,0:0:0:0:
192,192,81332,1,8,0:0:0:0:
64,192,81332,1,0,0:0:0:0:
320,192,81482,1,0,0:0:0:0:
448,192,81482,1,0,0:0:0:0:
64,192,81632,1,8,0:0:0:0:
192,192,81632,1,0,0:0:0:0:
448,192,81707,1,0,0:0:0:0:
320,192,81782,1,0,0:0:0:0:
192,192,81857,1,8,0:0:0:0:
64,192,81932,1,8,0:0:0:0:
448,192,81932,1,0,0:0:0:0:
320,192,81932,1,0,0:0:0:0:
192,192,82082,1,0,0:0:0:0:
320,192,82082,1,0,0:0:0:0:
64,192,82232,1,0,0:0:0:0:
448,192,82232,1,0,0:0:0:0:
320,192,82232,1,0,0:0:0:0:
448,192,82382,1,0,0:0:0:0:
320,192,82382,1,0,0:0:0:0:
192,192,82532,1,8,0:0:0:0:
64,192,82532,1,0,0:0:0:0:
320,192,82532,1,0,0:0:0:0:
64,192,82682,1,0,0:0:0:0:
192,192,82682,1,0,0:0:0:0:
448,192,82832,1,8,0:0:0:0:
64,192,82832,1,0,0:0:0:0:
320,192,82832,1,0,0:0:0:0:
192,192,82982,1,0,0:0:0:0:
320,192,82982,1,0,0:0:0:0:
448,192,83132,1,0,0:0:0:0:
320,192,83132,1,0,0:0:0:0:
64,192,83132,1,0,0:0:0:0:
64,192,83282,1,0,0:0:0:0:
192,192,83282,1,0,0:0:0:0:
448,192,83432,1,0,0:0:0:0:
192,192,83432,1,0,0:0:0:0:
320,192,83432,1,0,0:0:0:0:
64,192,83582,1,0,0:0:0:0:
448,192,83582,1,0,0:0:0:0:
192,192,83732,1,0,0:0:0:0:
320,192,83732,1,0,0:0:0:0:
64,192,83732,1,0,0:0:0:0:
448,192,83882,1,0,0:0:0:0:
192,192,83882,1,0,0:0:0:0:
192,192,84032,1,8,0:0:0:0:
448,192,84032,1,0,0:0:0:0:
64,192,84032,1,0,0:0:0:0:
64,192,84182,1,0,0:0:0:0:
192,192,84257,1,8,0:0:0:0:
448,192,84332,1,0,0:0:0:0:
320,192,84332,1,0,0:0:0:0:
64,192,84332,1,0,0:0:0:0:
64,192,84482,1,0,0:0:0:0:
192,192,84482,1,0,0:0:0:0:
448,192,84632,1,0,0:0:0:0:
192,192,84632,1,0,0:0:0:0:
320,192,84632,1,0,0:0:0:0:
64,192,84782,1,0,0:0:0:0:
320,192,84782,1,0,0:0:0:0:
192,192,84932,1,8,0:0:0:0:
320,192,84932,1,0,0:0:0:0:
64,192,84932,1,0,0:0:0:0:
448,192,85082,1,0,0:0:0:0:
320,192,85082,1,0,0:0:0:0:
320,192,85232,1,8,0:0:0:0:
192,192,85232,1,0,0:0:0:0:
448,192,85232,1,0,0:0:0:0:
192,192,85382,1,0,0:0:0:0:
64,192,85382,1,0,0:0:0:0:
192,192,85532,1,0,0:0:0:0:
448,192,85532,1,0,0:0:0:0:
320,192,85532,1,0,0:0:0:0:
448,192,85682,1,0,0:0:0:0:
192,192,85682,1,0,0:0:0:0:
192,192,85832,1,8,0:0:0:0:
320,192,85832,1,0,0:0:0:0:
448,192,85832,1,0,0:0:0:0:
192,192,85982,1,0,0:0:0:0:
64,192,85982,1,0,0:0:0:0:
320,192,86132,1,8,0:0:0:0:
448,192,86282,1,0,0:0:0:0:
64,192,86282,1,0,0:0:0:0:
192,192,86432,1,0,0:0:0:0:
320,192,86432,1,0,0:0:0:0:
64,192,86582,1,0,0:0:0:0:
448,192,86732,128,0,88832:0:0:0:0:
320,192,86732,128,0,88832:0:0:0:0:
192,192,86732,1,0,0:0:0:0:
