osu file format v14

[General]
AudioFilename: audio.ogg
AudioLeadIn: 0
PreviewTime: 38728
Countdown: 0
SampleSet: Soft
StackLeniency: 0.5
Mode: 0
LetterboxInBreaks: 0
WidescreenStoryboard: 1

[Editor]
DistanceSpacing: 1.1
BeatDivisor: 4
GridSize: 4
TimelineZoom: 1.8

[Metadata]
Title:S.M.L* (TV Size)
TitleUnicode:S・M・L☆ (TV Size)
Artist:Afilia Saga
ArtistUnicode:アフィリア・サーガ
Creator:Doyak
Version:Ultra Sweet
Source:俺の脳内選択肢が、学園ラブコメを全力で邪魔している
Tags:NouCome NouKome Chocolate Shokora ショコラ Vocal Anime Opening Female Jpop J-pop SML Japanese Ore no Nounai Sentakushi ga, Gakuen Rabu Kome o Zenryoku de Jama Shiteiru My Mental Choices Are Completely Interfering With School Romantic Love Comedy 5pb.Records 桃井はるこ 濱田幹浩 Momoi Haruko Hamada Mikihiro Sweet Melty Love Idol Girl Pop Group MACARONI☆ 細谷博雄 Hiroo Hosoya Stand-Up! Records Realism
BeatmapID:4117317
BeatmapSetID:1982558

[Difficulty]
HPDrainRate:6
CircleSize:4.5
OverallDifficulty:9.3
ApproachRate:9.5
SliderMultiplier:2.2
SliderTickRate:1

[Events]
//Background and Video events
0,0,"Shokora1.jpg",0,0
//Break Periods
//Storyboard Layer 0 (Background)
//Storyboard Layer 1 (Fail)
//Storyboard Layer 2 (Pass)
//Storyboard Layer 3 (Foreground)
//Storyboard Layer 4 (Overlay)
//Storyboard Sound Samples

[TimingPoints]
403,300,4,2,9,80,1,0
4753,-80,4,2,6,90,0,0
5128,-80,4,2,9,5,0,0
5203,-100,4,2,9,80,0,0
8278,-100,4,2,9,5,0,0
8353,-100,4,2,9,80,0,0
9703,-80,4,2,6,90,0,0
10003,-117.647058823529,4,2,9,60,0,0
17203,-117.647058823529,4,2,9,75,0,0
19303,-85.4700854700855,4,2,9,90,0,0
19528,-86.9565217391304,4,2,9,5,0,0
19603,-117.647058823529,4,2,9,60,0,0
24403,-117.647058823529,4,2,9,70,0,0
26803,-117.647058823529,4,2,9,80,0,0
28003,-117.647058823529,4,2,6,90,0,0
29203,-117.647058823529,4,2,9,70,0,0
30403,-117.647058823529,4,2,6,90,0,0
31603,-117.647058823529,4,2,9,70,0,0
32803,-117.647058823529,4,2,6,90,0,0
34003,-117.647058823529,4,2,8,75,0,0
34603,-117.647058823529,4,2,8,80,0,0
35203,-117.647058823529,4,2,8,85,0,0
35803,-117.647058823529,4,2,8,90,0,0
36403,-88.4955752212389,4,2,8,70,0,0
36703,-88.4955752212389,4,2,8,75,0,0
37003,-81.9672131147541,4,2,8,80,0,0
37303,-81.9672131147541,4,2,8,85,0,0
37603,-81.9672131147541,4,2,7,90,0,0
38503,-70.9219858156028,4,2,6,100,0,0
38728,-70.9219858156028,4,2,9,5,0,0
38803,-86.9565217391304,4,2,9,80,0,1
46003,-86.9565217391304,4,2,9,90,0,1
47203,-55.5555555555556,4,2,6,100,0,1
48403,-86.9565217391304,4,2,9,80,0,1
55603,-86.9565217391304,4,2,9,90,0,1
56803,-86.9565217391304,4,2,6,85,0,1
57103,-86.9565217391304,4,2,6,90,0,1
57403,-86.9565217391304,4,2,6,95,0,1
57703,-86.9565217391304,4,2,6,100,0,1
58003,-95.2380952380952,4,2,9,70,0,0
62803,-95.2380952380952,4,2,9,75,0,0
65203,-95.2380952380952,4,2,9,80,0,0
65803,-95.2380952380952,4,2,9,85,0,0
66253,-95.2380952380952,4,2,9,90,0,0
67603,-111.111111111111,4,2,9,60,0,0
70003,-111.111111111111,4,2,9,70,0,0
71503,-111.111111111111,4,2,9,80,0,0
72403,-100,4,2,9,70,0,0
74803,-90.9090909090909,4,2,9,80,0,0
76003,-83.3333333333333,4,2,9,90,0,0
77203,-74.0740740740741,4,2,6,100,0,1
86203,-74.0740740740741,4,2,5,100,0,1
86803,-285.714285714286,4,2,8,80,0,0
89203,-285.714285714286,4,2,0,5,0,0

[Colours]
Combo1 : 184,174,156
Combo2 : 228,171,137
Combo3 : 227,157,185
Combo4 : 243,226,143

[HitObjects]
113,204,403,6,0,P|161:227|214:218,1,110,2|0,3:1|0:1,0:1:0:0:
398,179,703,2,0,P|350:156|297:165,1,110,10|0,0:1|3:1,0:1:0:0:
320,365,1003,2,0,L|336:257,1,110,2|0,1:1|3:1,0:1:0:0:
362,59,1303,1,10,3:1:0:0:
160,18,1453,6,0,L|175:126,1,110,2|0,3:1|1:1,0:1:0:0:
203,323,1753,1,2,1:1:0:0:
267,164,1903,1,8,0:1:0:0:
97,187,2053,1,2,1:1:0:0:
281,262,2203,5,2,3:1:0:0:
111,285,2353,1,0,1:1:0:0:
175,126,2503,1,10,0:1:0:0:
295,360,2653,1,8,0:1:0:0:
295,360,2728,1,8,0:1:0:0:
295,360,2803,6,0,P|348:369|396:345,1,110,2|0,1:1|0:1,0:1:0:0:
371,173,3103,2,0,P|336:214|332:268,1,110,10|0,0:1|3:1,0:1:0:0:
494,334,3403,2,0,P|476:283|431:253,1,110,2|0,1:1|3:1,0:1:0:0:
235,281,3703,1,10,0:1:0:0:
309,97,3853,1,2,3:1:0:0:
317,253,4003,5,0,1:1:0:0:
193,129,4153,1,8,0:1:0:0:
328,264,4303,5,8,0:1:0:0:
181,117,4453,1,8,0:1:0:0:
131,67,4753,5,6,0:2:0:0:
378,317,4903,2,0,B|309:307|309:307|255:348|255:348|187:339,1,206.25,6|0,0:2|0:1,0:1:0:0:
88,248,5203,6,0,L|196:263,1,110,2|0,1:1|0:1,0:1:0:0:
388,135,5503,2,0,L|279:150,1,110,10|0,0:1|3:1,0:1:0:0:
329,349,5803,2,0,L|345:241,1,110,2|0,1:1|3:1,0:1:0:0:
371,44,6103,1,10,0:1:0:0:
144,62,6253,6,0,L|160:170,1,110,2|0,3:1|1:1,0:1:0:0:
84,335,6553,1,2,1:1:0:0:
62,184,6703,1,12,0:1:0:0:
182,321,6853,1,2,1:1:0:0:
338,117,7003,5,2,1:1:0:0:
318,267,7153,1,8,0:1:0:0:
168,247,7303,1,2,1:1:0:0:
187,97,7453,1,0,1:1:0:0:
343,195,7603,5,6,1:1:0:0:
160,170,7753,1,2,1:1:0:0:
274,23,7903,1,2,1:1:0:0:
224,261,8053,6,2,B|279:253|279:253|322:285|322:285|376:278,1,165,14|2,0:1|0:1,0:1:0:0:
451,269,8353,1,2,1:1:0:0:
256,338,8503,1,2,1:1:0:0:
295,134,8653,1,10,0:1:0:0:
295,134,8953,5,2,1:1:0:0:
50,170,9103,1,2,1:1:0:0:
308,232,9253,1,2,1:1:0:0:
37,268,9403,1,2,1:1:0:0:
37,268,9703,6,0,B|43:222|43:222|16:186|16:186|22:140,1,137.5,14|8,0:2|0:2,0:2:0:0:
30,63,9928,1,8,0:2:0:0:
34,60,10003,6,0,P|75:40|121:47,1,93.500001783371,4|0,1:2|3:2,0:2:0:0:
258,126,10303,2,0,P|211:134|170:114,1,93.500001783371,10|0,0:2|3:2,0:2:0:0:
225,48,10603,1,2,1:2:0:0:
87,124,10753,1,0,1:2:0:0:
197,217,10903,2,0,L|289:203,1,93.500001783371,10|0,0:2|3:2,0:2:0:0:
427,321,11203,6,0,P|447:279|439:233,1,93.500001783371,2|0,1:2|1:2,0:2:0:0:
383,117,11503,1,10,0:2:0:0:
360,267,11653,1,8,0:2:0:0:
360,267,11803,1,2,3:2:0:0:
242,172,11953,1,0,1:2:0:0:
344,350,12103,2,0,P|390:347|427:320,1,93.500001783371,10|0,0:2|3:2,0:2:0:0:
348,174,12403,6,0,L|360:267,1,93.500001783371,2|0,1:2|3:2,0:2:0:0:
280,296,12703,1,8,0:2:0:0:
263,168,12853,1,8,0:2:0:0:
195,289,13003,2,0,L|183:196,1,93.500001783371,0|0,1:2|1:2,0:2:0:0:
159,28,13303,1,10,0:2:0:0:
103,167,13453,1,2,3:2:0:0:
250,146,13603,6,0,P|258:100|238:59,1,93.500001783371,2|0,1:2|3:2,0:2:0:0:
159,28,13903,1,8,0:2:0:0:
67,230,14053,2,0,P|59:184|79:143,1,93.500001783371,10|0,0:2|3:2,0:2:0:0:
158,112,14353,1,0,1:2:0:0:
250,314,14503,2,0,P|258:268|238:227,1,93.500001783371,10|0,0:2|3:2,0:2:0:0:
73,336,14803,6,0,L|166:324,1,93.500001783371,2|0,1:2|3:2,0:2:0:0:
238,227,15103,1,8,0:2:0:0:
117,212,15253,1,0,3:2:0:0:
307,278,15403,2,0,P|327:237|319:192,1,93.500001783371,2|0,1:2|1:2,0:0:0:0:
215,51,15703,2,0,L|203:144,1,93.500001783371,10|0,0:2|3:2,0:2:0:0:
145,291,16003,6,0,L|133:198,1,93.500001783371,2|0,1:2|1:2,0:2:0:0:
121,110,16303,1,10,0:2:0:0:
215,231,16453,1,8,0:2:0:0:
215,231,16603,1,2,3:2:0:0:
273,90,16753,1,0,1:2:0:0:
364,251,16903,2,0,L|456:238,1,93.500001783371,10|0,0:2|3:2,0:2:0:0:
455,44,17203,6,0,P|413:24|367:31,1,93.500001783371,6|0,1:2|3:2,0:2:0:0:
237,133,17503,1,8,0:2:0:0:
331,256,17653,1,8,0:2:0:0:
390,110,17803,1,0,1:2:0:0:
239,227,17953,5,2,1:2:0:0:
411,202,18103,1,14,0:2:0:0:
304,68,18253,1,2,3:2:0:0:
257,311,18403,5,10,0:1:0:0:
65,259,18553,1,10,0:1:0:0:
272,199,18703,1,10,0:1:0:0:
50,147,18853,1,10,0:1:0:0:
135,88,19153,5,14,0:1:0:0:
214,348,19303,2,2,B|278:356|278:356|329:317|329:317|396:328,1,193.050000736427,14|2,0:1|0:2,0:2:0:0:
473,359,19603,6,0,P|481:314|461:272,1,93.500001783371,4|0,1:2|3:2,0:2:0:0:
427,104,19903,2,0,L|415:197,1,93.500001783371,10|0,0:2|3:2,0:2:0:0:
392,327,20203,1,2,1:2:0:0:
340,186,20353,1,0,1:2:0:0:
489,209,20503,2,0,L|477:301,1,93.500001783371,10|0,0:2|3:2,0:2:0:0:
316,360,20803,6,0,P|309:314|329:272,1,93.500001783371,2|0,1:2|1:2,0:2:0:0:
420,166,21103,1,10,0:2:0:0:
392,327,21253,1,8,0:2:0:0:
392,327,21403,1,2,3:2:0:0:
234,301,21553,1,0,1:2:0:0:
420,166,21703,1,10,0:2:0:0:
259,140,21853,1,2,3:2:0:0:
150,290,22003,6,0,L|58:278,1,93.500001783371,0|0,1:2|3:2,0:2:0:0:
14,205,22303,1,8,0:2:0:0:
129,109,22453,1,8,0:2:0:0:
212,233,22603,2,0,L|305:221,1,93.500001783371,0|0,1:2|1:2,0:2:0:0:
446,164,22903,2,0,L|353:152,1,93.500001783371,10|0,0:2|3:2,0:2:0:0:
236,29,23203,6,0,P|216:70|222:116,1,93.500001783371,2|0,1:2|3:2,0:2:0:0:
302,84,23503,1,8,0:2:0:0:
365,239,23653,2,0,P|372:192|352:151,1,93.500001783371,10|0,0:2|3:2,0:2:0:0:
302,84,23953,1,0,1:2:0:0:
192,218,24103,2,0,L|285:206,1,93.500001783371,10|0,0:2|3:2,0:2:0:0:
455,310,24403,6,0,L|362:298,1,93.500001783371,6|0,1:2|3:2,0:2:0:0:
276,284,24703,1,8,0:2:0:0:
417,222,24853,1,8,0:2:0:0:
293,131,25003,1,2,1:2:0:0:
276,284,25153,1,0,1:2:0:0:
293,131,25303,2,0,L|306:38,1,93.500001783371,10|0,0:2|3:2,0:2:0:0:
129,38,25603,6,0,L|142:131,1,93.500001783371,2|0,1:2|1:2,0:2:0:0:
155,217,25903,1,10,0:2:0:0:
218,76,26053,1,8,0:2:0:0:
308,200,26203,1,2,3:2:0:0:
155,217,26353,1,0,1:2:0:0:
308,200,26503,2,0,L|401:188,1,93.500001783371,10|0,0:2|3:2,0:2:0:0:
418,310,26803,5,2,1:2:0:0:
418,310,26953,1,0,3:2:0:0:
255,132,27103,2,0,L|348:120,1,93.500001783371,12|0,0:2|3:2,0:2:0:0:
326,326,27403,5,2,1:2:0:0:
326,326,27553,1,0,3:2:0:0:
177,139,27703,1,12,0:2:0:0:
70,352,27853,1,0,3:2:0:0:
50,348,27928,1,0,3:2:0:0:
31,346,28003,5,6,1:2:0:0:
31,346,28303,1,6,1:2:0:0:
62,122,28453,1,0,3:2:0:0:
239,262,28603,1,6,1:2:0:0:
16,250,28753,1,0,3:2:0:0:
20,230,28828,1,0,1:2:0:0:
24,210,28903,1,6,1:2:0:0:
102,38,29053,1,0,1:2:0:0:
252,149,29203,6,0,P|272:107|265:62,1,93.500001783371,4|0,1:2|0:2,0:2:0:0:
38,116,29503,1,10,0:2:0:0:
185,94,29653,1,8,0:2:0:0:
130,233,29803,1,2,1:2:0:0:
102,38,29953,1,0,1:2:0:0:
130,233,30103,2,0,L|222:221,1,93.500001783371,10|0,0:2|3:2,0:2:0:0:
443,192,30403,5,2,1:2:0:0:
349,192,30553,1,0,3:2:0:0:
160,96,30703,5,10,0:2:0:0:
349,96,30853,1,8,0:2:0:0:
160,285,31003,5,2,1:2:0:0:
349,285,31153,1,0,1:2:0:0:
160,192,31303,5,10,0:2:0:0:
66,192,31453,1,0,3:2:0:0:
252,234,31603,6,0,P|272:276|265:321,1,93.500001783371,4|0,1:2|0:2,0:2:0:0:
38,267,31903,1,10,0:2:0:0:
185,289,32053,1,0,3:2:0:0:
130,150,32203,1,2,1:2:0:0:
102,345,32353,1,0,1:2:0:0:
130,150,32503,2,0,L|142:57,1,93.500001783371,10|0,0:2|3:2,0:2:0:0:
234,30,32728,1,0,3:2:0:0:
256,21,32803,5,2,1:2:0:0:
256,168,32953,1,0,3:2:0:0:
256,192,33028,1,0,3:2:0:0:
256,215,33103,1,2,1:2:0:0:
256,353,33253,1,0,1:2:0:0:
344,141,33403,5,2,1:2:0:0:
166,141,33553,1,0,1:2:0:0:
344,240,33703,1,2,1:2:0:0:
166,240,33853,1,0,1:2:0:0:
401,98,34003,5,8,0:2:0:0:
371,317,34153,1,8,0:2:0:0:
452,217,34303,1,2,0:2:0:0:
320,76,34603,5,10,0:2:0:0:
287,316,34753,1,8,0:2:0:0:
377,205,34903,1,2,0:2:0:0:
239,52,35203,5,10,0:2:0:0:
203,316,35353,1,8,0:2:0:0:
302,194,35503,1,2,0:2:0:0:
158,28,35803,5,10,0:2:0:0:
116,317,35953,1,8,0:2:0:0:
224,183,36103,1,2,0:2:0:0:
48,160,36403,5,2,1:2:0:0:
116,317,36553,5,0,1:2:0:0:
150,342,36628,1,0,1:2:0:0:
191,351,36703,1,2,1:2:0:0:
232,342,36778,1,0,1:2:0:0:
266,317,36853,2,0,L|266:254,1,62.1500001896668,0|0,1:2|3:2,0:2:0:0:
134,156,37003,5,2,1:2:0:0:
123,112,37078,1,0,1:2:0:0:
134,69,37153,2,0,L|201:69,1,67.0999972355653,0|0,1:2|3:2,0:2:0:0:
370,69,37303,5,2,1:2:0:0:
370,119,37378,1,0,1:2:0:0:
370,172,37453,1,0,1:2:0:0:
370,224,37528,1,0,1:2:0:0:
370,292,37603,5,6,1:2:0:0:
70,250,37803,5,6,1:2:0:0:
256,11,38003,5,6,1:2:0:0:
207,364,38203,5,6,1:2:0:0:
207,364,38503,6,0,B|219:285|219:285|171:224|171:224|182:147,1,232.649988107644,6|0,1:2|0:2,0:2:0:0:
277,36,38803,6,0,L|259:160,1,126.500002412796,6|0,1:2|0:2,0:2:0:0:
364,108,39103,1,8,0:2:0:0:
364,108,39253,1,0,3:2:0:0:
277,324,39403,5,2,1:2:0:0:
506,291,39553,1,0,1:2:0:0:
399,360,39703,2,0,L|381:235,1,126.500002412796,8|0,0:2|3:2,0:2:0:0:
245,39,40003,5,2,1:2:0:0:
42,144,40153,1,0,1:2:0:0:
269,178,40303,1,10,0:2:0:0:
103,17,40453,1,8,0:2:0:0:
103,17,40528,1,8,0:2:0:0:
103,17,40603,1,2,1:2:0:0:
143,244,40753,1,0,1:2:0:0:
245,39,40903,2,0,L|369:56,1,126.500002412796,10|0,0:2|3:2,0:2:0:0:
340,338,41203,6,0,P|279:347|222:321,1,126.500002412796,2|0,1:2|3:2,0:2:0:0:
246,133,41503,2,0,P|306:122|363:148,1,126.500002412796,8|0,0:2|3:2,0:2:0:0:
477,378,41803,5,2,1:2:0:0:
509,148,41953,1,0,1:2:0:0:
293,235,42103,2,0,L|167:216,1,126.500002412796,10|0,0:2|3:2,0:2:0:0:
79,11,42403,5,2,1:2:0:0:
119,270,42553,1,0,1:2:0:0:
79,11,42703,2,0,L|97:136,1,126.500002412796,8|0,0:2|3:2,0:2:0:0:
240,355,43003,5,2,1:2:0:0:
0,173,43153,1,0,1:2:0:0:
29,384,43303,1,8,0:2:0:0:
210,143,43453,1,8,0:2:0:0:
210,143,43528,1,8,0:2:0:0:
210,143,43603,6,0,P|270:132|327:158,1,126.500002412796,6|0,1:2|0:2,0:2:0:0:
257,244,43903,1,8,0:2:0:0:
290,8,44053,5,2,3:2:0:0:
89,113,44203,2,0,L|107:238,1,126.500002412796,2|0,1:2|1:2,0:2:0:0:
128,376,44503,1,10,0:2:0:0:
210,143,44653,1,2,3:2:0:0:
322,364,44803,6,0,P|384:371|441:345,1,126.500002412796,0|0,1:2|1:2,0:2:0:0:
472,96,45103,1,8,0:2:0:0:
218,130,45253,1,0,3:2:0:0:
218,130,45328,1,8,0:2:0:0:
218,130,45403,1,2,1:2:0:0:
443,250,45553,1,0,1:2:0:0:
333,20,45703,1,10,0:2:0:0:
289,274,45853,1,0,3:2:0:0:
123,31,46003,6,0,P|61:22|4:47,1,126.500002412796,6|0,1:2|1:2,0:2:0:0:
71,293,46303,1,8,0:2:0:0:
203,192,46453,1,0,3:2:0:0:
173,192,46528,1,8,0:2:0:0:
143,192,46603,1,0,1:2:0:0:
71,383,46753,5,2,1:2:0:0:
297,251,46903,1,10,0:2:0:0:
71,121,47053,1,10,0:2:0:0:
71,91,47128,1,8,0:2:0:0:
71,61,47203,6,0,B|155:8|155:8|238:61,1,197.99999395752,14|0,0:2|0:2,0:2:0:0:
238,323,47503,6,0,B|155:376|155:376|71:323,1,197.99999395752,6|0,1:2|0:2,0:2:0:0:
274,61,47803,6,0,B|357:8|357:8|441:61,1,197.99999395752,6|0,1:2|0:2,0:2:0:0:
441,323,48103,6,0,B|357:376|357:376|274:323,1,197.99999395752,14|8,0:2|0:2,0:2:0:0:
264,253,48328,1,8,0:2:0:0:
262,247,48403,6,0,L|388:229,1,126.500002412796,6|0,1:2|0:2,0:2:0:0:
310,142,48703,1,8,0:2:0:0:
310,142,48853,1,0,3:2:0:0:
423,125,49003,5,2,1:2:0:0:
193,157,49153,1,0,1:2:0:0:
291,16,49303,2,0,L|309:140,1,126.500002412796,8|0,0:2|3:2,0:2:0:0:
488,331,49603,5,2,1:2:0:0:
285,225,49753,1,0,3:2:0:0:
512,191,49903,1,10,0:2:0:0:
346,352,50053,1,0,3:2:0:0:
346,352,50128,1,8,0:2:0:0:
346,352,50203,1,2,1:2:0:0:
386,125,50353,1,0,1:2:0:0:
422,365,50503,2,0,L|404:240,1,126.500002412796,10|0,0:2|3:2,0:2:0:0:
270,33,50803,6,0,P|260:93|286:150,1,126.500002412796,2|0,1:2|3:2,0:2:0:0:
490,120,51103,2,0,P|499:58|473:2,1,126.500002412796,8|0,0:2|3:2,0:2:0:0:
161,55,51403,5,0,1:2:0:0:
193,284,51553,1,0,1:2:0:0:
388,140,51703,2,0,L|365:-8,1,126.500002412796,10|0,0:2|3:2,0:2:0:0:
91,176,52003,5,2,1:2:0:0:
313,143,52153,1,0,1:2:0:0:
0,127,52303,2,0,P|-10:188|15:245,1,126.500002412796,8|0,0:2|3:2,0:2:0:0:
322,277,52603,5,2,1:2:0:0:
83,311,52753,1,0,1:2:0:0:
173,86,52903,1,8,0:2:0:0:
215,370,53053,1,8,0:2:0:0:
215,370,53128,1,8,0:2:0:0:
215,370,53203,6,0,L|232:245,1,126.500002412796,6|0,1:2|0:2,0:2:0:0:
245,153,53503,1,8,0:2:0:0:
334,358,53653,5,2,3:2:0:0:
103,324,53803,2,0,L|85:199,1,126.500002412796,2|0,1:2|1:2,0:2:0:0:
64,47,54103,1,10,0:2:0:0:
217,221,54253,1,2,3:2:0:0:
312,7,54403,6,0,P|373:-1|431:21,1,126.500002412796,0|0,1:2|1:2,0:2:0:0:
462,273,54703,1,10,0:2:0:0:
209,239,54853,1,0,3:2:0:0:
209,239,54928,1,0,3:2:0:0:
209,239,55003,1,2,1:2:0:0:
434,119,55153,1,0,1:2:0:0:
324,349,55303,1,10,0:2:0:0:
280,95,55453,1,0,3:2:0:0:
128,343,55603,6,0,L|3:325,1,126.500002412796,6|0,1:2|3:2,0:2:0:0:
112,34,55903,1,0,1:2:0:0:
26,201,56053,2,0,P|82:226|144:217,1,126.500002412796,8|0,0:2|3:2,0:2:0:0:
317,70,56353,1,2,1:2:0:0:
281,319,56503,1,10,0:2:0:0:
103,111,56653,5,10,0:2:0:0:
108,73,56728,1,8,0:2:0:0:
112,34,56803,1,6,1:2:0:0:
249,304,56953,5,8,0:2:0:0:
244,341,57028,1,8,0:2:0:0:
239,379,57103,1,6,1:2:0:0:
348,144,57253,5,8,0:2:0:0:
311,140,57328,1,8,0:2:0:0:
273,134,57403,1,6,1:2:0:0:
6,272,57553,5,8,0:2:0:0:
44,277,57628,1,8,0:2:0:0:
81,282,57703,1,14,1:2:0:0:
108,235,57778,1,8,1:2:0:0:
125,182,57853,1,8,1:2:0:0:
125,129,57928,1,8,1:2:0:0:
103,69,58003,6,0,L|217:53,1,115.49999647522,6|0,1:2|0:2,0:2:0:0:
418,82,58303,1,10,0:2:0:0:
341,15,58453,1,8,0:2:0:0:
341,15,58528,1,8,0:2:0:0:
341,15,58603,2,0,P|317:66|326:122,1,115.49999647522,2|0,1:2|1:2,0:2:0:0:
487,251,58903,1,10,0:2:0:0:
418,82,59053,1,2,1:2:0:0:
306,226,59203,5,0,1:2:0:0:
155,121,59353,1,2,1:2:0:0:
317,145,59503,1,10,0:2:0:0:
144,203,59653,1,2,3:2:0:0:
144,203,59728,1,0,3:2:0:0:
144,203,59803,1,2,1:2:0:0:
246,49,59953,1,0,1:2:0:0:
225,215,60103,2,0,L|209:330,1,115.49999647522,10|0,0:2|3:2,0:2:0:0:
6,291,60403,6,0,P|-3:235|20:184,1,115.49999647522,2|0,1:2|0:2,0:2:0:0:
212,100,60703,1,10,0:2:0:0:
103,57,60853,1,0,3:2:0:0:
103,57,60928,1,0,1:2:0:0:
103,57,61003,2,0,L|120:171,1,115.49999647522,2|0,1:2|1:2,0:2:0:0:
150,351,61303,1,10,0:2:0:0:
225,215,61453,1,2,3:2:0:0:
333,364,61603,6,0,L|448:348,1,115.49999647522,0|0,1:2|1:2,0:2:0:0:
350,95,61903,1,8,0:2:0:0:
363,196,62053,1,0,3:2:0:0:
367,224,62128,1,8,0:2:0:0:
372,253,62203,5,2,1:2:0:0:
465,29,62353,1,0,1:2:0:0:
221,61,62503,1,10,0:2:0:0:
372,253,62653,1,8,0:2:0:0:
367,224,62728,1,8,0:2:0:0:
363,196,62803,6,0,P|307:186|257:210,1,115.49999647522,6|0,1:2|0:2,0:2:0:0:
34,180,63103,1,10,0:2:0:0:
160,85,63253,1,8,0:2:0:0:
160,85,63328,1,8,0:2:0:0:
160,85,63403,1,2,1:2:0:0:
129,306,63553,1,0,1:2:0:0:
255,210,63703,1,10,0:2:0:0:
34,180,63853,1,2,3:2:0:0:
239,323,64003,6,0,L|353:307,1,115.49999647522,0|0,1:2|3:2,0:2:0:0:
426,93,64303,1,10,0:2:0:0:
273,156,64453,1,0,3:2:0:0:
277,184,64528,1,8,0:2:0:0:
282,213,64603,1,2,1:2:0:0:
476,225,64753,5,0,1:2:0:0:
444,9,64903,1,10,0:2:0:0:
275,115,65053,1,8,0:2:0:0:
279,143,65128,1,8,0:2:0:0:
283,172,65203,6,0,L|267:286,1,115.49999647522,6|0,1:2|3:2,0:2:0:0:
60,372,65503,1,10,0:2:0:0:
90,148,65653,1,0,3:2:0:0:
90,148,65728,1,0,3:2:0:0:
90,148,65803,5,6,1:2:0:0:
266,286,65953,1,0,1:2:0:0:
26,253,66103,1,10,0:2:0:0:
321,201,66253,6,0,P|365:300|294:384,1,230.99999295044,6|8,1:2|0:2,0:2:0:0:
130,338,66703,5,2,1:2:0:0:
98,259,66803,1,0,3:2:0:0:
151,193,66903,1,0,3:2:0:0:
235,204,67003,5,2,1:2:0:0:
287,138,67103,1,0,3:2:0:0:
256,59,67203,1,0,3:2:0:0:
172,48,67303,5,2,1:2:0:0:
119,114,67403,1,0,3:2:0:0:
151,193,67503,1,0,3:2:0:0:
204,126,67603,6,0,P|293:161|368:104,1,197.99999395752,6|2,1:2|1:2,0:2:0:0:
241,32,68053,1,0,3:2:0:0:
241,32,68128,1,0,3:2:0:0:
241,32,68203,6,0,L|144:47,1,98.9999969787599,14|0,0:2|1:2,0:2:0:0:
147,221,68503,1,2,3:2:0:0:
147,221,68653,2,0,L|244:236,1,98.9999969787599,2|0,3:2|3:2,0:2:0:0:
354,83,68953,5,10,0:2:0:0:
424,260,69103,1,2,1:2:0:0:
448,98,69253,1,2,1:2:0:0:
296,158,69403,2,0,P|247:165|203:145,1,98.9999969787599,10|0,0:2|0:2,0:2:0:0:
114,41,69703,2,0,L|211:56,1,98.9999969787599,2|8,1:2|0:2,0:2:0:0:
236,60,69928,1,0,3:2:0:0:
261,63,70003,5,2,1:2:0:0:
234,260,70153,1,0,1:2:0:0:
77,137,70303,1,10,0:2:0:0:
77,137,70603,6,0,P|84:185|64:229,1,98.9999969787599,14|0,0:2|0:2,0:2:0:0:
141,377,70903,1,10,0:2:0:0:
141,377,71052,2,0,P|133:328|153:284,1,98.9999969787599,2|0,1:2|3:2,0:2:0:0:
234,343,71353,1,0,1:2:0:0:
366,147,71503,5,10,0:2:0:0:
162,118,71653,1,0,1:2:0:0:
349,265,71803,5,10,0:2:0:0:
145,236,71953,1,0,1:2:0:0:
272,74,72103,5,10,0:2:0:0:
239,309,72253,1,0,3:2:0:0:
242,333,72328,1,0,3:2:0:0:
245,358,72403,6,0,L|353:342,1,110,6|0,1:2|3:2,0:2:0:0:
470,213,72703,2,0,L|362:197,1,110,8|0,0:2|3:2,0:2:0:0:
361,196,72928,1,0,3:2:0:0:
361,196,73003,1,0,1:2:0:0:
436,69,73153,1,0,1:2:0:0:
269,156,73303,2,0,L|285:264,1,110,10|0,0:2|3:2,0:2:0:0:
103,237,73603,6,0,P|152:214|205:223,1,110,2|0,1:2|1:2,0:2:0:0:
244,359,73903,1,10,0:2:0:0:
102,379,74053,1,2,0:2:0:0:
140,136,74203,5,0,1:2:0:0:
166,314,74353,1,0,1:2:0:0:
0,246,74503,1,10,0:2:0:0:
252,211,74653,1,8,0:2:0:0:
252,211,74728,1,8,0:2:0:0:
252,211,74803,6,0,L|371:229,1,121.000003692627,6|0,1:2|1:2,0:2:0:0:
428,135,75103,1,8,0:2:0:0:
218,105,75253,1,0,1:2:0:0:
218,105,75328,1,0,1:2:0:0:
218,105,75403,1,2,1:2:0:0:
298,303,75553,1,0,1:2:0:0:
332,63,75703,1,8,0:2:0:0:
298,303,75853,1,0,1:2:0:0:
192,82,76003,6,0,L|62:99,1,131.99999597168,6|0,1:2|1:2,0:2:0:0:
35,216,76303,1,8,0:2:0:0:
264,183,76453,1,0,1:2:0:0:
264,183,76528,1,0,1:2:0:0:
264,183,76603,1,2,1:2:0:0:
121,0,76753,1,0,1:2:0:0:
157,261,76903,1,8,0:2:0:0:
121,0,77053,1,0,1:2:0:0:
389,115,77203,5,14,0:2:0:0:
121,115,77353,1,0,3:2:0:0:
389,192,77503,5,10,0:2:0:0:
121,192,77653,1,0,1:2:0:0:
256,33,77803,5,10,0:2:0:0:
389,267,77953,1,0,1:2:0:0:
121,267,78103,1,10,0:2:0:0:
121,267,78253,1,0,3:2:0:0:
389,115,78403,5,10,0:2:0:0:
121,115,78553,1,2,3:2:0:0:
256,349,78703,1,10,0:2:0:0:
256,33,78853,1,10,0:2:0:0:
256,33,79003,1,0,1:2:0:0:
121,267,79153,5,10,0:2:0:0:
256,33,79303,1,10,0:2:0:0:
389,267,79453,1,0,3:2:0:0:
389,267,79528,1,0,3:2:0:0:
389,267,79603,5,14,0:2:0:0:
121,267,79753,1,0,3:2:0:0:
389,192,79903,5,10,0:2:0:0:
121,192,80053,1,0,1:2:0:0:
256,349,80203,5,10,0:2:0:0:
389,115,80353,1,0,1:2:0:0:
121,115,80503,1,10,0:2:0:0:
121,115,80653,1,0,3:2:0:0:
389,267,80803,5,10,0:2:0:0:
121,267,80953,1,2,1:2:0:0:
256,33,81103,1,10,0:2:0:0:
256,349,81253,1,10,0:2:0:0:
256,349,81403,1,0,1:2:0:0:
121,115,81553,5,10,0:2:0:0:
389,115,81703,1,10,0:2:0:0:
413,153,81778,1,0,3:2:0:0:
437,192,81853,1,0,3:2:0:0:
413,229,81928,1,0,3:2:0:0:
389,267,82003,5,14,0:2:0:0:
256,33,82153,1,0,3:2:0:0:
121,307,82303,5,10,0:2:0:0:
256,73,82453,1,0,1:2:0:0:
389,344,82603,5,10,0:2:0:0:
256,111,82753,1,0,1:2:0:0:
122,344,82903,1,10,0:2:0:0:
122,344,83053,1,0,1:2:0:0:
122,39,83203,5,10,0:2:0:0:
256,272,83353,1,2,1:2:0:0:
389,39,83503,1,10,0:2:0:0:
256,344,83653,1,10,0:2:0:0:
256,344,83803,1,0,1:2:0:0:
103,192,83953,5,10,0:2:0:0:
256,39,84103,1,10,0:2:0:0:
408,192,84253,1,0,3:2:0:0:
408,192,84328,1,0,3:2:0:0:
408,192,84403,5,14,0:2:0:0:
175,325,84553,1,0,3:2:0:0:
446,192,84703,5,10,0:2:0:0:
212,58,84853,1,0,1:2:0:0:
486,192,85003,5,10,0:2:0:0:
256,325,85153,1,0,1:2:0:0:
256,58,85303,1,10,0:2:0:0:
256,58,85453,1,0,1:2:0:0:
397,263,85603,6,0,P|362:274|327:263,1,74.2500002832413,10|0,0:2|0:2,0:2:0:0:
113,119,85753,2,0,P|149:108|183:119,1,74.2500002832413,2|0,1:2|0:2,0:2:0:0:
183,333,85903,2,0,P|172:298|183:263,1,74.2500002832413,10|0,0:2|0:2,0:2:0:0:
327,49,86053,2,0,P|338:85|327:119,1,74.2500002832413,10|0,0:2|0:2,0:2:0:0:
256,352,86203,5,0,1:2:0:0:
256,316,86278,1,0,3:2:0:0:
256,280,86353,1,10,3:2:0:0:
256,244,86428,1,0,3:2:0:0:
256,192,86503,5,10,3:2:0:0:
256,139,86578,1,0,3:2:0:0:
256,87,86653,1,0,3:2:0:0:
256,36,86728,1,0,3:2:0:0:
194,2,86803,6,0,B|85:110|85:110|194:219|194:219|248:165|248:165|194:110|194:110|248:56|248:56|302:110,1,615.999981201173,4|0,0:1|0:2,0:2:0:0:
