osu file format v14

[General]
AudioFilename: audio.ogg
AudioLeadIn: 0
PreviewTime: 38728
Countdown: 0
SampleSet: Soft
StackLeniency: 0.5
Mode: 0
LetterboxInBreaks: 0
WidescreenStoryboard: 1

[Editor]
DistanceSpacing: 1
BeatDivisor: 2
GridSize: 4
TimelineZoom: 0.8999999

[Metadata]
Title:S.M.L* (TV Size)
TitleUnicode:S・M・L☆ (TV Size)
Artist:Afilia Saga
ArtistUnicode:アフィリア・サーガ
Creator:Doyak
Version:Easy
Source:俺の脳内選択肢が、学園ラブコメを全力で邪魔している
Tags:NouCome NouKome Chocolate Shokora ショコラ Vocal Anime Opening Female Jpop J-pop SML Japanese Ore no Nounai Sentakushi ga, Gakuen Rabu Kome o Zenryoku de Jama Shiteiru My Mental Choices Are Completely Interfering With School Romantic Love Comedy 5pb.Records 桃井はるこ 濱田幹浩 Momoi Haruko Hamada Mikihiro Sweet Melty Love Idol Girl Pop Group MACARONI☆ 細谷博雄 Hiroo Hosoya Stand-Up! Records Realism
BeatmapID:4163795
BeatmapSetID:1982558

[Difficulty]
HPDrainRate:3.5
CircleSize:2.8
OverallDifficulty:3
ApproachRate:4.5
SliderMultiplier:0.87
SliderTickRate:1

[Events]
//Background and Video events
0,0,"Shokora1.jpg",0,0
//Break Periods
//Storyboard Layer 0 (Background)
//Storyboard Layer 1 (Fail)
//Storyboard Layer 2 (Pass)
//Storyboard Layer 3 (Foreground)
//Storyboard Layer 4 (Overlay)
//Storyboard Sound Samples

[TimingPoints]
403,300,4,2,9,80,1,0
4753,-100,4,2,6,90,0,0
5128,-100,4,2,9,5,0,0
5203,-100,4,2,9,80,0,0
8278,-100,4,2,9,5,0,0
8353,-100,4,2,9,80,0,0
9703,-100,4,2,6,90,0,0
10003,-105.263157894737,4,2,9,60,0,0
17203,-105.263157894737,4,2,9,75,0,0
18403,-105.263157894737,4,2,9,75,0,0
19303,-105.263157894737,4,2,9,90,0,0
19528,-105.263157894737,4,2,9,5,0,0
19603,-105.263157894737,4,2,9,60,0,0
24403,-105.263157894737,4,2,9,70,0,0
26803,-105.263157894737,4,2,9,80,0,0
28003,-105.263157894737,4,2,6,90,0,0
29203,-100,4,2,9,70,0,0
30403,-100,4,2,6,90,0,0
31603,-100,4,2,9,70,0,0
32803,-100,4,2,6,90,0,0
34003,-100,4,2,8,75,0,0
34603,-100,4,2,8,80,0,0
35203,-100,4,2,8,85,0,0
35803,-100,4,2,8,90,0,0
36403,-100,4,2,8,70,0,0
36703,-100,4,2,8,75,0,0
37003,-100,4,2,8,80,0,0
37303,-100,4,2,8,85,0,0
37603,-100,4,2,7,90,0,0
38503,-100,4,2,6,100,0,0
38728,-100,4,2,9,5,0,0
38803,-95.2380952380952,4,2,9,80,0,1
46003,-95.2380952380952,4,2,9,90,0,1
47203,-95.2380952380952,4,2,6,100,0,1
48403,-95.2380952380952,4,2,9,80,0,1
55603,-95.2380952380952,4,2,9,90,0,1
56803,-95.2380952380952,4,2,6,85,0,1
57103,-95.2380952380952,4,2,6,90,0,1
57403,-95.2380952380952,4,2,6,95,0,1
57703,-95.2380952380952,4,2,6,100,0,1
58003,-100,4,2,9,70,0,0
62803,-100,4,2,9,75,0,0
65203,-100,4,2,9,80,0,0
65803,-100,4,2,9,85,0,0
66253,-100,4,2,9,90,0,0
67603,-100,4,2,9,60,0,0
70003,-100,4,2,9,70,0,0
71503,-100,4,2,9,80,0,0
72403,-100,4,2,9,70,0,0
74803,-100,4,2,9,80,0,0
76003,-100,4,2,9,90,0,0
77203,-95.2380952380952,4,2,6,100,0,1
86803,-256.410256410256,4,2,8,80,0,0
89203,-256.410256410256,4,2,0,5,0,0

[Colours]
Combo1 : 184,174,156
Combo2 : 228,171,137
Combo3 : 227,157,185
Combo4 : 243,226,143

[HitObjects]
102,125,403,6,0,L|189:136,1,87,2|10,3:1|0:1,0:1:0:0:
244,203,1003,2,0,P|275:147|259:85,2,130.5,2|2|8,1:1|3:1|0:1,0:1:0:0:
157,218,2203,1,2,3:1:0:0:
212,285,2503,1,10,0:1:0:0:
298,272,2803,6,0,L|385:259,1,87,2|10,1:1|0:1,0:1:0:0:
465,289,3403,2,0,P|470:245|454:206,1,87,2|10,1:1|0:1,0:1:0:0:
373,173,4003,2,0,L|390:43,1,130.5,0|8,1:1|0:1,0:0:0:0:
310,11,4753,2,0,L|303:54,1,43.5,6|6,0:2|0:2,0:0:0:0:
235,109,5203,6,0,L|148:96,1,87,2|10,1:1|0:1,0:1:0:0:
78,148,5803,2,0,P|62:85|93:29,2,130.5,2|2|12,1:1|3:1|0:1,0:1:0:0:
130,217,7003,1,2,1:1:0:0:
44,228,7303,1,2,1:1:0:0:
97,298,7603,5,6,1:1:0:0:
219,345,8053,2,2,L|306:332,2,87,14|2|10,0:1|1:1|0:1,0:1:0:0:
184,263,8953,2,0,B|242:236|242:236|307:245,1,130.5,2|2,1:1|1:1,0:0:0:0:
322,160,9703,2,0,L|335:73,1,87,14|4,0:2|1:2,0:2:0:0:
421,91,10303,6,0,L|408:173,1,82.649997793007,10|2,0:2|1:2,0:0:0:0:
396,256,10903,1,10,0:2:0:0:
423,334,11203,2,0,P|382:339|344:323,1,82.649997793007,2|10,1:2|0:2,0:2:0:0:
314,246,11803,2,0,P|275:227|234:234,1,82.649997793007,2|10,3:2|0:2,0:0:0:0:
189,302,12403,6,0,P|124:350|51:322,1,165.299995586014,2|0,1:2|1:2,0:2:0:0:
113,267,13303,1,10,0:2:0:0:
100,185,13603,2,0,L|82:59,2,123.97499668951,2|10|10,1:2|0:2|0:2,0:2:0:0:
113,267,14803,6,0,P|187:294|250:247,1,165.299995586014,2|2,1:2|1:2,0:2:0:0:
263,163,15703,1,10,0:2:0:0:
214,95,16003,2,0,P|251:79|291:84,1,82.649997793007,2|10,1:2|0:2,0:2:0:0:
358,33,16603,1,2,3:2:0:0:
369,115,16903,1,10,0:2:0:0:
381,197,17203,6,0,L|505:179,2,123.97499668951,6|8|14,1:2|0:2|0:2,0:2:0:0:
369,280,18403,2,0,L|244:261,1,123.97499668951,10|10,0:1|0:1,0:0:0:0:
162,269,19153,2,0,L|167:226,1,41.3249988965035,14|14,0:1|0:1,0:0:0:0:
179,145,19603,1,4,1:2:0:0:
228,77,19903,6,0,P|189:60|149:65,1,82.649997793007,10|2,0:2|1:2,0:0:0:0:
85,15,20503,1,10,0:2:0:0:
72,97,20803,2,0,L|59:179,1,82.649997793007,2|10,1:2|0:2,0:2:0:0:
9,246,21403,1,2,3:2:0:0:
90,257,21703,1,10,0:2:0:0:
123,332,22003,6,0,P|171:268|143:194,1,165.299995586014,0|0,1:2|1:2,0:2:0:0:
184,122,22903,1,10,0:2:0:0:
174,38,23203,2,0,L|49:56,2,123.97499668951,2|10|10,1:2|0:2|0:2,0:2:0:0:
184,122,24403,6,0,P|257:149|321:101,1,165.299995586014,6|2,1:2|1:2,0:2:0:0:
335,18,25303,1,10,0:2:0:0:
418,28,25603,2,0,L|405:110,1,82.649997793007,2|10,1:2|0:2,0:2:0:0:
408,192,26203,2,0,P|445:208|486:203,2,82.649997793007,2|10|2,3:2|0:2|1:2,0:0:0:0:
327,209,27103,6,0,L|339:291,1,82.649997793007,12|2,0:2|1:2,0:2:0:0:
289,357,27703,1,12,0:2:0:0:
222,308,28003,1,6,1:2:0:0:
140,321,28303,1,6,1:2:0:0:
127,237,28603,1,6,1:2:0:0:
211,227,28903,2,0,L|199:145,1,82.649997793007,6|4,1:2|1:2,0:0:0:0:
146,75,29503,6,0,P|102:70|63:87,2,87,10|2|10,0:2|1:2|0:2,0:0:0:0:
199,145,30403,1,2,1:2:0:0:
252,215,30703,1,10,0:2:0:0:
322,162,31003,1,2,1:2:0:0:
269,92,31303,2,0,L|282:6,1,87,10|4,0:2|1:2,0:0:0:0:
368,18,31903,6,0,L|455:30,2,87,10|2|10,0:2|1:2|0:2,0:0:0:0:
356,104,32803,1,2,1:2:0:0:
269,92,33103,1,2,1:2:0:0:
256,178,33403,1,2,1:2:0:0:
168,165,33703,1,2,1:2:0:0:
88,129,34003,6,0,L|81:172,1,43.5,8|8,0:2|0:2,0:0:0:0:
60,303,34603,2,0,L|103:310,1,43.5,10|8,0:2|0:2,0:0:0:0:
234,329,35203,2,0,L|241:287,1,43.5,10|8,0:2|0:2,0:0:0:0:
260,155,35803,2,0,L|218:148,1,43.5,10|8,0:2|0:2,0:0:0:0:
101,209,36403,6,0,L|88:123,1,87,2|2,1:2|1:2,0:0:0:0:
34,53,37003,1,2,1:2:0:0:
122,40,37303,1,2,1:2:0:0:
209,27,37603,2,0,B|218:86|218:86|183:131|183:131|190:189,1,174,6|6,1:2|1:2,0:0:0:0:
203,276,38503,1,6,1:2:0:0:
172,364,38803,6,0,P|216:370|257:351,1,91.3499972122193,6|8,1:2|0:2,0:2:0:0:
294,266,39403,2,0,P|339:260|380:280,1,91.3499972122193,2|8,1:2|0:2,0:0:0:0:
452,336,40003,1,2,1:2:0:0:
464,245,40303,1,10,0:2:0:0:
390,189,40603,2,0,L|403:97,1,91.3499972122193,2|10,1:2|0:2,0:0:0:0:
312,85,41203,6,0,L|298:175,1,91.3499972122193,2|8,1:2|0:2,0:2:0:0:
332,260,41803,1,2,1:2:0:0:
241,248,42103,1,10,0:2:0:0:
169,305,42403,2,0,L|155:215,1,91.3499972122193,2|8,1:2|0:2,0:0:0:0:
98,142,43003,1,2,1:2:0:0:
189,129,43303,1,8,0:2:0:0:
248,199,43603,6,0,P|279:117|226:45,1,182.699994424439,6|2,1:2|1:2,0:2:0:0:
136,57,44503,1,10,0:2:0:0:
44,68,44803,2,0,L|57:158,1,91.3499972122193,0|8,1:2|0:2,0:2:0:0:
145,184,45403,1,2,1:2:0:0:
132,275,45703,1,10,0:2:0:0:
185,349,46003,6,0,P|119:364|60:330,2,137.024995818329,6|0|10,1:2|3:2|0:2,0:2:0:0:
256,292,47203,1,14,0:2:0:0:
244,200,47503,1,6,1:2:0:0:
334,188,47803,1,6,1:2:0:0:
347,279,48103,1,14,0:2:0:0:
433,310,48403,6,0,P|439:266|420:225,1,91.3499972122193,6|8,1:2|0:2,0:2:0:0:
334,188,49003,2,0,P|328:144|348:102,1,91.3499972122193,2|8,1:2|0:2,0:0:0:0:
404,28,49603,1,2,1:2:0:0:
313,16,49903,1,10,0:2:0:0:
256,89,50203,2,0,L|166:75,1,91.3499972122193,2|10,1:2|0:2,0:0:0:0:
125,158,50803,6,0,P|196:209|279:178,1,182.699994424439,2|0,1:2|1:2,0:2:0:0:
352,122,51703,1,10,0:2:0:0:
443,134,52003,2,0,L|429:225,1,91.3499972122193,2|8,1:2|0:2,0:0:0:0:
342,255,52603,2,0,L|356:345,1,91.3499972122193,2|8,1:2|0:2,0:0:0:0:
264,358,53203,6,0,L|238:175,1,182.699994424439,6|2,1:2|1:2,0:2:0:0:
269,89,54103,2,0,P|225:83|184:102,1,91.3499972122193,10|0,0:2|1:2,0:0:0:0:
148,187,54703,1,10,0:2:0:0:
134,276,55003,1,2,1:2:0:0:
44,264,55303,1,10,0:2:0:0:
56,173,55603,6,0,L|75:36,2,137.024995818329,6|8|10,1:2|0:2|0:2,0:2:0:0:
44,264,56803,1,6,1:2:0:0:
128,229,57103,1,6,1:2:0:0:
200,286,57403,1,6,1:2:0:0:
285,251,57703,1,14,1:2:0:0:
356,303,58003,6,0,P|373:262|368:220,1,87,6|10,1:2|0:2,0:2:0:0:
298,165,58603,2,0,L|316:35,2,130.5,2|2|10,1:2|1:2|0:2,0:2:0:0:
285,251,59803,1,2,1:2:0:0:
216,195,60103,1,10,0:2:0:0:
128,207,60403,6,0,L|140:293,2,87,2|10|2,1:2|0:2|1:2,0:2:0:0:
117,120,61303,1,10,0:2:0:0:
64,48,61603,2,0,P|105:31|148:36,1,87,0|8,1:2|0:2,0:2:0:0:
212,94,62203,1,2,1:2:0:0:
299,83,62503,1,10,0:2:0:0:
371,30,62803,6,0,P|388:71|383:114,1,87,6|10,1:2|0:2,0:2:0:0:
370,199,63403,2,0,L|500:217,2,130.5,2|2|10,1:2|3:2|0:2,0:0:0:0:
301,145,64603,1,2,1:2:0:0:
289,232,64903,1,10,0:2:0:0:
278,320,65203,6,0,L|191:308,1,87,6|10,1:2|0:2,0:2:0:0:
137,237,65803,2,0,P|82:204|19:217,2,130.5,6|6|2,1:2|1:2|1:2,0:0:0:0:
67,292,67003,1,2,1:2:0:0:
121,361,67303,1,2,1:2:0:0:
190,307,67603,6,0,L|277:295,1,87,6|2,1:2|1:2,0:2:0:0:
289,208,68203,2,0,L|158:225,2,130.5,14|2|2,0:2|3:2|1:2,0:2:0:0:
370,238,69403,2,0,P|375:194|358:155,1,87,10|2,0:2|1:2,0:2:0:0:
278,122,70003,6,0,L|191:110,1,87,2|10,1:2|0:2,0:0:0:0:
180,23,70603,2,0,L|310:40,2,130.5,14|2|10,0:2|1:2|0:2,0:2:0:0:
92,31,71803,1,10,0:2:0:0:
104,119,72103,1,10,0:2:0:0:
156,188,72403,6,0,P|117:204|74:200,2,87,6|8|0,1:2|0:2|1:2,0:2:0:0:
187,105,73303,1,10,0:2:0:0:
242,174,73603,2,0,L|254:260,1,87,2|10,1:2|0:2,0:2:0:0:
168,274,74203,2,0,L|156:188,1,87,0|10,1:2|0:2,0:0:0:0:
145,101,74803,6,0,B|202:93|202:93|248:128|248:128|306:120,1,174,6|2,1:2|1:2,0:2:0:0:
279,37,75703,1,8,0:2:0:0:
364,54,76003,2,0,P|392:131|342:198,1,174,6|2,1:2|1:2,0:2:0:0:
256,192,76903,1,8,0:2:0:0:
210,271,77203,5,14,0:2:0:0:
210,363,77503,1,10,0:2:0:0:
301,363,77803,1,10,0:2:0:0:
301,271,78103,1,10,0:2:0:0:
256,192,78403,2,0,P|188:181|132:220,2,137.024995818329,10|10|10,0:2|0:2|0:2,0:0:0:0:
335,237,79603,5,14,0:2:0:0:
427,237,79903,1,10,0:2:0:0:
427,146,80203,1,10,0:2:0:0:
335,146,80503,1,10,0:2:0:0:
256,192,80803,2,0,P|245:257|284:313,2,137.024995818329,10|10|10,0:2|0:2|0:2,0:0:0:0:
301,112,82003,5,14,0:2:0:0:
301,20,82303,1,10,0:2:0:0:
210,20,82603,1,10,0:2:0:0:
210,112,82903,1,10,0:2:0:0:
256,192,83203,2,0,P|321:200|377:161,2,137.024995818329,10|10|10,0:2|0:2|0:2,0:0:0:0:
176,146,84403,5,14,0:2:0:0:
84,146,84703,1,10,0:2:0:0:
84,237,85003,1,10,0:2:0:0:
176,237,85303,1,10,0:2:0:0:
256,192,85603,2,0,P|264:124|225:68,2,137.024995818329,10|10|10,0:2|0:2|0:2,0:0:0:0:
256,284,86803,5,4,0:1:0:0:
256,192,86953,12,0,89203,0:2:0:0:
