osu file format v14

[General]
AudioFilename: audio.mp3
AudioLeadIn: 0
PreviewTime: 38807
Countdown: 1
SampleSet: Normal
StackLeniency: 0.7
Mode: 0
LetterboxInBreaks: 0
WidescreenStoryboard: 0

[Editor]
DistanceSpacing: 1.5
BeatDivisor: 4
GridSize: 4
TimelineZoom: 2.4

[Metadata]
Title:S.M.L (TV Size)
TitleUnicode:S.M.L (TV Size)
Artist:Afilia Saga
ArtistUnicode:Afilia Saga
Creator:Ameyy
Version:Rage
Source:
Tags:
BeatmapID:1156336
BeatmapSetID:545845

[Difficulty]
HPDrainRate:7
CircleSize:4
OverallDifficulty:8
ApproachRate:9.3
SliderMultiplier:2
SliderTickRate:1

[Events]
//Background and Video events
0,0,"1455238332475.jpg",0,0
//Break Periods
//Storyboard Layer 0 (Background)
//Storyboard Layer 1 (Fail)
//Storyboard Layer 2 (Pass)
//Storyboard Layer 3 (Foreground)
//Storyboard Sound Samples

[TimingPoints]
407,300,4,1,0,100,1,0
9707,-66.6666666666667,4,1,0,100,0,0
10007,-100,4,1,0,100,0,0
18407,-100,4,3,0,100,0,0
19607,-100,4,1,0,100,0,0
26957,-100,4,3,0,100,0,0
27257,-100,4,1,0,100,0,0
27557,-100,4,3,0,100,0,0
27857,-100,4,1,0,100,0,0
28907,-100,4,3,0,100,0,0
29207,-100,4,1,0,100,0,0
34007,-100,4,3,0,100,0,0
34307,-100,4,1,0,100,0,0
34607,-100,4,3,0,100,0,0
34907,-100,4,1,0,100,0,0
35207,-100,4,3,0,100,0,0
35507,-100,4,1,0,100,0,0
35807,-100,4,3,0,100,0,0
36107,-100,4,1,0,100,0,0
38807,-83.3333333333333,4,1,0,100,0,1
58007,-90.9090909090909,4,1,0,100,0,0
67607,-117.647058823529,4,1,0,100,0,0
72407,-100,4,1,0,100,0,0
77207,-76.9230769230769,4,3,0,100,0,0
86807,-76.9230769230769,4,1,0,100,0,0
89132,-100,4,2,0,5,0,0

[HitObjects]
220,164,407,6,0,B|276:168|296:136|296:136|328:160|328:156,1,100
204,252,707,1,8,0:0:0:0:
392,124,857,1,0,0:0:0:0:
136,160,1007,1,0,0:0:0:0:
440,196,1157,1,0,0:0:0:0:
184,52,1307,1,8,0:0:0:0:
460,200,1457,6,0,L|476:320,1,100
336,360,1757,2,0,L|384:264,1,100,0|8,0:0|0:0,0:0:0:0:
480,384,2057,1,0,0:0:0:0:
460,200,2207,2,0,P|472:104|456:72,1,100
136,160,2507,2,0,P|124:64|140:32,1,100,8|0,0:0|0:0,0:0:0:0:
211,185,2807,6,0,B|177:227|177:227|105:242,1,100
279,126,3107,1,8,0:0:0:0:
260,324,3257,1,0,0:0:0:0:
366,128,3407,1,0,0:0:0:0:
207,53,3557,1,0,0:0:0:0:
381,132,3707,2,0,L|471:204,1,100,8|0,0:0|0:0,0:0:0:0:
371,316,4007,5,0,0:0:0:0:
493,102,4157,1,0,0:0:0:0:
275,272,4307,1,8,0:0:0:0:
434,33,4457,1,0,0:0:0:0:
275,272,4757,1,0,0:0:0:0:
429,27,4907,2,0,B|372:40|335:20|335:20|302:41|217:18,1,200,8|0,0:0|0:0,0:0:0:0:
82,29,5357,5,0,0:0:0:0:
179,142,5507,1,8,0:0:0:0:
3,75,5657,1,0,0:0:0:0:
256,96,5807,2,0,P|265:159|228:228,1,100
103,293,6107,6,0,P|94:230|131:161,2,100,8|0|0,0:0|0:0|0:0,0:0:0:0:
251,272,6557,1,0,0:0:0:0:
30,327,6707,1,8,0:0:0:0:
185,328,6857,1,0,0:0:0:0:
254,192,7007,2,0,P|307:207|326:288,1,100
349,68,7307,2,0,L|385:178,1,100,8|0,0:0|0:0,0:0:0:0:
430,25,7607,5,8,0:0:0:0:
378,162,7757,1,8,0:0:0:0:
257,54,7907,1,8,0:0:0:0:
497,142,8057,1,8,0:0:0:0:
497,142,8357,5,8,0:0:0:0:
257,54,8507,1,8,0:0:0:0:
378,162,8657,1,8,0:0:0:0:
378,162,8957,5,8,0:0:0:0:
163,70,9107,1,8,0:0:0:0:
368,160,9257,1,8,0:0:0:0:
63,146,9407,1,8,0:0:0:0:
63,146,9707,6,0,B|76:182|28:297|28:297|122:252|208:334,1,300.000011444092,8|4,0:0|0:0,0:0:0:0:
312,275,10157,5,0,0:0:0:0:
192,183,10307,2,0,L|239:294,1,100,8|0,0:0|0:0,0:0:0:0:
306,75,10607,2,0,L|189:116,1,100
312,275,10907,2,0,L|350:367,1,100,8|0,0:0|0:0,0:0:0:0:
426,167,11207,2,0,L|331:200,1,100
478,228,11507,6,0,P|505:177|479:112,1,100,8|0,0:0|0:0,0:0:0:0:
211,108,11807,2,0,P|184:159|210:224,1,100
333,203,12107,1,8,0:0:0:0:
90,114,12257,1,0,0:0:0:0:
333,203,12407,6,0,L|287:88,1,100
272,258,12707,1,8,0:0:0:0:
375,82,12857,1,0,0:0:0:0:
189,198,13007,1,0,0:0:0:0:
383,316,13157,1,0,0:0:0:0:
375,82,13307,5,8,0:0:0:0:
157,119,13457,2,0,P|112:162|107:231,1,100
246,24,13757,1,0,0:0:0:0:
375,82,13907,2,0,B|417:112|417:112|450:189,1,100,8|0,0:0|0:0,0:0:0:0:
288,190,14207,1,0,0:0:0:0:
246,24,14357,5,0,0:0:0:0:
288,190,14507,2,0,B|288:231|305:260|305:260|288:281|291:346,1,150,8|0,0:0|0:0,0:0:0:0:
214,333,14807,2,0,P|153:304|49:320,1,150
58,235,15107,1,8,0:0:0:0:
155,153,15257,1,0,0:0:0:0:
290,186,15407,6,0,L|421:239,1,100
215,101,15707,2,0,P|168:77|99:99,1,100,8|0,0:0|0:0,0:0:0:0:
337,39,16007,1,0,0:0:0:0:
291,185,16157,1,0,0:0:0:0:
354,45,16307,2,0,L|451:83,1,100,8|0,0:0|0:0,0:0:0:0:
215,102,16607,5,0,0:0:0:0:
218,291,16757,1,0,0:0:0:0:
316,113,16907,1,8,0:0:0:0:
126,247,17057,1,0,0:0:0:0:
215,102,17207,2,0,P|232:174|370:206,1,200,0|8,0:0|0:0,0:0:0:0:
473,146,17657,5,0,0:0:0:0:
473,295,17807,1,0,0:0:0:0:
343,219,17957,2,0,L|246:328,1,100,0|8,0:0|0:0,0:0:0:0:
385,362,18257,1,0,0:0:0:0:
464,141,18407,5,0,0:0:0:0:
464,290,18557,1,0,0:0:0:0:
387,61,18707,1,8,0:0:0:0:
385,362,18857,1,0,0:0:0:0:
387,61,19157,1,0,0:0:0:0:
385,362,19307,2,0,B|316:313|219:321|219:321|265:356,1,200,8|0,0:0|0:0,0:0:0:0:
147,216,19757,5,0,0:0:0:0:
326,232,19907,1,8,0:0:0:0:
106,142,20057,1,0,0:0:0:0:
106,142,20207,1,0,0:0:0:0:
108,362,20357,1,0,0:0:0:0:
147,216,20507,1,8,0:0:0:0:
267,122,20657,1,0,0:0:0:0:
267,122,20807,1,0,0:0:0:0:
147,216,20957,6,0,P|79:219|41:189,1,100,0|8,0:0|0:0,0:0:0:0:
267,122,21257,2,0,L|284:244,1,100
194,44,21557,1,0,0:0:0:0:
369,209,21707,1,8,0:0:0:0:
194,44,21857,2,0,L|314:27,1,100
369,209,22157,2,0,L|489:192,1,100,0|8,0:0|0:0,0:0:0:0:
206,222,22457,1,0,0:0:0:0:
206,222,22607,1,0,0:0:0:0:
194,44,22757,2,0,L|314:27,1,100,0|8,0:0|0:0,0:0:0:0:
168,132,23057,6,0,L|48:86,1,100
206,222,23357,2,0,L|325:192,1,100,0|8,0:0|0:0,0:0:0:0:
275,346,23657,1,0,0:0:0:0:
334,179,23807,1,2,0:0:0:0:
454,315,23957,1,0,0:0:0:0:
150,335,24107,1,10,0:0:0:0:
381,261,24257,1,0,0:0:0:0:
150,335,24407,2,0,B|128:268|181:187|181:187|223:246,1,200,2|8,0:0|0:0,0:0:0:0:
381,261,24857,5,0,0:0:0:0:
205,222,25007,2,0,L|101:231,1,100
381,261,25307,2,0,L|390:143,1,100,8|0,0:0|0:0,0:0:0:0:
262,78,25607,1,0,0:0:0:0:
290,269,25757,1,0,0:0:0:0:
377,69,25907,1,8,0:0:0:0:
153,99,26057,1,0,0:0:0:0:
379,260,26207,1,0,0:0:0:0:
262,78,26357,1,0,0:0:0:0:
204,292,26507,1,8,0:0:0:0:
380,64,26657,6,0,L|316:187,1,100
204,292,26957,1,0,0:0:0:0:
204,292,27107,1,8,0:0:0:0:
390,69,27257,2,0,L|326:192,1,100
204,292,27557,1,0,0:0:0:0:
204,292,27707,1,8,0:0:0:0:
403,77,27857,1,0,0:0:0:0:
163,216,28007,6,0,P|119:277|128:336,1,100
341,157,28307,2,0,L|227:91,1,100,8|0,0:0|0:0,0:0:0:0:
160,221,28607,6,0,P|116:282|125:341,1,100
338,162,28907,1,8,0:0:0:0:
316,149,28982,1,0,0:0:0:0:
294,136,29057,1,0,0:0:0:0:
273,124,29132,1,0,0:0:0:0:
254,115,29207,6,0,L|246:240,1,100
212,33,29507,1,8,0:0:0:0:
394,86,29657,1,0,0:0:0:0:
130,87,29807,1,0,0:0:0:0:
428,176,29957,1,0,0:0:0:0:
116,181,30107,1,8,0:0:0:0:
374,253,30257,1,0,0:0:0:0:
54,259,30407,5,0,0:0:0:0:
352,348,30557,1,0,0:0:0:0:
123,184,30707,1,8,0:0:0:0:
381,256,30857,1,0,0:0:0:0:
61,262,31007,1,0,0:0:0:0:
359,351,31157,1,0,0:0:0:0:
123,184,31307,6,0,L|214:260,1,100,8|0,0:0|0:0,0:0:0:0:
68,86,31607,5,0,0:0:0:0:
61,262,31757,1,0,0:0:0:0:
175,33,31907,1,8,0:0:0:0:
166,325,32057,1,0,0:0:0:0:
282,90,32207,1,0,0:0:0:0:
275,266,32357,1,0,0:0:0:0:
401,37,32507,1,8,0:0:0:0:
392,329,32657,1,0,0:0:0:0:
511,87,32807,5,0,0:0:0:0:
504,263,32957,1,0,0:0:0:0:
392,36,33107,1,8,0:0:0:0:
383,328,33257,1,0,0:0:0:0:
502,86,33407,1,0,0:0:0:0:
495,262,33557,1,0,0:0:0:0:
392,36,33707,2,0,L|334:126,1,100,8|0,0:0|0:0,0:0:0:0:
188,101,34007,5,0,0:0:0:0:
357,251,34157,1,0,0:0:0:0:
154,295,34307,2,0,L|232:209,1,100,8|0,0:0|0:0,0:0:0:0:
196,105,34607,5,0,0:0:0:0:
365,255,34757,1,0,0:0:0:0:
156,309,34907,2,0,L|234:223,1,100,8|0,0:0|0:0,0:0:0:0:
203,113,35207,5,0,0:0:0:0:
372,263,35357,1,0,0:0:0:0:
163,317,35507,2,0,L|241:231,1,100,8|0,0:0|0:0,0:0:0:0:
212,119,35807,5,0,0:0:0:0:
381,269,35957,1,0,0:0:0:0:
173,326,36107,2,0,B|213:295|213:295|234:238,1,100,8|0,0:0|0:0,0:0:0:0:
212,119,36407,5,0,0:0:0:0:
167,120,36482,1,0,0:0:0:0:
124,135,36557,1,0,0:0:0:0:
90,165,36632,1,0,0:0:0:0:
59,198,36707,1,8,0:0:0:0:
48,244,36782,1,0,0:0:0:0:
56,288,36857,1,0,0:0:0:0:
76,328,36932,1,0,0:0:0:0:
112,354,37007,5,0,0:0:0:0:
154,369,37082,1,0,0:0:0:0:
198,365,37157,1,0,0:0:0:0:
237,343,37232,1,0,0:0:0:0:
269,311,37307,1,8,0:0:0:0:
281,267,37382,1,0,0:0:0:0:
287,222,37457,2,0,L|307:158,1,50
377,75,37607,5,0,0:0:0:0:
425,218,37757,1,0,0:0:0:0:
209,93,37982,1,0,0:0:0:0:
482,144,38207,5,0,0:0:0:0:
267,25,38357,1,0,0:0:0:0:
425,218,38507,1,8,0:0:0:0:
209,93,38657,1,0,0:0:0:0:
482,144,38807,6,0,P|519:208|496:272,1,119.999996337891,4|0,0:0|0:0,0:0:0:0:
366,359,39107,1,8,0:0:0:0:
345,374,39257,1,0,0:0:0:0:
476,149,39407,2,0,P|513:213|490:277,1,119.999996337891
366,359,39707,1,8,0:0:0:0:
345,344,39857,1,0,0:0:0:0:
375,166,40007,6,0,L|248:223,1,119.999996337891
137,166,40307,2,0,L|264:223,1,119.999996337891,8|0,0:0|0:0,0:0:0:0:
66,218,40607,2,0,P|54:135|99:88,1,119.999996337891
446,218,40907,2,0,P|458:135|413:88,1,119.999996337891,8|0,0:0|0:0,0:0:0:0:
257,21,41207,2,0,B|182:133|306:134|243:278,1,239.999992675781,0|8,0:0|0:0,0:0:0:0:
98,344,41657,5,0,0:0:0:0:
251,250,41807,2,0,L|354:331,1,119.999996337891
263,163,42107,1,8,0:0:0:0:
98,344,42257,1,0,0:0:0:0:
250,248,42407,2,0,P|195:211|179:152,1,119.999996337891
433,199,42707,5,8,0:0:0:0:
263,163,42857,1,0,0:0:0:0:
345,326,43007,1,0,0:0:0:0:
359,68,43157,1,0,0:0:0:0:
167,326,43307,1,8,0:0:0:0:
153,68,43457,5,0,0:0:0:0:
153,68,43532,1,0,0:0:0:0:
153,68,43607,2,0,B|115:20|115:20|66:105|104:211,1,239.999992675781,0|8,0:0|0:0,0:0:0:0:
277,200,44057,5,0,0:0:0:0:
97,191,44207,2,0,L|24:302,1,119.999996337891
277,200,44507,2,0,L|350:75,1,119.999996337891,8|0,0:0|0:0,0:0:0:0:
97,190,44807,2,0,L|210:258,1,119.999996337891
375,211,45107,1,8,0:0:0:0:
214,129,45257,1,0,0:0:0:0:
307,325,45407,1,0,0:0:0:0:
418,130,45557,1,0,0:0:0:0:
111,79,45707,1,8,0:0:0:0:
418,130,45857,1,0,0:0:0:0:
111,79,46007,6,0,P|169:124|235:124,1,119.999996337891
401,79,46307,2,0,P|343:124|277:124,1,119.999996337891,8|0,0:0|0:0,0:0:0:0:
43,222,46607,2,0,L|172:222,1,119.999996337891
469,222,46907,2,0,L|349:222,1,119.999996337891,8|0,0:0|0:0,0:0:0:0:
255,68,47207,5,0,0:0:0:0:
170,301,47357,1,0,0:0:0:0:
255,75,47507,1,8,0:0:0:0:
338,304,47657,1,0,0:0:0:0:
132,145,47807,5,0,0:0:0:0:
371,146,47957,1,0,0:0:0:0:
150,51,48107,1,8,0:0:0:0:
254,331,48257,1,0,0:0:0:0:
381,53,48407,6,0,P|450:95|379:242,1,239.999992675781,4|8,0:0|0:0,0:0:0:0:
254,331,48857,2,0,L|336:195,1,119.999996337891
380,351,49157,1,0,0:0:0:0:
178,275,49307,1,8,0:0:0:0:
453,307,49457,1,0,0:0:0:0:
126,193,49607,6,0,B|92:238|92:238|78:320,1,119.999996337891
221,186,49907,2,0,P|187:124|110:102,1,119.999996337891,8|0,0:0|0:0,0:0:0:0:
325,100,50207,1,0,0:0:0:0:
98,23,50357,1,0,0:0:0:0:
325,100,50507,1,8,0:0:0:0:
98,23,50657,1,0,0:0:0:0:
325,100,50807,6,0,P|395:176|302:253,1,239.999992675781,0|8,0:0|0:0,0:0:0:0:
405,53,51257,2,0,P|452:99|468:168,1,119.999996337891
500,265,51557,2,0,L|464:136,1,119.999996337891,0|8,0:0|0:0,0:0:0:0:
290,178,51857,1,0,0:0:0:0:
374,337,52007,1,0,0:0:0:0:
374,337,52082,1,0,0:0:0:0:
374,337,52157,1,0,0:0:0:0:
285,106,52307,5,8,0:0:0:0:
285,106,52382,1,0,0:0:0:0:
285,106,52457,1,0,0:0:0:0:
285,106,52532,1,0,0:0:0:0:
285,106,52607,1,0,0:0:0:0:
249,102,52682,1,0,0:0:0:0:
213,108,52757,5,0,0:0:0:0:
177,113,52832,1,0,0:0:0:0:
147,133,52907,1,8,0:0:0:0:
130,159,52982,1,0,0:0:0:0:
119,193,53057,1,0,0:0:0:0:
119,229,53132,1,0,0:0:0:0:
135,256,53207,6,0,B|259:202|259:301|396:238,1,239.999992675781,0|8,0:0|0:0,0:0:0:0:
404,72,53657,1,0,0:0:0:0:
464,240,53807,1,0,0:0:0:0:
308,48,53957,2,0,B|248:48|248:48|168:32,1,119.999996337891,0|8,0:0|0:0,0:0:0:0:
464,240,54257,1,0,0:0:0:0:
188,36,54407,2,0,P|168:104|184:160,1,119.999996337891
464,240,54707,6,0,B|402:246|372:264|372:264|344:246|259:230,1,179.999994506836,8|0,0:0|0:0,0:0:0:0:
59,223,55007,2,0,B|115:235|142:260|142:260|171:249|171:249|216:285,1,179.999994506836
452,335,55307,2,0,P|366:361|278:350,1,179.999994506836,8|0,0:0|0:0,0:0:0:0:
188,360,55607,5,0,0:0:0:0:
250,169,55757,1,0,0:0:0:0:
278,349,55907,2,0,L|319:221,1,119.999996337891,8|0,0:0|0:0,0:0:0:0:
179,358,56207,1,0,0:0:0:0:
242,164,56357,1,0,0:0:0:0:
103,373,56507,2,0,B|92:296|168:279,1,119.999996337891,8|0,0:0|0:0,0:0:0:0:
242,164,56807,5,0,0:0:0:0:
259,167,56882,1,0,0:0:0:0:
276,163,56957,1,0,0:0:0:0:
306,143,57032,1,0,0:0:0:0:
310,107,57107,1,8,0:0:0:0:
286,80,57182,1,0,0:0:0:0:
252,65,57257,1,0,0:0:0:0:
216,65,57332,1,0,0:0:0:0:
184,83,57407,5,0,0:0:0:0:
163,112,57482,1,0,0:0:0:0:
143,155,57557,1,0,0:0:0:0:
141,202,57632,1,0,0:0:0:0:
161,245,57707,1,8,0:0:0:0:
196,277,57782,1,0,0:0:0:0:
238,298,57857,1,0,0:0:0:0:
285,299,57932,1,0,0:0:0:0:
332,303,58007,6,0,L|444:242,1,110.000003356934,4|0,0:0|0:0,0:0:0:0:
374,93,58307,1,8,0:0:0:0:
491,208,58457,1,0,0:0:0:0:
321,24,58607,2,0,P|289:71|308:151,1,110.000003356934
491,208,58907,1,8,0:0:0:0:
321,23,59057,6,0,L|197:31,1,110.000003356934
222,194,59357,1,0,0:0:0:0:
127,58,59507,1,8,0:0:0:0:
91,259,59657,1,0,0:0:0:0:
213,102,59807,1,0,0:0:0:0:
164,286,59957,2,0,P|126:331|47:315,1,110.000003356934,0|8,0:0|0:0,0:0:0:0:
220,109,60257,5,0,0:0:0:0:
220,109,60332,1,0,0:0:0:0:
220,109,60407,2,0,B|258:147|258:147|339:169,1,110.000003356934
423,285,60707,1,8,0:0:0:0:
259,245,60857,1,0,0:0:0:0:
440,201,61007,1,0,0:0:0:0:
261,336,61157,2,0,L|146:276,1,110.000003356934,0|8,0:0|0:0,0:0:0:0:
423,285,61457,1,0,0:0:0:0:
259,245,61607,2,0,L|46:137,1,220.000006713867,0|8,0:0|0:0,0:0:0:0:
306,166,62057,5,0,0:0:0:0:
423,285,62207,2,0,L|490:191,1,110.000003356934
369,76,62507,2,0,L|302:170,1,110.000003356934,8|0,0:0|0:0,0:0:0:0:
454,93,62807,6,0,P|441:29|287:66,1,220.000006713867,0|8,0:0|0:0,0:0:0:0:
157,89,63257,1,0,0:0:0:0:
302,166,63407,1,0,0:0:0:0:
65,129,63557,1,0,0:0:0:0:
307,20,63707,1,8,0:0:0:0:
157,89,63857,2,0,P|155:170|114:217,1,110.000003356934
134,2,64157,1,0,0:0:0:0:
105,296,64307,2,0,L|149:167,1,110.000003356934,8|0,0:0|0:0,0:0:0:0:
407,296,64607,2,0,L|363:167,1,110.000003356934
96,295,64907,2,0,L|140:166,1,110.000003356934,8|0,0:0|0:0,0:0:0:0:
256,79,65207,5,0,0:0:0:0:
368,192,65357,1,0,0:0:0:0:
255,304,65507,1,8,0:0:0:0:
143,191,65657,1,0,0:0:0:0:
256,51,65807,1,0,0:0:0:0:
396,192,65957,1,0,0:0:0:0:
255,332,66107,1,8,0:0:0:0:
115,191,66257,1,0,0:0:0:0:
338,133,66407,5,0,0:0:0:0:
168,280,66557,1,0,0:0:0:0:
156,49,66707,1,8,0:0:0:0:
365,288,66857,1,0,0:0:0:0:
420,42,67007,1,0,0:0:0:0:
92,113,67157,1,0,0:0:0:0:
431,222,67307,1,8,0:0:0:0:
72,274,67457,1,0,0:0:0:0:
431,222,67607,6,0,B|460:199|460:199|502:266|455:355,1,170.000003242493,0|8,0:0|0:0,0:0:0:0:
343,299,68057,1,0,0:0:0:0:
361,172,68207,2,0,L|432:85,1,85.0000016212464
335,4,68507,2,0,L|257:95,1,85.0000016212464,8|0,0:0|0:0,0:0:0:0:
245,192,68807,5,0,0:0:0:0:
370,169,68957,1,0,0:0:0:0:
290,269,69107,1,8,0:0:0:0:
415,249,69257,1,0,0:0:0:0:
245,192,69407,2,0,P|137:179|50:205,1,170.000003242493,0|8,0:0|0:0,0:0:0:0:
292,351,70007,6,0,P|353:331|417:244,1,170.000003242493,0|8,0:0|0:0,0:0:0:0:
433,123,70457,2,0,P|456:55|474:26,2,85.0000016212464
306,109,70907,1,8,0:0:0:0:
414,246,71057,2,0,B|361:228|361:228|322:241|322:241|286:223|223:242,1,170.000003242493
306,109,71507,6,0,P|273:75|217:62,1,85.0000016212464,8|0,0:0|0:0,0:0:0:0:
114,92,71807,2,0,P|147:126|203:139,1,85.0000016212464
150,14,72107,2,0,P|82:11|45:44,1,85.0000016212464,8|0,0:0|0:0,0:0:0:0:
46,166,72407,5,0,0:0:0:0:
102,304,72557,1,0,0:0:0:0:
183,142,72707,2,0,L|313:121,1,100,8|0,0:0|0:0,0:0:0:0:
284,276,73007,1,0,0:0:0:0:
102,304,73157,1,0,0:0:0:0:
281,126,73307,2,0,B|330:137|330:137|389:187,1,100,8|0,0:0|0:0,0:0:0:0:
182,142,73607,1,0,0:0:0:0:
102,304,73757,1,0,0:0:0:0:
369,171,73907,2,0,L|431:269,1,100,8|0,0:0|0:0,0:0:0:0:
283,276,74207,1,0,0:0:0:0:
102,304,74357,1,0,0:0:0:0:
423,256,74507,2,0,L|486:171,1,100,8|0,0:0|0:0,0:0:0:0:
427,36,74807,5,0,0:0:0:0:
372,171,74957,1,0,0:0:0:0:
309,34,75107,1,8,0:0:0:0:
253,173,75257,1,0,0:0:0:0:
192,35,75407,1,0,0:0:0:0:
312,250,75557,1,0,0:0:0:0:
427,36,75707,1,8,0:0:0:0:
192,35,75857,1,0,0:0:0:0:
427,36,76007,6,0,L|519:117,1,100
192,35,76307,2,0,L|100:116,1,100,8|0,0:0|0:0,0:0:0:0:
447,237,76607,2,0,L|371:170,1,100
178,239,76907,2,0,L|253:172,1,100,8|0,0:0|0:0,0:0:0:0:
311,34,77207,5,0,0:0:0:0:
312,333,77507,1,8,0:0:0:0:
75,148,77807,1,0,0:0:0:0:
224,134,77957,1,0,0:0:0:0:
320,249,78107,1,8,0:0:0:0:
44,367,78407,5,0,0:0:0:0:
107,231,78557,1,0,0:0:0:0:
224,134,78707,1,8,0:0:0:0:
373,122,78857,1,0,0:0:0:0:
107,231,79157,5,0,0:0:0:0:
373,122,79307,2,0,L|495:222,1,129.999994049073,8|0,0:0|0:0,0:0:0:0:
107,231,79607,5,0,0:0:0:0:
395,314,79907,1,8,0:0:0:0:
229,63,80207,1,0,0:0:0:0:
86,102,80357,1,0,0:0:0:0:
273,195,80507,1,8,0:0:0:0:
269,2,80807,5,0,0:0:0:0:
17,85,80957,1,0,0:0:0:0:
312,261,81107,1,8,0:0:0:0:
134,18,81257,1,0,0:0:0:0:
312,261,81557,5,0,0:0:0:0:
312,261,81707,2,0,B|195:249|195:249|212:294,1,129.999994049073,8|0,0:0|0:0,0:0:0:0:
477,204,82007,1,0,0:0:0:0:
89,251,82307,1,8,0:0:0:0:
414,35,82607,1,0,0:0:0:0:
270,166,82757,1,0,0:0:0:0:
461,129,82907,1,8,0:0:0:0:
79,47,83207,5,0,0:0:0:0:
177,215,83357,1,0,0:0:0:0:
231,53,83507,1,8,0:0:0:0:
34,195,83657,1,0,0:0:0:0:
231,53,83957,1,0,0:0:0:0:
34,195,84107,2,0,P|25:284|41:352,1,129.999994049073,8|0,0:0|0:0,0:0:0:0:
231,53,84407,5,0,0:0:0:0:
477,355,84707,1,8,0:0:0:0:
429,93,85007,1,0,0:0:0:0:
249,168,85157,1,0,0:0:0:0:
399,291,85307,1,8,0:0:0:0:
429,93,85607,5,0,0:0:0:0:
277,274,85757,1,0,0:0:0:0:
318,31,85907,1,8,0:0:0:0:
399,291,86057,1,0,0:0:0:0:
429,93,86357,5,0,0:0:0:0:
126,291,86507,1,8,0:0:0:0:
492,173,86657,1,0,0:0:0:0:
50,112,86807,1,4,0:0:0:0:
256,192,86882,12,0,89207,0:0:0:0:
