osu file format v14

[General]
AudioFilename: audio.mp3
AudioLeadIn: 0
PreviewTime: 152400
Countdown: 0
SampleSet: Normal
StackLeniency: 0.7
Mode: 1
LetterboxInBreaks: 0
WidescreenStoryboard: 1

[Editor]
DistanceSpacing: 1.9
BeatDivisor: 4
GridSize: 32
TimelineZoom: 1.7

[Metadata]
Title:S.M.L*
TitleUnicode:S・M・L☆
Artist:Afilia Saga
ArtistUnicode:アフィリア・サーガ
Creator:Joltzzz
Version:arc's Oni
Source:俺の脳内選択肢が、学園ラブコメを全力で邪魔している
Tags:ron [r] arcpotato のうコメ noucome Sweet Melty Love opening op full ver. version Lovecome Love Comedy Ore no Nounai Sentakushi ga, Gakuen Rabukome o Zenryoku de Jamashiteiru My Mental Choices are Completely Interfering with my School Romantic sml japanese rock jrock j-rock イースト East アフィリア・サーガ・イースト 純情のアフィリア Junjō Junjou no アヤミ・チェルシー・スノウ アヤミ チェルシー スノウ Ayami Chercy Snow アリア・M・ミルヴァーナ アリア M ミルヴァーナ Aria M Milvana エミュウ・ヴァイルシュミット エミュウ ヴァイルシュミット Emiu Weilschmidt コヒメ・リト・プッチ コヒメ リト プッチ Kohime Lit Pucci 小日向茜 Kohinata Akane マホ・ソット・ボーチェ マホ ソット ボーチェ Maho Sotto Voce 青海マホ Aomi Maho ミク・ドール・シャルロット ミク ドール シャルロット Miku Doll Charlotte ユカフィン・ドール ユカフィン ドール Yukafin Doll ルイズ・スフォルツア ルイズ スフォルツア Louise Sforzur レイナ・スコット・モーゼル レイナ スコット モーゼル Reina S Mauser レミー・ヘヴェンリー レミー ヘヴェンリー Raymee Heavenly ローラ・シュクレーヌ ローラ シュクレーヌ Laura Sucreine
BeatmapID:3477836
BeatmapSetID:1691609

[Difficulty]
HPDrainRate:5.5
CircleSize:2
OverallDifficulty:5.5
ApproachRate:10
SliderMultiplier:1.4
SliderTickRate:1

[Events]
//Background and Video events
0,0,"bg.jpg",0,0
//Break Periods
//Storyboard Layer 0 (Background)
//Storyboard Layer 1 (Fail)
//Storyboard Layer 2 (Pass)
//Storyboard Layer 3 (Foreground)
//Storyboard Layer 4 (Overlay)
//Storyboard Sound Samples

[TimingPoints]
0,300,4,1,0,30,1,0
1500,-100,4,1,0,40,0,0
1800,-100,4,1,0,50,0,0
2100,-100,4,1,0,60,0,0
2400,-100,4,1,0,70,0,0
2700,-100,4,1,0,80,0,0
3000,-100,4,1,0,90,0,0
3300,-100,4,1,0,100,0,0
10800,-90.9090909090909,4,1,0,100,0,0
12225,-100,4,1,0,100,0,0
31200,-90.9090909090909,4,1,0,100,0,0
32250,-100,4,1,0,100,0,0
36150,-90.9090909090909,4,1,0,100,0,0
36750,-100,4,1,0,100,0,0
45600,-90.9090909090909,4,1,0,100,0,0
46650,-100,4,1,0,100,0,0
55200,-83.3333333333333,4,1,0,100,0,0
56400,-100,4,1,0,100,0,0
64800,-95.2380952380952,4,1,0,100,0,0
65000,-90.9090909090909,4,1,0,100,0,0
65200,-86.9565217391304,4,1,0,100,0,0
65400,-83.3333333333333,4,1,0,100,0,0
65600,-100,4,1,0,100,0,0
66000,-100,4,1,0,100,0,1
74400,-83.3333333333333,4,1,0,100,0,1
74700,-86.9565217391304,4,1,0,100,0,1
75000,-90.9090909090909,4,1,0,100,0,1
75300,-95.2380952380952,4,1,0,100,0,1
75600,-100,4,1,0,100,0,1
84000,-90.9090909090909,4,1,0,100,0,1
85200,-100,4,1,0,100,0,1
94800,-100,4,1,0,100,0,0
99600,-100,4,1,0,100,0,1
104400,-100,4,1,0,100,0,0
117600,-90.9090909090909,4,1,0,100,0,0
118600,-100,4,1,0,100,0,0
122500,-90.9090909090909,4,1,0,100,0,0
123100,-100,4,1,0,100,0,0
132000,-90.9090909090909,4,1,0,100,0,0
133000,-100,4,1,0,100,0,0
141600,-83.3333333333333,4,1,0,100,0,0
142800,-100,4,1,0,100,0,0
151200,-95.2380952380952,4,1,0,100,0,0
151400,-90.9090909090909,4,1,0,100,0,0
151600,-86.9565217391304,4,1,0,100,0,0
151800,-83.3333333333333,4,1,0,100,0,0
152400,-100,4,1,0,100,0,1
160800,-83.3333333333333,4,1,0,100,0,1
161100,-86.9565217391304,4,1,0,100,0,1
161400,-90.9090909090909,4,1,0,100,0,1
161700,-95.2380952380952,4,1,0,100,0,1
162000,-100,4,1,0,100,0,1
170400,-90.9090909090909,4,1,0,100,0,1
171600,-100,4,1,0,100,0,1
181200,-100,4,1,0,100,0,0
186000,-100,4,1,0,100,0,1
190800,-100,4,1,0,100,0,0
194400,-90.9090909090909,4,1,0,100,0,0
195600,-100,4,1,0,100,0,0
216075,-99.009900990099,4,1,0,100,0,0
216150,-98.0392156862745,4,1,0,100,0,0
216300,-96.1538461538461,4,1,0,100,0,0
216375,-95.2380952380952,4,1,0,100,0,0
216450,-94.3396226415094,4,1,0,100,0,0
216600,-92.5925925925926,4,1,0,100,0,0
216675,-91.743119266055,4,1,0,100,0,0
216750,-90.9090909090909,4,1,0,100,0,0
216900,-89.2857142857143,4,1,0,100,0,0
216975,-88.4955752212389,4,1,0,100,0,0
217050,-87.719298245614,4,1,0,100,0,0
217125,-86.9565217391304,4,1,0,100,0,0
217200,-86.2068965517241,4,1,0,100,0,1
217350,-100,4,1,0,100,0,1
225600,-83.3333333333333,4,1,0,100,0,1
225900,-86.9565217391304,4,1,0,100,0,1
226200,-90.9090909090909,4,1,0,100,0,1
226500,-95.2380952380952,4,1,0,100,0,1
226800,-100,4,1,0,100,0,1
235200,-90.9090909090909,4,1,0,100,0,1
236400,-100,4,1,0,100,0,1
246000,-100,4,1,0,100,0,0
250800,-100,4,1,0,100,0,1
255900,-97.0873786407767,4,1,0,100,0,1
256050,-95.2380952380952,4,1,0,100,0,1
256200,-93.4579439252336,4,1,0,100,0,1
256500,-90.9090909090909,4,1,0,100,0,1
260400,-90.9090909090909,4,1,0,100,0,0
260550,-100,4,1,0,100,0,0
268947,-98.7654320987654,4,1,0,100,0,0
269022,-98.159509202454,4,1,0,100,0,0
269097,-97.5609756097561,4,1,0,100,0,0
269247,-96.3855421686747,4,1,0,100,0,0
269397,-95.2380952380952,4,1,0,100,0,0
269472,-94.6745562130177,4,1,0,100,0,0
269547,-94.1176470588235,4,1,0,100,0,0
269697,-93.0232558139535,4,1,0,100,0,0
269997,-90.9090909090909,4,1,0,100,0,0
280200,-100,4,1,0,100,0,0
281400,-100,4,1,0,92,0,0
282000,-105.263157894737,4,1,0,85,0,0
282600,-105.263157894737,4,1,0,77,0,0
283200,-111.111111111111,4,1,0,70,0,0
283800,-111.111111111111,4,1,0,62,0,0
284400,-117.647058823529,4,1,0,55,0,0
285000,-117.647058823529,4,1,0,47,0,0
285600,-125,4,1,0,40,0,0

[HitObjects]
256,192,1200,12,0,3450,0:0:0:0:
256,192,3600,5,4,0:0:0:0:
256,192,3900,1,8,0:0:0:0:
256,192,4200,1,0,0:0:0:0:
256,192,4500,1,8,0:0:0:0:
256,192,4800,1,8,0:0:0:0:
256,192,5000,1,0,0:0:0:0:
256,192,5100,1,8,0:0:0:0:
256,192,5400,1,0,0:0:0:0:
256,192,5600,1,8,0:0:0:0:
256,192,5700,1,0,0:0:0:0:
256,192,6000,1,8,0:0:0:0:
256,192,6300,1,0,0:0:0:0:
256,192,6600,1,8,0:0:0:0:
256,192,6900,1,0,0:0:0:0:
256,192,7200,1,0,0:0:0:0:
256,192,7400,1,8,0:0:0:0:
256,192,7500,1,0,0:0:0:0:
256,192,7800,1,8,0:0:0:0:
256,192,8000,1,0,0:0:0:0:
256,192,8100,1,8,0:0:0:0:
256,160,8400,1,0,0:0:0:0:
256,192,8700,1,8,0:0:0:0:
256,192,9000,1,0,0:0:0:0:
256,192,9300,1,8,0:0:0:0:
256,192,9600,1,0,0:0:0:0:
256,192,9800,1,8,0:0:0:0:
256,192,9900,1,0,0:0:0:0:
256,192,10100,1,0,0:0:0:0:
256,192,10200,1,8,0:0:0:0:
256,192,10500,1,0,0:0:0:0:
288,192,10800,1,12,0:0:0:0:
256,192,11250,1,4,0:0:0:0:
256,192,11700,1,4,0:0:0:0:
256,192,12000,1,12,0:0:0:0:
261,174,13200,1,0,0:0:0:0:
261,174,13275,1,0,0:0:0:0:
261,174,13350,1,8,0:0:0:0:
261,174,13500,1,0,0:0:0:0:
255,153,13650,1,8,0:0:0:0:
255,153,13800,1,0,0:0:0:0:
261,174,13875,1,8,0:0:0:0:
256,143,13950,1,0,0:0:0:0:
256,143,14100,1,8,0:0:0:0:
261,181,14400,1,8,0:0:0:0:
256,192,14550,1,8,0:0:0:0:
261,181,14700,1,0,0:0:0:0:
261,181,14850,1,0,0:0:0:0:
261,181,15150,1,8,0:0:0:0:
261,181,15300,1,0,0:0:0:0:
261,181,15600,1,8,0:0:0:0:
246,166,15675,1,8,0:0:0:0:
284,167,15750,1,0,0:0:0:0:
272,162,15900,1,8,0:0:0:0:
272,162,16050,1,0,0:0:0:0:
279,157,16200,1,8,0:0:0:0:
266,187,16275,1,0,0:0:0:0:
275,156,16350,1,8,0:0:0:0:
256,143,16500,1,0,0:0:0:0:
254,189,16800,1,0,0:0:0:0:
256,128,16950,1,8,0:0:0:0:
256,192,17100,1,8,0:0:0:0:
256,192,17250,1,0,0:0:0:0:
256,192,17550,1,0,0:0:0:0:
256,192,17700,1,8,0:0:0:0:
256,192,18000,1,0,0:0:0:0:
256,192,18075,1,0,0:0:0:0:
256,192,18150,1,8,0:0:0:0:
256,192,18300,1,0,0:0:0:0:
256,192,18450,1,8,0:0:0:0:
256,192,18600,1,0,0:0:0:0:
256,192,18675,1,8,0:0:0:0:
256,192,18750,1,0,0:0:0:0:
256,192,18900,1,8,0:0:0:0:
256,160,19200,1,8,0:0:0:0:
256,160,19350,1,8,0:0:0:0:
256,192,19500,1,8,0:0:0:0:
256,192,19650,1,0,0:0:0:0:
256,192,19950,1,8,0:0:0:0:
256,192,20100,1,0,0:0:0:0:
224,160,20400,1,8,0:0:0:0:
256,192,20475,1,8,0:0:0:0:
256,160,20550,1,0,0:0:0:0:
256,160,20700,1,8,0:0:0:0:
256,192,20850,1,0,0:0:0:0:
256,192,21000,1,8,0:0:0:0:
256,160,21075,1,8,0:0:0:0:
256,160,21150,1,8,0:0:0:0:
256,160,21300,1,0,0:0:0:0:
276,194,21450,1,0,0:0:0:0:
256,160,21600,1,8,0:0:0:0:
268,159,21750,1,0,0:0:0:0:
256,160,21900,1,8,0:0:0:0:
256,160,22050,1,8,0:0:0:0:
284,205,22125,1,8,0:0:0:0:
261,179,22200,1,0,0:0:0:0:
256,160,22350,1,8,0:0:0:0:
256,160,22500,1,8,0:0:0:0:
227,208,22650,1,0,0:0:0:0:
256,192,22800,1,8,0:0:0:0:
256,192,23100,1,8,0:0:0:0:
256,192,23400,1,8,0:0:0:0:
256,192,23700,1,8,0:0:0:0:
256,192,24000,1,8,0:0:0:0:
256,192,24300,1,8,0:0:0:0:
256,192,24600,1,8,0:0:0:0:
256,192,24900,1,8,0:0:0:0:
256,192,25200,1,8,0:0:0:0:
256,192,25500,1,8,0:0:0:0:
256,192,25800,1,8,0:0:0:0:
256,192,26100,1,8,0:0:0:0:
256,192,26400,1,8,0:0:0:0:
288,192,26550,1,0,0:0:0:0:
288,192,26625,1,0,0:0:0:0:
256,192,26700,1,8,0:0:0:0:
288,192,26850,1,0,0:0:0:0:
256,192,27000,1,8,0:0:0:0:
288,192,27150,1,0,0:0:0:0:
288,192,27300,1,12,0:0:0:0:
256,192,27600,1,0,0:0:0:0:
256,192,27675,1,0,0:0:0:0:
256,192,27750,1,0,0:0:0:0:
256,160,27900,1,8,0:0:0:0:
256,160,28050,1,0,0:0:0:0:
256,160,28200,1,8,0:0:0:0:
256,192,28275,1,8,0:0:0:0:
256,192,28350,1,0,0:0:0:0:
256,192,28500,1,8,0:0:0:0:
256,192,28650,1,0,0:0:0:0:
256,160,28950,1,8,0:0:0:0:
256,160,29250,1,0,0:0:0:0:
256,160,29400,1,8,0:0:0:0:
256,160,29475,1,8,0:0:0:0:
256,160,29550,1,0,0:0:0:0:
256,128,29700,1,8,0:0:0:0:
256,224,29850,1,0,0:0:0:0:
256,160,30000,1,0,0:0:0:0:
256,160,30075,1,0,0:0:0:0:
256,160,30150,1,8,0:0:0:0:
256,160,30300,1,0,0:0:0:0:
256,160,30450,1,8,0:0:0:0:
256,128,30600,1,0,0:0:0:0:
256,128,30900,1,8,0:0:0:0:
256,128,31050,1,0,0:0:0:0:
256,192,31200,1,12,0:0:0:0:
256,160,31350,1,4,0:0:0:0:
256,160,31500,1,4,0:0:0:0:
256,160,31650,1,4,0:0:0:0:
256,160,31950,1,12,0:0:0:0:
256,160,32100,1,12,0:0:0:0:
256,192,32400,1,0,0:0:0:0:
256,192,32475,1,0,0:0:0:0:
256,192,32550,1,0,0:0:0:0:
256,160,32700,1,8,0:0:0:0:
256,160,32850,1,0,0:0:0:0:
256,160,33000,1,8,0:0:0:0:
256,192,33075,1,8,0:0:0:0:
256,192,33150,1,0,0:0:0:0:
256,192,33300,1,8,0:0:0:0:
256,192,33450,1,0,0:0:0:0:
256,160,33750,1,8,0:0:0:0:
256,160,34050,1,0,0:0:0:0:
256,160,34200,1,8,0:0:0:0:
256,160,34275,1,8,0:0:0:0:
256,160,34350,1,0,0:0:0:0:
256,128,34500,1,8,0:0:0:0:
256,160,34800,1,0,0:0:0:0:
256,160,34950,1,8,0:0:0:0:
256,160,35100,1,0,0:0:0:0:
256,160,35250,1,8,0:0:0:0:
256,192,35550,1,0,0:0:0:0:
256,192,35700,1,0,0:0:0:0:
256,192,35850,1,8,0:0:0:0:
256,192,36150,1,12,0:0:0:0:
256,192,36300,1,12,0:0:0:0:
224,192,36450,1,4,0:0:0:0:
224,192,36600,1,4,0:0:0:0:
256,192,36900,1,8,0:0:0:0:
256,192,37050,1,0,0:0:0:0:
256,160,37125,1,0,0:0:0:0:
256,192,37200,1,8,0:0:0:0:
256,192,37500,1,0,0:0:0:0:
256,192,37575,1,0,0:0:0:0:
256,192,37650,1,8,0:0:0:0:
256,192,37800,1,0,0:0:0:0:
256,192,37950,1,0,0:0:0:0:
256,192,38100,1,8,0:0:0:0:
256,192,38400,1,8,0:0:0:0:
256,192,38475,1,8,0:0:0:0:
256,192,38550,1,0,0:0:0:0:
256,160,38700,1,8,0:0:0:0:
256,160,38850,1,8,0:0:0:0:
256,160,39000,1,0,0:0:0:0:
288,128,39075,1,0,0:0:0:0:
256,160,39150,1,0,0:0:0:0:
288,160,39300,1,8,0:0:0:0:
256,192,39600,1,0,0:0:0:0:
288,128,39675,1,0,0:0:0:0:
256,192,39750,1,8,0:0:0:0:
256,160,39900,1,0,0:0:0:0:
256,160,40050,1,0,0:0:0:0:
256,128,40200,1,8,0:0:0:0:
256,128,40350,1,0,0:0:0:0:
288,128,40500,1,8,0:0:0:0:
192,192,40575,1,8,0:0:0:0:
256,128,40650,1,0,0:0:0:0:
256,128,40800,1,0,0:0:0:0:
256,128,41100,1,0,0:0:0:0:
256,128,41250,1,8,0:0:0:0:
256,128,41550,1,8,0:0:0:0:
224,160,41700,1,0,0:0:0:0:
288,160,42000,1,8,0:0:0:0:
288,160,42075,1,0,0:0:0:0:
256,160,42150,1,8,0:0:0:0:
256,160,42300,1,0,0:0:0:0:
256,160,42450,1,0,0:0:0:0:
256,160,42600,1,8,0:0:0:0:
256,96,42675,1,8,0:0:0:0:
256,160,42750,1,8,0:0:0:0:
256,160,42900,1,0,0:0:0:0:
288,192,43050,1,0,0:0:0:0:
288,192,43200,1,8,0:0:0:0:
320,192,43500,1,0,0:0:0:0:
320,160,43650,1,0,0:0:0:0:
320,160,43800,1,8,0:0:0:0:
320,160,44100,1,8,0:0:0:0:
320,160,44400,1,4,0:0:0:0:
288,160,44700,1,8,0:0:0:0:
288,160,44850,1,0,0:0:0:0:
288,160,44925,1,0,0:0:0:0:
288,160,45000,1,8,0:0:0:0:
288,160,45150,1,8,0:0:0:0:
288,160,45300,1,0,0:0:0:0:
352,224,45450,1,8,0:0:0:0:
256,160,45600,1,4,0:0:0:0:
256,160,45750,1,12,0:0:0:0:
256,160,45900,1,12,0:0:0:0:
256,128,46050,1,4,0:0:0:0:
224,128,46350,1,4,0:0:0:0:
224,128,46500,1,4,0:0:0:0:
256,192,46800,1,8,0:0:0:0:
256,192,47100,1,0,0:0:0:0:
256,160,47175,1,0,0:0:0:0:
256,192,47250,1,8,0:0:0:0:
256,192,47400,1,0,0:0:0:0:
224,160,47550,1,0,0:0:0:0:
256,192,47700,1,8,0:0:0:0:
288,160,47775,1,8,0:0:0:0:
224,160,47850,1,8,0:0:0:0:
256,128,48000,1,0,0:0:0:0:
288,192,48150,1,0,0:0:0:0:
256,192,48300,1,8,0:0:0:0:
256,192,48375,1,8,0:0:0:0:
256,160,48450,1,0,0:0:0:0:
256,160,48600,1,8,0:0:0:0:
256,128,48750,1,0,0:0:0:0:
256,128,48900,1,8,0:0:0:0:
288,160,48975,1,0,0:0:0:0:
256,128,49050,1,8,0:0:0:0:
320,128,49200,1,0,0:0:0:0:
256,160,49500,1,8,0:0:0:0:
256,160,49650,1,8,0:0:0:0:
256,192,49800,1,0,0:0:0:0:
256,192,49950,1,0,0:0:0:0:
256,192,50100,1,8,0:0:0:0:
256,192,50175,1,8,0:0:0:0:
256,192,50250,1,0,0:0:0:0:
256,192,50400,1,8,0:0:0:0:
256,160,50550,1,0,0:0:0:0:
288,192,50700,1,8,0:0:0:0:
256,192,50850,1,0,0:0:0:0:
288,192,50925,1,8,0:0:0:0:
256,192,51000,1,0,0:0:0:0:
256,192,51150,1,0,0:0:0:0:
256,192,51300,1,8,0:0:0:0:
256,160,51375,1,8,0:0:0:0:
288,160,51450,1,8,0:0:0:0:
288,160,51600,1,4,0:0:0:0:
256,192,51900,1,0,0:0:0:0:
288,192,52050,1,0,0:0:0:0:
256,192,52200,1,8,0:0:0:0:
256,192,52275,1,8,0:0:0:0:
256,192,52350,1,0,0:0:0:0:
256,192,52500,1,8,0:0:0:0:
256,192,52650,1,0,0:0:0:0:
256,192,52800,1,8,0:0:0:0:
256,96,52875,1,0,0:0:0:0:
256,192,52950,1,0,0:0:0:0:
256,160,53100,1,8,0:0:0:0:
256,160,53250,1,8,0:0:0:0:
256,160,53400,1,0,0:0:0:0:
288,192,53475,1,8,0:0:0:0:
256,160,53550,1,0,0:0:0:0:
256,160,53700,1,8,0:0:0:0:
256,192,54000,1,0,0:0:0:0:
254,182,54300,1,0,0:0:0:0:
256,160,54600,1,8,0:0:0:0:
255,182,54900,1,8,0:0:0:0:
256,160,55200,1,4,0:0:0:0:
256,160,55500,1,4,0:0:0:0:
256,160,55800,1,4,0:0:0:0:
256,160,56100,1,4,0:0:0:0:
288,160,56400,1,12,0:0:0:0:
261,183,56700,1,0,0:0:0:0:
255,170,56850,1,0,0:0:0:0:
256,192,57000,1,8,0:0:0:0:
305,178,57075,1,8,0:0:0:0:
261,188,57150,1,0,0:0:0:0:
256,160,57300,1,8,0:0:0:0:
305,178,57450,1,8,0:0:0:0:
256,192,57600,1,0,0:0:0:0:
256,192,57675,1,0,0:0:0:0:
277,215,57750,1,8,0:0:0:0:
256,160,57900,1,0,0:0:0:0:
277,215,58050,1,0,0:0:0:0:
256,160,58200,1,8,0:0:0:0:
315,167,58275,1,0,0:0:0:0:
233,196,58350,1,0,0:0:0:0:
256,128,58500,1,8,0:0:0:0:
256,128,58800,1,12,0:0:0:0:
256,128,59100,1,0,0:0:0:0:
257,182,59250,1,0,0:0:0:0:
256,128,59400,1,8,0:0:0:0:
200,166,59475,1,0,0:0:0:0:
276,161,59550,1,8,0:0:0:0:
256,128,59700,1,0,0:0:0:0:
283,160,59850,1,0,0:0:0:0:
256,128,60000,1,8,0:0:0:0:
288,160,60075,1,8,0:0:0:0:
256,160,60150,1,0,0:0:0:0:
256,128,60300,1,8,0:0:0:0:
238,156,60450,1,8,0:0:0:0:
256,128,60600,1,0,0:0:0:0:
304,195,60675,1,0,0:0:0:0:
256,160,60750,1,8,0:0:0:0:
256,128,60900,1,0,0:0:0:0:
224,160,61200,1,4,0:0:0:0:
224,160,61350,1,4,0:0:0:0:
256,160,61800,1,12,0:0:0:0:
256,160,61950,1,12,0:0:0:0:
256,160,62400,1,4,0:0:0:0:
256,160,62550,1,4,0:0:0:0:
224,160,63000,1,12,0:0:0:0:
224,160,63150,1,12,0:0:0:0:
256,192,63600,1,0,0:0:0:0:
256,192,63675,1,0,0:0:0:0:
256,192,63750,1,8,0:0:0:0:
256,192,63900,1,0,0:0:0:0:
256,192,64050,1,8,0:0:0:0:
256,192,64200,1,0,0:0:0:0:
256,192,64275,1,0,0:0:0:0:
256,192,64350,1,8,0:0:0:0:
256,160,64500,1,8,0:0:0:0:
256,160,64575,1,8,0:0:0:0:
256,160,64650,1,0,0:0:0:0:
288,192,64800,1,12,0:0:0:0:
256,192,65000,1,12,0:0:0:0:
256,192,65200,1,4,0:0:0:0:
256,192,65400,1,12,0:0:0:0:
256,192,66000,1,8,0:0:0:0:
256,192,66075,1,8,0:0:0:0:
256,192,66150,1,0,0:0:0:0:
256,192,66300,1,0,0:0:0:0:
302,159,66450,1,8,0:0:0:0:
256,192,66600,1,0,0:0:0:0:
256,192,66675,1,0,0:0:0:0:
256,192,66750,1,8,0:0:0:0:
256,192,66900,1,0,0:0:0:0:
250,149,67050,1,8,0:0:0:0:
256,192,67200,1,0,0:0:0:0:
256,160,67500,1,8,0:0:0:0:
256,192,67575,1,8,0:0:0:0:
224,160,67650,1,0,0:0:0:0:
224,160,67800,1,8,0:0:0:0:
224,160,67950,1,0,0:0:0:0:
224,160,68100,1,8,0:0:0:0:
288,160,68400,1,0,0:0:0:0:
256,160,68475,1,0,0:0:0:0:
256,160,68550,1,8,0:0:0:0:
224,160,68700,1,8,0:0:0:0:
224,160,68850,1,0,0:0:0:0:
224,160,69000,1,8,0:0:0:0:
224,128,69075,1,0,0:0:0:0:
224,128,69150,1,8,0:0:0:0:
256,192,69225,1,8,0:0:0:0:
224,160,69300,1,0,0:0:0:0:
192,128,69450,1,0,0:0:0:0:
224,160,69600,1,8,0:0:0:0:
256,160,69750,1,8,0:0:0:0:
288,160,69900,1,0,0:0:0:0:
288,192,70200,1,8,0:0:0:0:
288,160,70275,1,8,0:0:0:0:
224,160,70350,1,0,0:0:0:0:
224,160,70500,1,8,0:0:0:0:
288,192,70650,1,8,0:0:0:0:
256,160,70800,1,4,0:0:0:0:
224,160,71100,1,8,0:0:0:0:
256,160,71250,1,0,0:0:0:0:
256,160,71325,1,0,0:0:0:0:
224,160,71400,1,8,0:0:0:0:
276,152,71550,1,0,0:0:0:0:
224,160,71700,1,8,0:0:0:0:
256,160,71850,1,8,0:0:0:0:
256,160,72000,1,0,0:0:0:0:
288,160,72300,1,0,0:0:0:0:
256,160,72450,1,0,0:0:0:0:
320,192,72600,1,8,0:0:0:0:
256,160,72750,1,0,0:0:0:0:
320,192,72900,1,8,0:0:0:0:
288,160,73050,1,0,0:0:0:0:
320,192,73200,1,12,0:0:0:0:
224,192,73500,1,0,0:0:0:0:
224,192,73650,1,8,0:0:0:0:
256,128,73725,1,0,0:0:0:0:
288,160,73800,1,8,0:0:0:0:
224,192,73950,1,0,0:0:0:0:
224,192,74100,1,8,0:0:0:0:
224,192,74250,1,0,0:0:0:0:
224,192,74400,1,12,0:0:0:0:
224,192,74700,1,4,0:0:0:0:
224,192,75000,1,12,0:0:0:0:
224,192,75300,1,4,0:0:0:0:
224,192,75600,1,8,0:0:0:0:
256,192,75675,1,8,0:0:0:0:
256,192,75750,1,0,0:0:0:0:
224,192,75900,1,0,0:0:0:0:
224,192,76050,1,8,0:0:0:0:
256,192,76200,1,0,0:0:0:0:
256,192,76275,1,0,0:0:0:0:
256,192,76350,1,8,0:0:0:0:
256,192,76500,1,0,0:0:0:0:
224,192,76650,1,0,0:0:0:0:
288,192,76800,1,8,0:0:0:0:
224,192,77100,1,0,0:0:0:0:
256,160,77175,1,0,0:0:0:0:
256,192,77250,1,8,0:0:0:0:
224,192,77400,1,0,0:0:0:0:
256,160,77550,1,0,0:0:0:0:
224,192,77700,1,8,0:0:0:0:
256,192,78000,1,0,0:0:0:0:
256,224,78075,1,8,0:0:0:0:
256,192,78150,1,0,0:0:0:0:
224,160,78300,1,8,0:0:0:0:
256,192,78450,1,8,0:0:0:0:
224,192,78600,1,0,0:0:0:0:
288,224,78900,1,8,0:0:0:0:
288,224,79050,1,0,0:0:0:0:
288,224,79200,1,8,0:0:0:0:
160,192,79275,1,8,0:0:0:0:
256,192,79350,1,0,0:0:0:0:
256,160,79500,1,8,0:0:0:0:
288,160,79800,1,8,0:0:0:0:
256,192,79875,1,8,0:0:0:0:
288,160,79950,1,8,0:0:0:0:
288,160,80100,1,0,0:0:0:0:
288,192,80250,1,8,0:0:0:0:
288,192,80400,1,4,0:0:0:0:
288,192,80700,1,8,0:0:0:0:
288,192,80850,1,0,0:0:0:0:
296,165,80925,1,8,0:0:0:0:
288,192,81000,1,0,0:0:0:0:
277,154,81150,1,8,0:0:0:0:
288,192,81300,1,0,0:0:0:0:
288,192,81450,1,0,0:0:0:0:
256,192,81600,1,8,0:0:0:0:
320,224,81900,1,0,0:0:0:0:
256,192,82050,1,0,0:0:0:0:
320,224,82200,1,8,0:0:0:0:
288,192,82350,1,0,0:0:0:0:
320,224,82500,1,8,0:0:0:0:
288,192,82650,1,8,0:0:0:0:
320,224,82800,1,4,0:0:0:0:
288,192,83100,1,8,0:0:0:0:
288,192,83250,1,0,0:0:0:0:
288,192,83325,1,0,0:0:0:0:
288,192,83400,1,8,0:0:0:0:
288,192,83550,1,0,0:0:0:0:
288,192,83700,1,8,0:0:0:0:
288,192,83850,1,0,0:0:0:0:
256,224,84000,1,12,0:0:0:0:
256,224,84300,1,4,0:0:0:0:
256,224,84600,1,4,0:0:0:0:
256,224,84900,1,12,0:0:0:0:
256,192,85200,1,0,0:0:0:0:
256,192,85275,1,0,0:0:0:0:
224,192,85350,1,8,0:0:0:0:
224,192,85500,1,0,0:0:0:0:
256,160,85650,1,8,0:0:0:0:
256,160,85800,1,0,0:0:0:0:
224,160,85875,1,0,0:0:0:0:
224,160,85950,1,8,0:0:0:0:
224,160,86025,1,8,0:0:0:0:
224,160,86100,1,0,0:0:0:0:
224,160,86250,1,8,0:0:0:0:
224,160,86550,1,8,0:0:0:0:
224,160,86700,1,0,0:0:0:0:
256,160,86775,1,8,0:0:0:0:
224,192,86850,1,0,0:0:0:0:
224,192,87000,1,8,0:0:0:0:
224,192,87150,1,0,0:0:0:0:
224,192,87225,1,0,0:0:0:0:
224,160,87300,1,8,0:0:0:0:
224,224,87600,1,8,0:0:0:0:
224,192,87750,1,0,0:0:0:0:
224,160,87900,1,8,0:0:0:0:
224,192,87975,1,0,0:0:0:0:
192,192,88050,1,0,0:0:0:0:
224,192,88125,1,0,0:0:0:0:
224,192,88200,1,8,0:0:0:0:
224,160,88350,1,8,0:0:0:0:
256,160,88500,1,0,0:0:0:0:
288,192,88650,1,0,0:0:0:0:
224,192,88800,1,8,0:0:0:0:
256,192,89100,1,0,0:0:0:0:
256,192,89250,1,0,0:0:0:0:
256,192,89400,1,8,0:0:0:0:
217,213,89550,1,8,0:0:0:0:
256,192,89700,1,0,0:0:0:0:
256,192,89850,1,8,0:0:0:0:
256,192,90000,1,4,0:0:0:0:
192,192,90300,1,0,0:0:0:0:
256,160,90450,1,0,0:0:0:0:
256,160,90525,1,0,0:0:0:0:
288,192,90600,1,8,0:0:0:0:
256,192,90750,1,0,0:0:0:0:
224,160,90900,1,0,0:0:0:0:
224,160,91050,1,8,0:0:0:0:
224,160,91200,1,0,0:0:0:0:
224,160,91500,1,8,0:0:0:0:
224,160,91650,1,0,0:0:0:0:
224,160,91725,1,8,0:0:0:0:
224,160,91800,1,0,0:0:0:0:
224,160,91950,1,8,0:0:0:0:
224,160,92100,1,0,0:0:0:0:
224,160,92250,1,0,0:0:0:0:
224,160,92400,1,12,0:0:0:0:
224,160,92700,1,8,0:0:0:0:
256,160,93000,1,4,0:0:0:0:
256,160,93300,1,0,0:0:0:0:
256,160,93450,1,12,0:0:0:0:
256,160,93750,1,0,0:0:0:0:
256,160,93825,1,0,0:0:0:0:
256,160,93900,1,8,0:0:0:0:
256,160,94050,1,0,0:0:0:0:
256,160,94200,1,8,0:0:0:0:
256,160,94300,1,8,0:0:0:0:
256,160,94400,1,0,0:0:0:0:
256,160,94500,1,0,0:0:0:0:
256,128,94600,1,0,0:0:0:0:
256,128,94700,1,0,0:0:0:0:
256,128,94800,1,12,0:0:0:0:
256,192,95100,1,0,0:0:0:0:
256,192,95400,1,8,0:0:0:0:
256,192,95700,1,0,0:0:0:0:
256,192,95850,1,0,0:0:0:0:
256,192,96000,1,8,0:0:0:0:
288,192,96150,1,8,0:0:0:0:
256,160,96300,1,0,0:0:0:0:
256,192,96450,1,0,0:0:0:0:
256,160,96600,1,8,0:0:0:0:
256,160,96900,1,0,0:0:0:0:
256,160,97200,1,8,0:0:0:0:
256,160,97500,1,0,0:0:0:0:
224,160,97650,1,0,0:0:0:0:
256,160,97800,1,8,0:0:0:0:
256,160,97950,1,0,0:0:0:0:
256,160,98100,1,8,0:0:0:0:
224,160,98250,1,8,0:0:0:0:
256,160,98400,1,0,0:0:0:0:
256,160,98700,1,0,0:0:0:0:
256,160,99000,1,8,0:0:0:0:
288,160,99300,1,0,0:0:0:0:
288,160,99600,1,12,0:0:0:0:
256,192,99900,1,0,0:0:0:0:
256,192,100050,1,0,0:0:0:0:
256,160,100200,1,8,0:0:0:0:
256,192,100500,1,8,0:0:0:0:
288,160,100575,1,8,0:0:0:0:
288,160,100650,1,0,0:0:0:0:
256,192,100800,1,8,0:0:0:0:
288,160,100950,1,0,0:0:0:0:
256,192,101100,1,8,0:0:0:0:
288,160,101250,1,0,0:0:0:0:
256,160,101325,1,0,0:0:0:0:
256,192,101400,1,8,0:0:0:0:
256,160,101475,1,0,0:0:0:0:
288,160,101550,1,0,0:0:0:0:
256,192,101700,1,8,0:0:0:0:
256,192,102000,1,8,0:0:0:0:
288,160,102075,1,8,0:0:0:0:
288,160,102150,1,0,0:0:0:0:
256,192,102300,1,8,0:0:0:0:
256,192,102450,1,0,0:0:0:0:
288,160,102600,1,8,0:0:0:0:
288,160,102675,1,8,0:0:0:0:
288,160,102750,1,0,0:0:0:0:
288,192,102825,1,0,0:0:0:0:
288,160,102900,1,8,0:0:0:0:
288,160,103200,1,0,0:0:0:0:
288,160,103275,1,0,0:0:0:0:
288,160,103350,1,8,0:0:0:0:
288,128,103500,1,0,0:0:0:0:
320,128,103650,1,8,0:0:0:0:
288,160,103800,1,0,0:0:0:0:
288,160,103875,1,0,0:0:0:0:
288,160,103950,1,8,0:0:0:0:
288,128,104025,1,8,0:0:0:0:
288,128,104100,1,0,0:0:0:0:
288,192,104250,1,0,0:0:0:0:
256,192,104400,1,12,0:0:0:0:
320,192,104700,1,0,0:0:0:0:
256,128,104850,1,0,0:0:0:0:
320,192,105000,1,8,0:0:0:0:
224,192,105150,1,8,0:0:0:0:
320,192,105300,1,0,0:0:0:0:
320,192,105600,1,8,0:0:0:0:
320,192,105750,1,0,0:0:0:0:
320,192,105900,1,8,0:0:0:0:
320,192,106050,1,0,0:0:0:0:
288,128,106350,1,0,0:0:0:0:
256,160,106425,1,0,0:0:0:0:
288,160,106500,1,8,0:0:0:0:
288,160,106650,1,0,0:0:0:0:
320,192,106800,1,8,0:0:0:0:
320,192,106950,1,8,0:0:0:0:
320,192,107100,1,0,0:0:0:0:
288,160,107400,1,8,0:0:0:0:
256,160,107550,1,8,0:0:0:0:
288,160,107700,1,0,0:0:0:0:
288,160,108000,1,0,0:0:0:0:
288,160,108150,1,8,0:0:0:0:
288,160,108300,1,0,0:0:0:0:
288,160,108450,1,8,0:0:0:0:
256,128,108750,1,0,0:0:0:0:
256,128,108825,1,0,0:0:0:0:
256,128,108900,1,8,0:0:0:0:
256,128,108975,1,8,0:0:0:0:
256,128,109050,1,0,0:0:0:0:
256,128,109200,1,8,0:0:0:0:
288,160,109350,1,8,0:0:0:0:
256,192,109500,1,0,0:0:0:0:
256,128,109650,1,0,0:0:0:0:
256,128,109800,1,8,0:0:0:0:
256,160,110100,1,0,0:0:0:0:
256,160,110400,1,8,0:0:0:0:
256,128,110550,1,8,0:0:0:0:
256,128,110700,1,8,0:0:0:0:
256,128,110850,1,0,0:0:0:0:
224,128,111150,1,0,0:0:0:0:
256,128,111300,1,8,0:0:0:0:
256,192,111600,1,8,0:0:0:0:
256,128,111675,1,8,0:0:0:0:
256,160,111750,1,8,0:0:0:0:
256,192,111900,1,0,0:0:0:0:
256,160,112050,1,0,0:0:0:0:
256,192,112200,1,8,0:0:0:0:
256,192,112275,1,8,0:0:0:0:
256,160,112350,1,0,0:0:0:0:
256,160,112500,1,8,0:0:0:0:
256,192,112650,1,8,0:0:0:0:
288,160,112800,1,0,0:0:0:0:
288,160,112950,1,0,0:0:0:0:
288,160,113100,1,8,0:0:0:0:
256,128,113175,1,0,0:0:0:0:
288,128,113250,1,8,0:0:0:0:
256,192,113400,1,0,0:0:0:0:
288,128,113550,1,8,0:0:0:0:
288,128,113700,1,0,0:0:0:0:
256,192,114000,1,0,0:0:0:0:
256,192,114075,1,0,0:0:0:0:
256,192,114150,1,0,0:0:0:0:
256,160,114300,1,8,0:0:0:0:
256,160,114450,1,0,0:0:0:0:
256,160,114600,1,8,0:0:0:0:
256,192,114675,1,8,0:0:0:0:
256,192,114750,1,0,0:0:0:0:
256,192,114900,1,8,0:0:0:0:
256,192,115050,1,0,0:0:0:0:
256,160,115350,1,8,0:0:0:0:
256,160,115650,1,0,0:0:0:0:
256,160,115800,1,8,0:0:0:0:
256,160,115875,1,8,0:0:0:0:
256,160,115950,1,0,0:0:0:0:
256,128,116100,1,8,0:0:0:0:
256,224,116250,1,0,0:0:0:0:
256,160,116400,1,0,0:0:0:0:
256,160,116475,1,0,0:0:0:0:
256,160,116550,1,8,0:0:0:0:
256,160,116700,1,0,0:0:0:0:
256,160,116850,1,8,0:0:0:0:
256,128,117000,1,0,0:0:0:0:
256,128,117300,1,8,0:0:0:0:
256,128,117450,1,0,0:0:0:0:
256,192,117600,1,12,0:0:0:0:
256,160,117750,1,4,0:0:0:0:
256,160,117900,1,4,0:0:0:0:
256,160,118050,1,4,0:0:0:0:
256,192,118350,1,12,0:0:0:0:
256,192,118500,1,12,0:0:0:0:
256,192,118800,1,0,0:0:0:0:
256,192,118875,1,0,0:0:0:0:
256,192,118950,1,0,0:0:0:0:
256,160,119100,1,8,0:0:0:0:
256,160,119250,1,0,0:0:0:0:
256,160,119400,1,8,0:0:0:0:
256,192,119475,1,8,0:0:0:0:
256,192,119550,1,0,0:0:0:0:
256,192,119700,1,8,0:0:0:0:
256,192,119850,1,0,0:0:0:0:
256,160,120150,1,8,0:0:0:0:
256,160,120450,1,0,0:0:0:0:
256,160,120600,1,8,0:0:0:0:
256,160,120675,1,8,0:0:0:0:
256,160,120750,1,0,0:0:0:0:
256,128,120900,1,8,0:0:0:0:
256,160,121200,1,0,0:0:0:0:
256,160,121350,1,8,0:0:0:0:
256,160,121500,1,0,0:0:0:0:
256,160,121650,1,8,0:0:0:0:
256,192,121950,1,0,0:0:0:0:
256,192,122100,1,0,0:0:0:0:
256,192,122250,1,8,0:0:0:0:
256,192,122550,1,12,0:0:0:0:
256,192,122700,1,12,0:0:0:0:
224,192,122850,1,4,0:0:0:0:
224,192,123000,1,4,0:0:0:0:
256,192,123300,1,8,0:0:0:0:
256,192,123450,1,0,0:0:0:0:
256,160,123525,1,0,0:0:0:0:
256,192,123600,1,8,0:0:0:0:
256,192,123900,1,0,0:0:0:0:
256,160,123975,1,0,0:0:0:0:
256,192,124050,1,8,0:0:0:0:
256,192,124200,1,0,0:0:0:0:
224,160,124350,1,0,0:0:0:0:
256,192,124500,1,8,0:0:0:0:
288,192,124575,1,0,0:0:0:0:
224,160,124650,1,8,0:0:0:0:
256,128,124800,1,0,0:0:0:0:
256,192,125100,1,8,0:0:0:0:
256,192,125175,1,8,0:0:0:0:
256,160,125250,1,0,0:0:0:0:
256,160,125400,1,8,0:0:0:0:
256,128,125550,1,0,0:0:0:0:
256,128,125700,1,0,0:0:0:0:
288,192,125775,1,0,0:0:0:0:
256,128,125850,1,8,0:0:0:0:
320,128,126000,1,0,0:0:0:0:
256,160,126300,1,8,0:0:0:0:
288,160,126375,1,0,0:0:0:0:
256,160,126450,1,8,0:0:0:0:
256,192,126600,1,0,0:0:0:0:
256,192,126750,1,0,0:0:0:0:
256,192,126900,1,8,0:0:0:0:
256,192,126975,1,8,0:0:0:0:
256,192,127050,1,0,0:0:0:0:
256,192,127200,1,8,0:0:0:0:
288,192,127500,1,8,0:0:0:0:
256,192,127650,1,0,0:0:0:0:
256,192,127800,1,0,0:0:0:0:
288,192,127875,1,0,0:0:0:0:
256,192,127950,1,0,0:0:0:0:
256,192,128100,1,8,0:0:0:0:
288,160,128250,1,8,0:0:0:0:
288,160,128400,1,0,0:0:0:0:
288,192,128700,1,8,0:0:0:0:
288,192,128850,1,0,0:0:0:0:
256,192,129000,1,8,0:0:0:0:
256,192,129075,1,8,0:0:0:0:
256,192,129150,1,0,0:0:0:0:
256,192,129300,1,8,0:0:0:0:
256,192,129450,1,0,0:0:0:0:
256,192,129600,1,8,0:0:0:0:
256,96,129675,1,0,0:0:0:0:
256,192,129750,1,0,0:0:0:0:
256,160,129900,1,8,0:0:0:0:
256,160,130200,1,0,0:0:0:0:
256,160,130350,1,0,0:0:0:0:
256,160,130500,1,8,0:0:0:0:
256,160,130575,1,8,0:0:0:0:
256,160,130650,1,0,0:0:0:0:
256,160,130800,1,12,0:0:0:0:
256,192,131100,1,0,0:0:0:0:
256,192,131250,1,0,0:0:0:0:
256,192,131400,1,8,0:0:0:0:
288,160,131550,1,0,0:0:0:0:
256,160,131625,1,0,0:0:0:0:
288,160,131700,1,8,0:0:0:0:
320,160,131850,1,8,0:0:0:0:
256,160,132000,1,4,0:0:0:0:
256,160,132150,1,12,0:0:0:0:
256,160,132300,1,12,0:0:0:0:
256,128,132450,1,4,0:0:0:0:
224,128,132750,1,4,0:0:0:0:
224,128,132900,1,4,0:0:0:0:
256,192,133200,1,8,0:0:0:0:
256,192,133500,1,8,0:0:0:0:
256,192,133575,1,8,0:0:0:0:
256,192,133650,1,0,0:0:0:0:
256,192,133800,1,8,0:0:0:0:
256,192,133950,1,0,0:0:0:0:
256,192,134100,1,0,0:0:0:0:
256,192,134175,1,0,0:0:0:0:
256,192,134250,1,8,0:0:0:0:
256,192,134400,1,0,0:0:0:0:
256,192,134550,1,8,0:0:0:0:
256,160,134700,1,0,0:0:0:0:
288,128,134775,1,8,0:0:0:0:
256,160,134850,1,0,0:0:0:0:
256,160,135000,1,8,0:0:0:0:
256,160,135150,1,8,0:0:0:0:
288,160,135300,1,0,0:0:0:0:
288,160,135375,1,0,0:0:0:0:
256,192,135450,1,8,0:0:0:0:
256,128,135600,1,0,0:0:0:0:
256,160,135900,1,0,0:0:0:0:
256,160,136050,1,8,0:0:0:0:
256,128,136200,1,0,0:0:0:0:
256,128,136350,1,8,0:0:0:0:
256,128,136500,1,0,0:0:0:0:
224,160,136575,1,0,0:0:0:0:
256,128,136650,1,8,0:0:0:0:
256,128,136800,1,0,0:0:0:0:
224,160,136950,1,8,0:0:0:0:
288,128,137100,1,0,0:0:0:0:
256,128,137250,1,8,0:0:0:0:
192,160,137325,1,8,0:0:0:0:
256,128,137400,1,0,0:0:0:0:
256,160,137550,1,8,0:0:0:0:
192,128,137700,1,0,0:0:0:0:
192,128,137775,1,0,0:0:0:0:
192,128,137850,1,0,0:0:0:0:
288,160,138000,1,12,0:0:0:0:
256,192,138300,1,0,0:0:0:0:
256,192,138600,1,8,0:0:0:0:
256,192,138675,1,8,0:0:0:0:
256,192,138750,1,0,0:0:0:0:
256,192,138900,1,8,0:0:0:0:
256,192,139050,1,0,0:0:0:0:
256,192,139200,1,8,0:0:0:0:
256,96,139275,1,0,0:0:0:0:
256,192,139350,1,0,0:0:0:0:
256,160,139500,1,8,0:0:0:0:
256,160,139650,1,8,0:0:0:0:
256,160,139800,1,0,0:0:0:0:
256,192,139875,1,0,0:0:0:0:
256,160,139950,1,0,0:0:0:0:
256,160,140100,1,8,0:0:0:0:
256,192,140400,1,0,0:0:0:0:
256,192,140700,1,0,0:0:0:0:
256,160,141000,1,8,0:0:0:0:
256,192,141300,1,8,0:0:0:0:
256,160,141600,1,4,0:0:0:0:
256,160,141900,1,4,0:0:0:0:
256,160,142200,1,4,0:0:0:0:
256,160,142500,1,4,0:0:0:0:
288,160,142800,1,12,0:0:0:0:
272,181,143100,1,0,0:0:0:0:
271,180,143250,1,0,0:0:0:0:
256,192,143400,1,8,0:0:0:0:
276,185,143475,1,8,0:0:0:0:
283,175,143550,1,0,0:0:0:0:
256,160,143700,1,8,0:0:0:0:
272,169,143850,1,8,0:0:0:0:
256,192,144000,1,0,0:0:0:0:
272,181,144075,1,0,0:0:0:0:
272,169,144150,1,8,0:0:0:0:
256,160,144300,1,0,0:0:0:0:
272,169,144450,1,0,0:0:0:0:
256,160,144600,1,8,0:0:0:0:
278,185,144675,1,8,0:0:0:0:
272,169,144750,1,8,0:0:0:0:
256,128,144900,1,0,0:0:0:0:
256,128,145200,1,12,0:0:0:0:
256,128,145500,1,8,0:0:0:0:
256,192,145650,1,0,0:0:0:0:
256,128,145800,1,8,0:0:0:0:
256,128,145875,1,0,0:0:0:0:
292,162,145950,1,8,0:0:0:0:
256,128,146100,1,0,0:0:0:0:
256,179,146250,1,0,0:0:0:0:
256,128,146400,1,8,0:0:0:0:
248,145,146475,1,8,0:0:0:0:
256,160,146550,1,8,0:0:0:0:
256,128,146700,1,0,0:0:0:0:
298,131,146850,1,8,0:0:0:0:
256,128,147000,1,0,0:0:0:0:
256,179,147075,1,0,0:0:0:0:
256,160,147150,1,8,0:0:0:0:
256,128,147300,1,0,0:0:0:0:
224,160,147600,1,4,0:0:0:0:
224,160,147750,1,4,0:0:0:0:
256,160,148200,1,12,0:0:0:0:
256,160,148350,1,12,0:0:0:0:
256,160,148800,1,4,0:0:0:0:
256,160,148950,1,4,0:0:0:0:
224,160,149400,1,12,0:0:0:0:
224,160,149550,1,12,0:0:0:0:
256,192,150000,1,0,0:0:0:0:
256,192,150075,1,0,0:0:0:0:
256,192,150150,1,8,0:0:0:0:
256,160,150225,1,8,0:0:0:0:
256,192,150300,1,0,0:0:0:0:
256,192,150450,1,8,0:0:0:0:
256,192,150600,1,0,0:0:0:0:
256,192,150675,1,0,0:0:0:0:
256,192,150750,1,8,0:0:0:0:
256,160,150900,1,8,0:0:0:0:
256,160,150975,1,8,0:0:0:0:
256,160,151050,1,0,0:0:0:0:
288,192,151200,1,12,0:0:0:0:
256,192,151400,1,4,0:0:0:0:
256,192,151600,1,4,0:0:0:0:
256,192,151800,1,12,0:0:0:0:
256,192,152400,1,8,0:0:0:0:
256,192,152475,1,8,0:0:0:0:
256,192,152550,1,0,0:0:0:0:
256,160,152625,1,0,0:0:0:0:
256,192,152700,1,0,0:0:0:0:
256,160,152850,1,8,0:0:0:0:
256,192,153000,1,0,0:0:0:0:
256,192,153075,1,0,0:0:0:0:
256,192,153150,1,8,0:0:0:0:
256,192,153300,1,0,0:0:0:0:
185,164,153450,1,8,0:0:0:0:
256,192,153600,1,0,0:0:0:0:
256,160,153900,1,8,0:0:0:0:
256,192,153975,1,8,0:0:0:0:
224,160,154050,1,0,0:0:0:0:
224,160,154200,1,8,0:0:0:0:
224,160,154350,1,0,0:0:0:0:
224,160,154500,1,8,0:0:0:0:
288,160,154800,1,8,0:0:0:0:
256,160,154875,1,0,0:0:0:0:
256,160,154950,1,8,0:0:0:0:
224,160,155100,1,8,0:0:0:0:
224,160,155250,1,0,0:0:0:0:
224,160,155400,1,8,0:0:0:0:
224,128,155475,1,0,0:0:0:0:
224,128,155550,1,0,0:0:0:0:
256,192,155625,1,0,0:0:0:0:
224,160,155700,1,8,0:0:0:0:
192,128,155850,1,0,0:0:0:0:
224,160,156000,1,8,0:0:0:0:
288,160,156075,1,8,0:0:0:0:
256,160,156150,1,8,0:0:0:0:
288,160,156300,1,0,0:0:0:0:
288,192,156600,1,8,0:0:0:0:
288,160,156675,1,8,0:0:0:0:
224,160,156750,1,0,0:0:0:0:
224,160,156900,1,8,0:0:0:0:
288,192,157050,1,8,0:0:0:0:
256,160,157200,1,4,0:0:0:0:
224,160,157500,1,8,0:0:0:0:
256,160,157650,1,0,0:0:0:0:
105,172,157725,1,8,0:0:0:0:
224,160,157800,1,8,0:0:0:0:
288,160,157950,1,0,0:0:0:0:
224,160,158100,1,8,0:0:0:0:
256,160,158250,1,8,0:0:0:0:
256,160,158400,1,0,0:0:0:0:
288,160,158700,1,0,0:0:0:0:
288,192,158775,1,8,0:0:0:0:
256,160,158850,1,0,0:0:0:0:
320,192,159000,1,8,0:0:0:0:
128,192,159150,1,8,0:0:0:0:
320,192,159300,1,0,0:0:0:0:
256,160,159450,1,0,0:0:0:0:
320,192,159600,1,12,0:0:0:0:
224,192,159900,1,0,0:0:0:0:
224,192,160050,1,8,0:0:0:0:
288,160,160125,1,8,0:0:0:0:
288,160,160200,1,0,0:0:0:0:
224,192,160350,1,8,0:0:0:0:
224,192,160500,1,0,0:0:0:0:
224,192,160650,1,0,0:0:0:0:
224,192,160800,1,12,0:0:0:0:
224,192,161100,1,4,0:0:0:0:
224,192,161400,1,12,0:0:0:0:
224,192,161700,1,4,0:0:0:0:
224,192,162000,1,8,0:0:0:0:
256,192,162075,1,8,0:0:0:0:
256,192,162150,1,0,0:0:0:0:
224,160,162225,1,0,0:0:0:0:
224,192,162300,1,0,0:0:0:0:
224,192,162450,1,8,0:0:0:0:
256,192,162600,1,0,0:0:0:0:
256,192,162675,1,0,0:0:0:0:
256,192,162750,1,8,0:0:0:0:
256,192,162900,1,0,0:0:0:0:
224,192,163050,1,0,0:0:0:0:
288,192,163200,1,8,0:0:0:0:
224,192,163500,1,0,0:0:0:0:
256,160,163575,1,8,0:0:0:0:
256,192,163650,1,0,0:0:0:0:
224,192,163800,1,8,0:0:0:0:
256,160,163950,1,0,0:0:0:0:
224,192,164100,1,8,0:0:0:0:
256,192,164400,1,0,0:0:0:0:
256,224,164475,1,0,0:0:0:0:
256,192,164550,1,0,0:0:0:0:
224,160,164700,1,8,0:0:0:0:
256,192,164850,1,8,0:0:0:0:
224,192,165000,1,0,0:0:0:0:
288,224,165300,1,8,0:0:0:0:
78,163,165450,1,0,0:0:0:0:
288,224,165600,1,8,0:0:0:0:
256,192,165675,1,8,0:0:0:0:
256,192,165750,1,0,0:0:0:0:
256,160,165900,1,8,0:0:0:0:
288,160,166200,1,8,0:0:0:0:
278,168,166275,1,8,0:0:0:0:
288,160,166350,1,8,0:0:0:0:
288,160,166500,1,0,0:0:0:0:
288,192,166650,1,8,0:0:0:0:
288,192,166800,1,4,0:0:0:0:
288,192,167100,1,8,0:0:0:0:
288,192,167250,1,0,0:0:0:0:
264,147,167325,1,0,0:0:0:0:
288,192,167400,1,8,0:0:0:0:
269,179,167550,1,0,0:0:0:0:
288,192,167700,1,8,0:0:0:0:
288,192,167850,1,8,0:0:0:0:
256,192,168000,1,0,0:0:0:0:
320,224,168300,1,0,0:0:0:0:
218,179,168375,1,0,0:0:0:0:
205,173,168450,1,0,0:0:0:0:
320,224,168600,1,8,0:0:0:0:
288,192,168750,1,0,0:0:0:0:
320,224,168900,1,8,0:0:0:0:
288,192,169050,1,8,0:0:0:0:
320,224,169200,1,4,0:0:0:0:
288,192,169500,1,8,0:0:0:0:
288,192,169650,1,0,0:0:0:0:
288,192,169725,1,0,0:0:0:0:
288,192,169800,1,8,0:0:0:0:
288,192,169950,1,0,0:0:0:0:
288,192,170100,1,8,0:0:0:0:
288,192,170250,1,0,0:0:0:0:
256,224,170400,1,12,0:0:0:0:
256,224,170700,1,4,0:0:0:0:
256,224,171000,1,4,0:0:0:0:
256,224,171300,1,12,0:0:0:0:
256,192,171600,1,0,0:0:0:0:
256,192,171675,1,0,0:0:0:0:
224,192,171750,1,8,0:0:0:0:
224,192,171900,1,0,0:0:0:0:
256,160,172050,1,8,0:0:0:0:
256,160,172200,1,0,0:0:0:0:
224,160,172275,1,0,0:0:0:0:
224,160,172350,1,8,0:0:0:0:
224,160,172425,1,8,0:0:0:0:
224,160,172500,1,0,0:0:0:0:
224,160,172650,1,8,0:0:0:0:
224,160,172950,1,8,0:0:0:0:
224,160,173100,1,0,0:0:0:0:
256,160,173175,1,8,0:0:0:0:
224,192,173250,1,0,0:0:0:0:
224,192,173400,1,8,0:0:0:0:
224,192,173550,1,0,0:0:0:0:
224,192,173625,1,0,0:0:0:0:
224,160,173700,1,8,0:0:0:0:
256,160,173775,1,8,0:0:0:0:
256,160,173850,1,0,0:0:0:0:
224,224,174000,1,8,0:0:0:0:
224,192,174150,1,0,0:0:0:0:
224,160,174300,1,8,0:0:0:0:
192,192,174450,1,0,0:0:0:0:
224,192,174525,1,0,0:0:0:0:
224,192,174600,1,8,0:0:0:0:
224,160,174750,1,8,0:0:0:0:
256,160,174900,1,0,0:0:0:0:
288,192,175050,1,0,0:0:0:0:
224,192,175200,1,8,0:0:0:0:
256,192,175500,1,0,0:0:0:0:
256,192,175650,1,0,0:0:0:0:
256,192,175800,1,8,0:0:0:0:
288,160,175950,1,8,0:0:0:0:
256,192,176100,1,0,0:0:0:0:
256,192,176250,1,8,0:0:0:0:
256,192,176400,1,4,0:0:0:0:
192,192,176700,1,0,0:0:0:0:
256,192,176775,1,0,0:0:0:0:
256,160,176850,1,0,0:0:0:0:
256,160,176925,1,0,0:0:0:0:
288,192,177000,1,8,0:0:0:0:
256,192,177150,1,0,0:0:0:0:
224,160,177300,1,0,0:0:0:0:
224,160,177450,1,8,0:0:0:0:
224,160,177600,1,0,0:0:0:0:
224,160,177900,1,8,0:0:0:0:
224,160,178050,1,0,0:0:0:0:
224,160,178125,1,8,0:0:0:0:
224,160,178200,1,0,0:0:0:0:
224,160,178350,1,8,0:0:0:0:
224,160,178500,1,8,0:0:0:0:
224,160,178650,1,0,0:0:0:0:
224,160,178800,1,12,0:0:0:0:
224,160,179100,1,8,0:0:0:0:
256,160,179400,1,4,0:0:0:0:
256,160,179700,1,0,0:0:0:0:
256,160,179850,1,12,0:0:0:0:
256,160,180150,1,0,0:0:0:0:
256,160,180225,1,0,0:0:0:0:
256,160,180300,1,8,0:0:0:0:
256,160,180450,1,0,0:0:0:0:
256,160,180600,1,8,0:0:0:0:
256,160,180700,1,8,0:0:0:0:
256,160,180800,1,0,0:0:0:0:
256,128,180900,1,0,0:0:0:0:
256,160,181000,1,0,0:0:0:0:
256,128,181100,1,0,0:0:0:0:
256,128,181200,1,12,0:0:0:0:
256,192,181500,1,0,0:0:0:0:
256,192,181800,1,8,0:0:0:0:
256,192,182100,1,0,0:0:0:0:
256,192,182250,1,8,0:0:0:0:
256,192,182400,1,8,0:0:0:0:
288,192,182550,1,8,0:0:0:0:
256,160,182700,1,0,0:0:0:0:
256,192,182850,1,0,0:0:0:0:
256,160,183000,1,8,0:0:0:0:
256,160,183300,1,0,0:0:0:0:
256,160,183600,1,8,0:0:0:0:
256,160,183900,1,8,0:0:0:0:
224,160,184050,1,0,0:0:0:0:
256,160,184200,1,8,0:0:0:0:
256,160,184350,1,8,0:0:0:0:
256,160,184500,1,0,0:0:0:0:
224,160,184650,1,8,0:0:0:0:
256,160,184800,1,0,0:0:0:0:
256,160,185100,1,0,0:0:0:0:
256,160,185400,1,8,0:0:0:0:
288,160,185700,1,0,0:0:0:0:
288,160,186000,1,12,0:0:0:0:
256,192,186300,1,0,0:0:0:0:
256,192,186450,1,0,0:0:0:0:
256,160,186600,1,8,0:0:0:0:
256,192,186900,1,8,0:0:0:0:
288,160,186975,1,8,0:0:0:0:
288,160,187050,1,0,0:0:0:0:
256,192,187200,1,8,0:0:0:0:
288,160,187350,1,0,0:0:0:0:
256,192,187500,1,8,0:0:0:0:
288,160,187650,1,0,0:0:0:0:
256,160,187725,1,0,0:0:0:0:
256,192,187800,1,8,0:0:0:0:
256,160,187875,1,0,0:0:0:0:
288,160,187950,1,0,0:0:0:0:
256,192,188100,1,8,0:0:0:0:
256,192,188400,1,8,0:0:0:0:
288,160,188475,1,8,0:0:0:0:
288,160,188550,1,0,0:0:0:0:
256,192,188700,1,8,0:0:0:0:
256,192,188850,1,0,0:0:0:0:
288,160,189000,1,8,0:0:0:0:
288,160,189075,1,8,0:0:0:0:
288,160,189150,1,0,0:0:0:0:
288,192,189225,1,0,0:0:0:0:
288,160,189300,1,8,0:0:0:0:
288,160,189600,1,0,0:0:0:0:
288,160,189675,1,0,0:0:0:0:
288,160,189750,1,8,0:0:0:0:
288,128,189900,1,0,0:0:0:0:
320,128,190050,1,8,0:0:0:0:
288,160,190200,1,0,0:0:0:0:
288,160,190275,1,0,0:0:0:0:
288,160,190350,1,8,0:0:0:0:
288,128,190425,1,8,0:0:0:0:
288,128,190500,1,0,0:0:0:0:
288,192,190650,1,0,0:0:0:0:
256,192,190800,1,12,0:0:0:0:
320,192,191100,1,0,0:0:0:0:
320,192,191400,1,0,0:0:0:0:
320,192,191700,1,0,0:0:0:0:
288,192,192000,1,8,0:0:0:0:
288,192,192300,1,0,0:0:0:0:
256,192,192600,1,0,0:0:0:0:
256,192,192900,1,0,0:0:0:0:
256,192,193200,1,8,0:0:0:0:
256,192,193500,1,0,0:0:0:0:
256,192,193800,1,0,0:0:0:0:
256,192,194100,1,0,0:0:0:0:
288,160,194400,1,12,0:0:0:0:
288,160,194550,1,12,0:0:0:0:
288,160,194700,1,4,0:0:0:0:
288,160,194850,1,12,0:0:0:0:
256,128,195150,1,4,0:0:0:0:
256,128,195450,1,12,0:0:0:0:
288,160,195750,1,8,0:0:0:0:
256,160,195825,1,8,0:0:0:0:
256,192,195900,1,0,0:0:0:0:
256,128,196050,1,0,0:0:0:0:
256,128,196200,1,8,0:0:0:0:
288,192,196350,1,8,0:0:0:0:
256,160,196500,1,0,0:0:0:0:
288,160,196575,1,0,0:0:0:0:
288,192,196650,1,0,0:0:0:0:
256,160,196800,1,8,0:0:0:0:
256,128,196950,1,8,0:0:0:0:
256,128,197100,1,8,0:0:0:0:
256,128,197250,1,0,0:0:0:0:
224,128,197550,1,0,0:0:0:0:
256,128,197700,1,8,0:0:0:0:
224,128,197775,1,0,0:0:0:0:
288,160,197850,1,0,0:0:0:0:
288,160,197925,1,0,0:0:0:0:
256,192,198000,1,8,0:0:0:0:
256,160,198150,1,8,0:0:0:0:
256,192,198300,1,0,0:0:0:0:
256,160,198450,1,8,0:0:0:0:
256,192,198600,1,0,0:0:0:0:
256,160,198750,1,0,0:0:0:0:
256,160,198900,1,0,0:0:0:0:
288,160,199050,1,8,0:0:0:0:
256,160,199125,1,8,0:0:0:0:
288,160,199200,1,0,0:0:0:0:
288,160,199350,1,0,0:0:0:0:
288,160,199500,1,8,0:0:0:0:
288,128,199650,1,8,0:0:0:0:
288,160,199800,1,0,0:0:0:0:
288,128,199950,1,8,0:0:0:0:
288,128,200100,1,0,0:0:0:0:
288,128,200250,1,8,0:0:0:0:
288,128,200325,1,8,0:0:0:0:
288,128,200400,1,8,0:0:0:0:
256,128,200550,1,8,0:0:0:0:
256,128,200700,1,0,0:0:0:0:
256,128,201000,1,8,0:0:0:0:
256,128,201300,1,0,0:0:0:0:
277,150,201450,1,8,0:0:0:0:
256,128,201750,1,8,0:0:0:0:
256,128,201900,1,0,0:0:0:0:
256,128,202200,1,8,0:0:0:0:
266,167,202350,1,0,0:0:0:0:
256,128,202500,1,0,0:0:0:0:
256,128,202650,1,12,0:0:0:0:
256,128,202950,1,12,0:0:0:0:
256,128,203100,1,4,0:0:0:0:
288,192,203400,1,0,0:0:0:0:
288,192,203700,1,0,0:0:0:0:
296,131,203850,1,8,0:0:0:0:
288,192,204000,1,8,0:0:0:0:
288,192,204150,1,4,0:0:0:0:
288,192,204450,1,12,0:0:0:0:
288,192,204750,1,12,0:0:0:0:
288,192,205050,1,4,0:0:0:0:
288,192,205350,1,0,0:0:0:0:
288,192,205500,1,8,0:0:0:0:
320,256,205800,1,8,0:0:0:0:
288,192,205875,1,0,0:0:0:0:
320,192,205950,1,8,0:0:0:0:
288,192,206100,1,8,0:0:0:0:
320,192,206250,1,0,0:0:0:0:
288,192,206400,1,8,0:0:0:0:
256,160,206475,1,8,0:0:0:0:
256,160,206550,1,0,0:0:0:0:
320,192,206700,1,0,0:0:0:0:
320,192,206850,1,8,0:0:0:0:
288,192,207150,1,0,0:0:0:0:
288,192,207300,1,8,0:0:0:0:
288,192,207600,1,8,0:0:0:0:
288,192,207700,1,8,0:0:0:0:
256,160,207800,1,0,0:0:0:0:
288,192,207900,1,0,0:0:0:0:
288,160,208100,1,8,0:0:0:0:
256,160,208350,1,0,0:0:0:0:
192,192,208425,1,0,0:0:0:0:
256,160,208500,1,8,0:0:0:0:
256,160,208650,1,0,0:0:0:0:
256,160,208800,1,8,0:0:0:0:
256,160,208875,1,8,0:0:0:0:
256,160,208950,1,0,0:0:0:0:
256,160,209025,1,0,0:0:0:0:
256,160,209100,1,8,0:0:0:0:
256,160,209250,1,0,0:0:0:0:
256,160,209400,1,8,0:0:0:0:
256,160,209475,1,8,0:0:0:0:
256,160,209550,1,0,0:0:0:0:
256,160,209700,1,8,0:0:0:0:
256,160,209850,1,4,0:0:0:0:
288,192,210150,1,8,0:0:0:0:
288,192,210225,1,8,0:0:0:0:
288,192,210300,1,0,0:0:0:0:
288,192,210450,1,0,0:0:0:0:
288,192,210600,1,8,0:0:0:0:
288,192,210900,1,0,0:0:0:0:
288,192,211200,1,8,0:0:0:0:
288,192,211350,1,0,0:0:0:0:
256,160,211425,1,0,0:0:0:0:
288,192,211500,1,8,0:0:0:0:
288,192,211650,1,0,0:0:0:0:
288,192,211800,1,8,0:0:0:0:
288,192,211875,1,8,0:0:0:0:
288,192,211950,1,8,0:0:0:0:
288,192,212025,1,8,0:0:0:0:
288,192,212100,1,0,0:0:0:0:
288,192,212250,1,8,0:0:0:0:
288,160,212400,1,4,0:0:0:0:
288,192,212550,1,8,0:0:0:0:
288,192,212700,1,8,0:0:0:0:
288,192,212850,1,4,0:0:0:0:
288,160,213000,1,8,0:0:0:0:
288,160,213150,1,8,0:0:0:0:
288,192,213300,1,4,0:0:0:0:
288,192,213750,1,12,0:0:0:0:
288,192,213900,1,0,0:0:0:0:
288,192,214050,1,0,0:0:0:0:
320,160,214200,1,12,0:0:0:0:
256,192,214800,1,0,0:0:0:0:
256,192,214875,1,0,0:0:0:0:
288,192,214950,1,0,0:0:0:0:
256,192,215100,1,8,0:0:0:0:
256,192,215250,1,0,0:0:0:0:
288,192,215325,1,0,0:0:0:0:
256,192,215400,1,0,0:0:0:0:
288,192,215550,1,8,0:0:0:0:
288,192,215700,1,8,0:0:0:0:
288,192,215850,1,0,0:0:0:0:
288,192,216000,1,8,0:0:0:0:
256,192,216075,1,8,0:0:0:0:
320,192,216150,1,0,0:0:0:0:
288,192,216300,1,0,0:0:0:0:
352,192,216375,1,0,0:0:0:0:
288,192,216450,1,8,0:0:0:0:
256,192,216600,1,0,0:0:0:0:
288,160,216675,1,8,0:0:0:0:
288,192,216750,1,0,0:0:0:0:
288,192,216900,1,0,0:0:0:0:
288,192,216975,1,0,0:0:0:0:
288,192,217050,1,0,0:0:0:0:
288,192,217125,1,0,0:0:0:0:
256,192,217200,1,8,0:0:0:0:
256,192,217500,1,0,0:0:0:0:
256,160,217650,1,8,0:0:0:0:
256,192,217800,1,0,0:0:0:0:
256,192,217875,1,0,0:0:0:0:
256,192,217950,1,8,0:0:0:0:
256,192,218100,1,0,0:0:0:0:
288,160,218250,1,8,0:0:0:0:
288,160,218325,1,8,0:0:0:0:
256,192,218400,1,0,0:0:0:0:
256,160,218550,1,0,0:0:0:0:
256,160,218700,1,8,0:0:0:0:
256,192,218775,1,8,0:0:0:0:
224,160,218850,1,0,0:0:0:0:
224,160,218925,1,0,0:0:0:0:
224,160,219000,1,8,0:0:0:0:
224,160,219150,1,0,0:0:0:0:
224,160,219300,1,8,0:0:0:0:
288,160,219600,1,0,0:0:0:0:
256,160,219675,1,0,0:0:0:0:
256,160,219750,1,0,0:0:0:0:
224,160,219900,1,8,0:0:0:0:
224,160,220050,1,0,0:0:0:0:
224,160,220200,1,8,0:0:0:0:
224,128,220275,1,8,0:0:0:0:
224,128,220350,1,0,0:0:0:0:
256,192,220425,1,0,0:0:0:0:
224,160,220500,1,8,0:0:0:0:
192,128,220650,1,0,0:0:0:0:
224,160,220800,1,8,0:0:0:0:
288,160,220875,1,8,0:0:0:0:
256,160,220950,1,0,0:0:0:0:
288,192,221025,1,8,0:0:0:0:
288,160,221100,1,0,0:0:0:0:
288,160,221250,1,8,0:0:0:0:
288,192,221400,1,0,0:0:0:0:
288,160,221475,1,0,0:0:0:0:
224,160,221550,1,0,0:0:0:0:
224,160,221625,1,0,0:0:0:0:
224,160,221700,1,8,0:0:0:0:
288,192,221850,1,8,0:0:0:0:
256,160,222000,1,4,0:0:0:0:
224,160,222300,1,0,0:0:0:0:
256,160,222450,1,8,0:0:0:0:
256,192,222525,1,8,0:0:0:0:
224,160,222600,1,0,0:0:0:0:
288,160,222750,1,8,0:0:0:0:
224,160,222900,1,0,0:0:0:0:
320,224,222975,1,0,0:0:0:0:
256,160,223050,1,8,0:0:0:0:
256,160,223200,1,0,0:0:0:0:
288,160,223500,1,0,0:0:0:0:
256,160,223650,1,0,0:0:0:0:
320,192,223800,1,8,0:0:0:0:
288,192,223875,1,8,0:0:0:0:
128,192,223950,1,0,0:0:0:0:
320,192,224100,1,8,0:0:0:0:
256,160,224250,1,0,0:0:0:0:
320,192,224400,1,12,0:0:0:0:
160,160,224700,1,0,0:0:0:0:
224,192,224850,1,8,0:0:0:0:
256,192,224925,1,8,0:0:0:0:
288,160,225000,1,0,0:0:0:0:
256,160,225075,1,0,0:0:0:0:
224,192,225150,1,8,0:0:0:0:
224,192,225300,1,0,0:0:0:0:
224,192,225450,1,0,0:0:0:0:
224,192,225600,1,12,0:0:0:0:
224,192,225900,1,4,0:0:0:0:
224,192,226200,1,12,0:0:0:0:
224,192,226500,1,4,0:0:0:0:
224,192,226800,1,8,0:0:0:0:
256,192,226875,1,8,0:0:0:0:
256,192,226950,1,0,0:0:0:0:
224,160,227025,1,0,0:0:0:0:
224,192,227100,1,0,0:0:0:0:
224,192,227250,1,8,0:0:0:0:
256,192,227400,1,0,0:0:0:0:
256,192,227475,1,0,0:0:0:0:
256,192,227550,1,8,0:0:0:0:
256,192,227700,1,0,0:0:0:0:
256,160,227850,1,8,0:0:0:0:
320,192,227925,1,8,0:0:0:0:
288,192,228000,1,8,0:0:0:0:
224,192,228150,1,0,0:0:0:0:
224,192,228300,1,8,0:0:0:0:
256,192,228450,1,0,0:0:0:0:
256,160,228525,1,0,0:0:0:0:
224,192,228600,1,8,0:0:0:0:
256,160,228750,1,0,0:0:0:0:
224,192,228900,1,8,0:0:0:0:
256,192,229200,1,0,0:0:0:0:
256,224,229275,1,0,0:0:0:0:
256,192,229350,1,0,0:0:0:0:
224,192,229425,1,0,0:0:0:0:
224,160,229500,1,8,0:0:0:0:
256,192,229650,1,8,0:0:0:0:
224,192,229800,1,0,0:0:0:0:
256,192,229950,1,0,0:0:0:0:
256,160,230025,1,0,0:0:0:0:
288,224,230100,1,8,0:0:0:0:
257,163,230250,1,0,0:0:0:0:
288,224,230400,1,8,0:0:0:0:
256,192,230475,1,8,0:0:0:0:
256,192,230550,1,0,0:0:0:0:
256,160,230625,1,0,0:0:0:0:
256,160,230700,1,8,0:0:0:0:
256,160,230850,1,0,0:0:0:0:
288,160,231000,1,8,0:0:0:0:
300,168,231075,1,0,0:0:0:0:
288,160,231150,1,8,0:0:0:0:
300,168,231225,1,8,0:0:0:0:
288,160,231300,1,0,0:0:0:0:
288,192,231450,1,0,0:0:0:0:
288,192,231600,1,12,0:0:0:0:
288,192,231900,1,8,0:0:0:0:
288,192,232050,1,0,0:0:0:0:
256,160,232125,1,8,0:0:0:0:
288,192,232200,1,0,0:0:0:0:
288,160,232350,1,8,0:0:0:0:
288,192,232500,1,0,0:0:0:0:
256,160,232575,1,0,0:0:0:0:
288,192,232650,1,8,0:0:0:0:
256,192,232800,1,0,0:0:0:0:
320,224,233100,1,0,0:0:0:0:
288,128,233175,1,0,0:0:0:0:
256,192,233250,1,0,0:0:0:0:
320,224,233400,1,8,0:0:0:0:
288,192,233550,1,0,0:0:0:0:
320,224,233700,1,8,0:0:0:0:
288,128,233775,1,8,0:0:0:0:
288,192,233850,1,8,0:0:0:0:
320,224,234000,1,4,0:0:0:0:
288,192,234300,1,8,0:0:0:0:
288,192,234450,1,0,0:0:0:0:
288,192,234525,1,0,0:0:0:0:
288,192,234600,1,8,0:0:0:0:
288,160,234675,1,8,0:0:0:0:
288,192,234750,1,0,0:0:0:0:
288,192,234900,1,8,0:0:0:0:
288,192,235050,1,0,0:0:0:0:
256,224,235200,1,12,0:0:0:0:
256,224,235500,1,4,0:0:0:0:
256,224,235800,1,4,0:0:0:0:
256,224,236100,1,12,0:0:0:0:
256,192,236400,1,0,0:0:0:0:
256,192,236475,1,0,0:0:0:0:
224,192,236550,1,8,0:0:0:0:
224,192,236700,1,0,0:0:0:0:
256,160,236850,1,8,0:0:0:0:
256,160,237000,1,0,0:0:0:0:
224,160,237075,1,0,0:0:0:0:
224,160,237150,1,8,0:0:0:0:
224,160,237225,1,8,0:0:0:0:
224,160,237300,1,0,0:0:0:0:
224,160,237450,1,8,0:0:0:0:
256,160,237600,1,8,0:0:0:0:
224,160,237750,1,0,0:0:0:0:
224,160,237900,1,8,0:0:0:0:
256,160,237975,1,0,0:0:0:0:
224,192,238050,1,8,0:0:0:0:
224,192,238200,1,0,0:0:0:0:
224,192,238350,1,0,0:0:0:0:
224,192,238425,1,0,0:0:0:0:
224,160,238500,1,8,0:0:0:0:
256,160,238575,1,8,0:0:0:0:
256,160,238650,1,0,0:0:0:0:
224,224,238800,1,8,0:0:0:0:
224,192,238950,1,0,0:0:0:0:
224,160,239100,1,8,0:0:0:0:
192,192,239250,1,0,0:0:0:0:
224,192,239325,1,0,0:0:0:0:
224,192,239400,1,8,0:0:0:0:
224,160,239550,1,8,0:0:0:0:
256,160,239700,1,0,0:0:0:0:
288,192,239850,1,0,0:0:0:0:
224,192,240000,1,8,0:0:0:0:
256,192,240300,1,0,0:0:0:0:
256,192,240450,1,0,0:0:0:0:
256,192,240600,1,8,0:0:0:0:
256,160,240675,1,0,0:0:0:0:
288,160,240750,1,8,0:0:0:0:
256,192,240900,1,0,0:0:0:0:
256,192,241050,1,8,0:0:0:0:
256,192,241200,1,4,0:0:0:0:
192,192,241500,1,0,0:0:0:0:
256,192,241575,1,0,0:0:0:0:
256,160,241650,1,0,0:0:0:0:
256,160,241725,1,0,0:0:0:0:
288,192,241800,1,8,0:0:0:0:
256,192,241950,1,0,0:0:0:0:
224,160,242100,1,8,0:0:0:0:
288,192,242175,1,8,0:0:0:0:
224,160,242250,1,0,0:0:0:0:
224,160,242400,1,8,0:0:0:0:
224,160,242700,1,8,0:0:0:0:
224,160,242850,1,0,0:0:0:0:
224,160,242925,1,8,0:0:0:0:
224,160,243000,1,0,0:0:0:0:
224,160,243150,1,8,0:0:0:0:
224,160,243300,1,8,0:0:0:0:
224,160,243450,1,0,0:0:0:0:
224,160,243600,1,12,0:0:0:0:
224,160,243900,1,8,0:0:0:0:
256,160,244200,1,4,0:0:0:0:
256,160,244500,1,0,0:0:0:0:
256,160,244650,1,12,0:0:0:0:
256,160,244950,1,0,0:0:0:0:
256,160,245025,1,0,0:0:0:0:
256,160,245100,1,8,0:0:0:0:
256,160,245250,1,0,0:0:0:0:
256,160,245400,1,8,0:0:0:0:
256,160,245500,1,8,0:0:0:0:
256,160,245600,1,0,0:0:0:0:
256,160,245700,1,0,0:0:0:0:
256,128,245800,1,0,0:0:0:0:
256,128,245900,1,0,0:0:0:0:
256,128,246000,1,12,0:0:0:0:
256,192,246300,1,0,0:0:0:0:
256,192,246600,1,8,0:0:0:0:
256,192,246900,1,0,0:0:0:0:
119,179,247050,1,0,0:0:0:0:
256,192,247200,1,8,0:0:0:0:
245,200,247350,1,8,0:0:0:0:
256,160,247500,1,0,0:0:0:0:
256,192,247650,1,0,0:0:0:0:
256,160,247800,1,8,0:0:0:0:
256,160,248100,1,0,0:0:0:0:
256,160,248400,1,8,0:0:0:0:
256,160,248700,1,0,0:0:0:0:
256,160,249000,1,8,0:0:0:0:
256,160,249300,1,8,0:0:0:0:
224,160,249450,1,8,0:0:0:0:
256,160,249600,1,0,0:0:0:0:
249,188,249750,1,8,0:0:0:0:
256,160,249900,1,0,0:0:0:0:
249,188,250050,1,0,0:0:0:0:
256,160,250200,1,8,0:0:0:0:
288,160,250500,1,0,0:0:0:0:
288,160,250800,1,12,0:0:0:0:
256,192,251100,1,0,0:0:0:0:
256,192,251250,1,0,0:0:0:0:
256,160,251400,1,8,0:0:0:0:
256,192,251700,1,8,0:0:0:0:
288,160,251775,1,8,0:0:0:0:
288,160,251850,1,0,0:0:0:0:
256,192,252000,1,8,0:0:0:0:
288,160,252150,1,0,0:0:0:0:
256,192,252300,1,8,0:0:0:0:
288,160,252450,1,0,0:0:0:0:
256,160,252525,1,0,0:0:0:0:
256,192,252600,1,8,0:0:0:0:
256,160,252675,1,8,0:0:0:0:
288,160,252750,1,0,0:0:0:0:
256,192,252900,1,8,0:0:0:0:
288,160,253050,1,0,0:0:0:0:
256,192,253200,1,8,0:0:0:0:
288,160,253275,1,8,0:0:0:0:
288,160,253350,1,0,0:0:0:0:
256,192,253500,1,8,0:0:0:0:
256,192,253650,1,0,0:0:0:0:
288,160,253800,1,8,0:0:0:0:
288,160,253875,1,8,0:0:0:0:
288,160,253950,1,0,0:0:0:0:
288,192,254025,1,0,0:0:0:0:
288,160,254100,1,8,0:0:0:0:
288,160,254400,1,0,0:0:0:0:
288,160,254475,1,0,0:0:0:0:
288,160,254550,1,8,0:0:0:0:
288,128,254700,1,0,0:0:0:0:
320,128,254850,1,8,0:0:0:0:
288,160,255000,1,0,0:0:0:0:
288,160,255075,1,0,0:0:0:0:
288,160,255150,1,8,0:0:0:0:
288,128,255225,1,8,0:0:0:0:
288,128,255300,1,0,0:0:0:0:
288,192,255450,1,0,0:0:0:0:
256,192,255600,1,12,0:0:0:0:
256,160,255900,1,0,0:0:0:0:
384,224,256050,1,8,0:0:0:0:
256,160,256200,1,0,0:0:0:0:
256,192,256500,1,8,0:0:0:0:
288,160,256575,1,8,0:0:0:0:
288,160,256650,1,0,0:0:0:0:
256,192,256800,1,8,0:0:0:0:
288,160,256950,1,0,0:0:0:0:
256,192,257100,1,8,0:0:0:0:
288,160,257250,1,0,0:0:0:0:
256,160,257325,1,0,0:0:0:0:
256,192,257400,1,8,0:0:0:0:
288,160,257550,1,0,0:0:0:0:
256,192,257700,1,8,0:0:0:0:
256,192,258000,1,8,0:0:0:0:
288,160,258075,1,8,0:0:0:0:
288,160,258150,1,0,0:0:0:0:
256,192,258300,1,8,0:0:0:0:
256,192,258450,1,0,0:0:0:0:
288,160,258600,1,8,0:0:0:0:
288,160,258675,1,8,0:0:0:0:
288,160,258750,1,0,0:0:0:0:
288,192,258825,1,0,0:0:0:0:
288,160,258900,1,8,0:0:0:0:
288,160,259200,1,0,0:0:0:0:
288,160,259275,1,0,0:0:0:0:
288,160,259350,1,8,0:0:0:0:
288,128,259500,1,0,0:0:0:0:
320,128,259650,1,8,0:0:0:0:
288,160,259800,1,0,0:0:0:0:
288,160,259875,1,0,0:0:0:0:
288,160,259950,1,8,0:0:0:0:
288,128,260025,1,8,0:0:0:0:
288,128,260100,1,0,0:0:0:0:
288,192,260250,1,0,0:0:0:0:
256,192,260400,1,12,0:0:0:0:
320,192,260700,1,0,0:0:0:0:
256,128,260850,1,0,0:0:0:0:
320,192,261000,1,8,0:0:0:0:
256,192,261075,1,8,0:0:0:0:
288,160,261150,1,8,0:0:0:0:
320,192,261300,1,0,0:0:0:0:
288,160,261450,1,8,0:0:0:0:
320,192,261600,1,0,0:0:0:0:
288,64,261675,1,0,0:0:0:0:
320,192,261750,1,8,0:0:0:0:
320,192,261900,1,8,0:0:0:0:
320,192,262050,1,0,0:0:0:0:
288,128,262350,1,0,0:0:0:0:
288,160,262500,1,8,0:0:0:0:
320,192,262800,1,8,0:0:0:0:
256,192,262875,1,0,0:0:0:0:
320,192,262950,1,8,0:0:0:0:
320,192,263100,1,0,0:0:0:0:
256,160,263250,1,0,0:0:0:0:
288,160,263400,1,8,0:0:0:0:
256,160,263475,1,8,0:0:0:0:
256,160,263550,1,0,0:0:0:0:
288,160,263700,1,8,0:0:0:0:
288,128,263850,1,8,0:0:0:0:
256,96,264000,1,0,0:0:0:0:
288,160,264075,1,0,0:0:0:0:
288,160,264150,1,0,0:0:0:0:
288,160,264300,1,8,0:0:0:0:
288,160,264450,1,0,0:0:0:0:
256,128,264750,1,0,0:0:0:0:
256,128,264900,1,8,0:0:0:0:
256,128,265200,1,8,0:0:0:0:
256,192,265275,1,8,0:0:0:0:
288,160,265350,1,0,0:0:0:0:
256,192,265500,1,8,0:0:0:0:
256,128,265650,1,0,0:0:0:0:
256,128,265800,1,8,0:0:0:0:
288,192,265875,1,8,0:0:0:0:
320,128,265950,1,8,0:0:0:0:
288,160,266025,1,8,0:0:0:0:
256,160,266100,1,0,0:0:0:0:
288,128,266250,1,0,0:0:0:0:
256,160,266400,1,8,0:0:0:0:
288,192,266475,1,0,0:0:0:0:
256,128,266550,1,0,0:0:0:0:
256,128,266700,1,8,0:0:0:0:
256,128,266850,1,0,0:0:0:0:
224,128,267150,1,0,0:0:0:0:
256,128,267300,1,8,0:0:0:0:
256,192,267600,1,8,0:0:0:0:
288,160,267675,1,0,0:0:0:0:
256,160,267750,1,8,0:0:0:0:
256,192,267900,1,0,0:0:0:0:
256,160,268050,1,0,0:0:0:0:
256,192,268200,1,8,0:0:0:0:
288,160,268275,1,8,0:0:0:0:
256,160,268350,1,0,0:0:0:0:
256,160,268425,1,0,0:0:0:0:
256,160,268500,1,8,0:0:0:0:
320,160,268650,1,8,0:0:0:0:
288,160,268800,1,0,0:0:0:0:
288,160,268950,1,8,0:0:0:0:
288,128,269025,1,8,0:0:0:0:
288,128,269100,1,8,0:0:0:0:
288,160,269250,1,0,0:0:0:0:
224,160,269400,1,8,0:0:0:0:
288,128,269475,1,8,0:0:0:0:
288,128,269550,1,0,0:0:0:0:
288,128,269700,1,8,0:0:0:0:
224,192,270000,1,8,0:0:0:0:
256,160,270075,1,8,0:0:0:0:
224,192,270150,1,0,0:0:0:0:
256,128,270225,1,0,0:0:0:0:
224,192,270300,1,8,0:0:0:0:
224,160,270450,1,0,0:0:0:0:
224,160,270600,1,8,0:0:0:0:
288,128,270675,1,0,0:0:0:0:
224,160,270750,1,8,0:0:0:0:
288,128,270825,1,8,0:0:0:0:
224,160,270900,1,0,0:0:0:0:
256,128,271050,1,8,0:0:0:0:
224,160,271200,1,0,0:0:0:0:
256,128,271275,1,0,0:0:0:0:
224,160,271350,1,8,0:0:0:0:
288,160,271500,1,8,0:0:0:0:
224,160,271650,1,0,0:0:0:0:
256,128,271950,1,0,0:0:0:0:
256,128,272100,1,8,0:0:0:0:
256,128,272400,1,8,0:0:0:0:
224,128,272475,1,0,0:0:0:0:
256,128,272550,1,0,0:0:0:0:
224,96,272625,1,0,0:0:0:0:
256,128,272700,1,8,0:0:0:0:
256,128,272850,1,8,0:0:0:0:
256,128,273000,1,0,0:0:0:0:
256,128,273075,1,0,0:0:0:0:
256,128,273150,1,8,0:0:0:0:
256,128,273225,1,8,0:0:0:0:
256,128,273300,1,0,0:0:0:0:
256,128,273450,1,0,0:0:0:0:
256,96,273600,1,8,0:0:0:0:
256,96,273675,1,8,0:0:0:0:
256,128,273750,1,0,0:0:0:0:
256,128,273900,1,8,0:0:0:0:
256,128,274050,1,0,0:0:0:0:
256,128,274350,1,0,0:0:0:0:
256,128,274500,1,8,0:0:0:0:
224,160,274800,1,0,0:0:0:0:
256,128,274875,1,0,0:0:0:0:
256,160,274950,1,8,0:0:0:0:
256,128,275025,1,8,0:0:0:0:
288,128,275100,1,0,0:0:0:0:
288,128,275250,1,8,0:0:0:0:
288,128,275400,1,0,0:0:0:0:
256,128,275475,1,8,0:0:0:0:
288,128,275550,1,0,0:0:0:0:
256,128,275625,1,0,0:0:0:0:
288,128,275700,1,8,0:0:0:0:
288,128,275850,1,0,0:0:0:0:
256,128,276000,1,8,0:0:0:0:
288,160,276075,1,8,0:0:0:0:
256,128,276150,1,0,0:0:0:0:
288,160,276225,1,0,0:0:0:0:
288,128,276300,1,8,0:0:0:0:
288,128,276450,1,0,0:0:0:0:
256,128,276750,1,0,0:0:0:0:
256,128,276900,1,8,0:0:0:0:
288,128,277200,1,0,0:0:0:0:
288,160,277275,1,0,0:0:0:0:
288,96,277350,1,8,0:0:0:0:
320,128,277425,1,8,0:0:0:0:
288,128,277500,1,8,0:0:0:0:
288,96,277650,1,0,0:0:0:0:
288,128,277800,1,8,0:0:0:0:
320,128,277875,1,0,0:0:0:0:
288,96,277950,1,0,0:0:0:0:
320,96,278025,1,0,0:0:0:0:
288,128,278100,1,8,0:0:0:0:
352,160,278250,1,0,0:0:0:0:
256,128,278400,1,8,0:0:0:0:
320,160,278475,1,0,0:0:0:0:
256,128,278550,1,8,0:0:0:0:
352,96,278625,1,8,0:0:0:0:
256,96,278700,1,0,0:0:0:0:
256,96,278850,1,8,0:0:0:0:
192,160,279000,1,0,0:0:0:0:
256,160,279075,1,0,0:0:0:0:
256,96,279150,1,8,0:0:0:0:
256,96,279300,1,0,0:0:0:0:
288,96,280200,1,4,0:0:0:0:
288,96,280500,1,4,0:0:0:0:
256,192,280800,12,0,285600,0:0:0:0:
