osu file format v14

[General]
AudioFilename: audio.mp3
AudioLeadIn: 0
PreviewTime: 152400
Countdown: 0
SampleSet: Normal
StackLeniency: 0.7
Mode: 1
LetterboxInBreaks: 0
WidescreenStoryboard: 1

[Editor]
DistanceSpacing: 1.3
BeatDivisor: 4
GridSize: 32
TimelineZoom: 1.3

[Metadata]
Title:S.M.L*
TitleUnicode:S・M・L☆
Artist:Afilia Saga
ArtistUnicode:アフィリア・サーガ
Creator:Joltzzz
Version:Ron's Muzukashii
Source:俺の脳内選択肢が、学園ラブコメを全力で邪魔している
Tags:ron [r] arcpotato のうコメ noucome Sweet Melty Love opening op full ver. version Lovecome Love Comedy Ore no Nounai Sentakushi ga, Gakuen Rabukome o Zenryoku de Jamashiteiru My Mental Choices are Completely Interfering with my School Romantic sml japanese rock jrock j-rock イースト East アフィリア・サーガ・イースト 純情のアフィリア Junjō Junjou no アヤミ・チェルシー・スノウ アヤミ チェルシー スノウ Ayami Chercy Snow アリア・M・ミルヴァーナ アリア M ミルヴァーナ Aria M Milvana エミュウ・ヴァイルシュミット エミュウ ヴァイルシュミット Emiu Weilschmidt コヒメ・リト・プッチ コヒメ リト プッチ Kohime Lit Pucci 小日向茜 Kohinata Akane マホ・ソット・ボーチェ マホ ソット ボーチェ Maho Sotto Voce 青海マホ Aomi Maho ミク・ドール・シャルロット ミク ドール シャルロット Miku Doll Charlotte ユカフィン・ドール ユカフィン ドール Yukafin Doll ルイズ・スフォルツア ルイズ スフォルツア Louise Sforzur レイナ・スコット・モーゼル レイナ スコット モーゼル Reina S Mauser レミー・ヘヴェンリー レミー ヘヴェンリー Raymee Heavenly ローラ・シュクレーヌ ローラ シュクレーヌ Laura Sucreine
BeatmapID:3550842
BeatmapSetID:1691609

[Difficulty]
HPDrainRate:6
CircleSize:2
OverallDifficulty:5
ApproachRate:10
SliderMultiplier:1.4
SliderTickRate:1

[Events]
//Background and Video events
0,0,"bg.jpg",0,0
//Break Periods
//Storyboard Layer 0 (Background)
//Storyboard Layer 1 (Fail)
//Storyboard Layer 2 (Pass)
//Storyboard Layer 3 (Foreground)
//Storyboard Layer 4 (Overlay)
//Storyboard Sound Samples

[TimingPoints]
0,300,4,1,0,30,1,0
1500,-100,4,1,0,40,0,0
1800,-100,4,1,0,50,0,0
2100,-100,4,1,0,60,0,0
2400,-100,4,1,0,70,0,0
2700,-100,4,1,0,80,0,0
3000,-100,4,1,0,90,0,0
3300,-100,4,1,0,100,0,0
10800,-100,4,1,0,100,0,0
12225,-100,4,1,0,100,0,0
31200,-100,4,1,0,100,0,0
32250,-100,4,1,0,100,0,0
36150,-100,4,1,0,100,0,0
36750,-100,4,1,0,100,0,0
45600,-100,4,1,0,100,0,0
46650,-100,4,1,0,100,0,0
55200,-100,4,1,0,100,0,0
56400,-100,4,1,0,100,0,0
64800,-100,4,1,0,100,0,0
65000,-100,4,1,0,100,0,0
65200,-100,4,1,0,100,0,0
65400,-100,4,1,0,100,0,0
65600,-100,4,1,0,100,0,0
66000,-100,4,1,0,100,0,1
74400,-100,4,1,0,100,0,1
74700,-100,4,1,0,100,0,1
75000,-100,4,1,0,100,0,1
75300,-100,4,1,0,100,0,1
75600,-100,4,1,0,100,0,1
84000,-100,4,1,0,100,0,1
85200,-100,4,1,0,100,0,1
94800,-100,4,1,0,100,0,0
99600,-100,4,1,0,100,0,1
104400,-100,4,1,0,100,0,0
117600,-100,4,1,0,100,0,0
118600,-100,4,1,0,100,0,0
122500,-100,4,1,0,100,0,0
123100,-100,4,1,0,100,0,0
132000,-100,4,1,0,100,0,0
133000,-100,4,1,0,100,0,0
141600,-100,4,1,0,100,0,0
142800,-100,4,1,0,100,0,0
151200,-100,4,1,0,100,0,0
151400,-100,4,1,0,100,0,0
151600,-100,4,1,0,100,0,0
151800,-100,4,1,0,100,0,0
152400,-100,4,1,0,100,0,1
160800,-100,4,1,0,100,0,1
161100,-100,4,1,0,100,0,1
161400,-100,4,1,0,100,0,1
161700,-100,4,1,0,100,0,1
162000,-100,4,1,0,100,0,1
170400,-100,4,1,0,100,0,1
171600,-100,4,1,0,100,0,1
181200,-100,4,1,0,100,0,0
186000,-100,4,1,0,100,0,1
190800,-100,4,1,0,100,0,0
194400,-100,4,1,0,100,0,0
195600,-100,4,1,0,100,0,0
216075,-100,4,1,0,100,0,0
216150,-100,4,1,0,100,0,0
216300,-100,4,1,0,100,0,0
216375,-100,4,1,0,100,0,0
216450,-100,4,1,0,100,0,0
216600,-100,4,1,0,100,0,0
216675,-100,4,1,0,100,0,0
216750,-100,4,1,0,100,0,0
216900,-100,4,1,0,100,0,0
216975,-100,4,1,0,100,0,0
217050,-100,4,1,0,100,0,0
217125,-100,4,1,0,100,0,0
217200,-100,4,1,0,100,0,1
217350,-100,4,1,0,100,0,1
225600,-100,4,1,0,100,0,1
225900,-100,4,1,0,100,0,1
226200,-100,4,1,0,100,0,1
226500,-100,4,1,0,100,0,1
226800,-100,4,1,0,100,0,1
235200,-100,4,1,0,100,0,1
236400,-100,4,1,0,100,0,1
246000,-100,4,1,0,100,0,0
250800,-100,4,1,0,100,0,1
255900,-100,4,1,0,100,0,1
256050,-100,4,1,0,100,0,1
256200,-100,4,1,0,100,0,1
256500,-100,4,1,0,100,0,1
260400,-100,4,1,0,100,0,0
260550,-100,4,1,0,100,0,0
281400,-100,4,1,0,92,0,0
282000,-100,4,1,0,85,0,0
282600,-100,4,1,0,77,0,0
283200,-100,4,1,0,70,0,0
283800,-100,4,1,0,62,0,0
284400,-100,4,1,0,55,0,0
285000,-100,4,1,0,47,0,0
285600,-100,4,1,0,40,0,0

[HitObjects]
256,192,1200,8,0,3450,0:0:0:0:
256,192,3600,5,0,0:0:0:0:
256,192,3900,1,0,0:0:0:0:
256,192,4200,1,8,0:0:0:0:
256,192,4500,1,8,0:0:0:0:
256,192,4800,1,0,0:0:0:0:
256,192,5000,1,0,0:0:0:0:
256,192,5100,1,8,0:0:0:0:
256,192,5400,1,8,0:0:0:0:
256,192,5600,1,0,0:0:0:0:
256,192,5700,1,8,0:0:0:0:
256,192,6000,1,0,0:0:0:0:
256,192,6300,1,0,0:0:0:0:
256,192,6600,1,8,0:0:0:0:
256,192,6900,1,8,0:0:0:0:
256,192,7200,1,0,0:0:0:0:
256,192,7400,1,8,0:0:0:0:
256,192,7500,1,0,0:0:0:0:
256,192,7800,1,8,0:0:0:0:
256,192,8000,1,8,0:0:0:0:
256,192,8100,1,0,0:0:0:0:
256,160,8400,1,0,0:0:0:0:
256,192,8700,1,0,0:0:0:0:
256,192,9000,1,8,0:0:0:0:
256,192,9300,1,8,0:0:0:0:
256,192,9600,1,0,0:0:0:0:
256,192,9800,1,0,0:0:0:0:
256,192,9900,1,8,0:0:0:0:
256,192,10200,1,8,0:0:0:0:
256,192,10400,1,0,0:0:0:0:
256,192,10500,1,8,0:0:0:0:
288,192,10800,1,12,0:0:0:0:
256,192,11250,1,12,0:0:0:0:
256,192,11700,1,12,0:0:0:0:
256,192,12000,1,12,0:0:0:0:
261,174,13200,1,4,0:0:0:0:
261,174,13500,1,8,0:0:0:0:
255,153,13800,1,8,0:0:0:0:
256,143,13950,1,8,0:0:0:0:
256,143,14100,1,0,0:0:0:0:
261,181,14400,1,8,0:0:0:0:
256,192,14550,1,0,0:0:0:0:
261,181,14700,1,0,0:0:0:0:
261,181,14850,1,8,0:0:0:0:
261,181,15150,1,8,0:0:0:0:
261,181,15300,1,0,0:0:0:0:
246,166,15375,1,0,0:0:0:0:
246,166,15450,1,0,0:0:0:0:
261,181,15600,1,8,0:0:0:0:
256,143,15750,1,8,0:0:0:0:
272,162,15900,1,0,0:0:0:0:
279,157,16200,1,8,0:0:0:0:
256,143,16500,1,0,0:0:0:0:
254,189,16800,1,8,0:0:0:0:
256,128,16950,1,0,0:0:0:0:
256,192,17100,1,0,0:0:0:0:
256,192,17250,1,8,0:0:0:0:
256,192,17550,1,0,0:0:0:0:
256,192,17700,1,8,0:0:0:0:
255,153,17775,1,8,0:0:0:0:
256,192,17850,1,8,0:0:0:0:
256,192,18000,1,0,0:0:0:0:
256,192,18300,1,8,0:0:0:0:
256,192,18600,1,8,0:0:0:0:
256,192,18750,1,8,0:0:0:0:
256,192,18900,1,0,0:0:0:0:
256,160,19200,1,8,0:0:0:0:
256,160,19350,1,0,0:0:0:0:
256,192,19500,1,0,0:0:0:0:
256,192,19650,1,8,0:0:0:0:
256,192,19950,1,8,0:0:0:0:
256,192,20100,1,0,0:0:0:0:
256,192,20175,1,0,0:0:0:0:
256,160,20250,1,0,0:0:0:0:
224,160,20400,1,8,0:0:0:0:
256,192,20550,1,8,0:0:0:0:
256,160,20700,1,0,0:0:0:0:
256,192,21000,1,8,0:0:0:0:
256,160,21300,1,0,0:0:0:0:
256,160,21600,1,8,0:0:0:0:
256,160,21750,1,0,0:0:0:0:
256,160,21900,1,0,0:0:0:0:
256,160,22050,1,8,0:0:0:0:
256,160,22350,1,0,0:0:0:0:
256,160,22500,1,8,0:0:0:0:
255,153,22575,1,8,0:0:0:0:
255,153,22650,1,8,0:0:0:0:
256,192,22800,1,8,0:0:0:0:
256,192,23100,1,8,0:0:0:0:
256,192,23400,1,8,0:0:0:0:
256,192,24000,1,8,0:0:0:0:
256,192,24300,1,8,0:0:0:0:
256,192,24600,1,8,0:0:0:0:
256,192,25200,1,8,0:0:0:0:
256,192,25500,1,8,0:0:0:0:
256,192,25800,1,8,0:0:0:0:
256,192,26400,1,8,0:0:0:0:
256,192,26700,1,0,0:0:0:0:
256,192,26850,1,0,0:0:0:0:
288,192,27000,1,0,0:0:0:0:
288,192,27300,1,8,0:0:0:0:
256,192,27600,1,4,0:0:0:0:
256,160,27900,1,8,0:0:0:0:
256,160,28050,1,0,0:0:0:0:
256,160,28200,1,8,0:0:0:0:
256,192,28500,1,0,0:0:0:0:
256,192,28650,1,8,0:0:0:0:
256,160,28950,1,0,0:0:0:0:
256,160,29250,1,8,0:0:0:0:
256,160,29400,1,8,0:0:0:0:
256,160,30000,1,0,0:0:0:0:
256,160,30150,1,0,0:0:0:0:
256,160,30300,1,8,0:0:0:0:
256,128,30600,1,8,0:0:0:0:
256,128,30900,1,0,0:0:0:0:
256,128,31050,1,8,0:0:0:0:
256,160,31350,1,4,0:0:0:0:
256,160,31500,1,4,0:0:0:0:
256,160,31650,1,4,0:0:0:0:
256,160,31950,1,12,0:0:0:0:
256,160,32100,1,12,0:0:0:0:
256,192,32400,1,4,0:0:0:0:
256,160,32700,1,8,0:0:0:0:
256,160,32850,1,0,0:0:0:0:
256,160,33000,1,8,0:0:0:0:
256,192,33300,1,0,0:0:0:0:
256,192,33450,1,8,0:0:0:0:
256,160,33750,1,0,0:0:0:0:
256,160,34050,1,8,0:0:0:0:
256,160,34200,1,8,0:0:0:0:
256,160,34800,1,0,0:0:0:0:
256,160,34950,1,0,0:0:0:0:
256,160,35100,1,8,0:0:0:0:
256,160,35250,1,8,0:0:0:0:
256,192,35550,1,0,0:0:0:0:
256,192,35700,1,0,0:0:0:0:
256,192,35850,1,0,0:0:0:0:
256,192,36150,1,12,0:0:0:0:
256,192,36300,1,12,0:0:0:0:
224,192,36450,1,4,0:0:0:0:
224,192,36600,1,4,0:0:0:0:
256,192,36900,1,8,0:0:0:0:
256,192,37200,1,4,0:0:0:0:
256,192,37500,1,8,0:0:0:0:
256,192,37650,1,0,0:0:0:0:
256,192,37800,1,8,0:0:0:0:
256,160,37950,1,0,0:0:0:0:
256,192,38100,1,8,0:0:0:0:
256,192,38400,1,0,0:0:0:0:
256,160,38700,1,8,0:0:0:0:
256,160,39000,1,0,0:0:0:0:
256,160,39150,1,8,0:0:0:0:
288,160,39300,1,0,0:0:0:0:
288,128,39600,1,8,0:0:0:0:
256,128,40200,1,0,0:0:0:0:
256,128,40500,1,8,0:0:0:0:
256,128,40650,1,8,0:0:0:0:
256,128,40800,1,0,0:0:0:0:
256,128,41100,1,0,0:0:0:0:
256,128,41250,1,8,0:0:0:0:
256,128,41550,1,8,0:0:0:0:
224,160,41700,1,0,0:0:0:0:
288,160,42000,1,8,0:0:0:0:
256,160,42300,1,8,0:0:0:0:
256,160,42600,1,0,0:0:0:0:
256,160,42750,1,0,0:0:0:0:
256,160,42900,1,8,0:0:0:0:
256,160,43050,1,8,0:0:0:0:
288,192,43200,1,0,0:0:0:0:
320,192,43500,1,8,0:0:0:0:
320,160,43800,1,0,0:0:0:0:
320,160,43950,1,0,0:0:0:0:
320,160,44100,1,8,0:0:0:0:
320,160,44400,1,4,0:0:0:0:
288,160,44700,1,8,0:0:0:0:
288,160,45150,1,0,0:0:0:0:
288,160,45300,1,8,0:0:0:0:
288,160,45450,1,8,0:0:0:0:
256,160,45600,1,4,0:0:0:0:
256,160,45750,1,4,0:0:0:0:
256,160,45900,1,12,0:0:0:0:
256,128,46050,1,12,0:0:0:0:
224,128,46350,1,12,0:0:0:0:
224,128,46500,1,12,0:0:0:0:
256,192,46800,1,4,0:0:0:0:
256,192,47100,1,8,0:0:0:0:
256,192,47250,1,8,0:0:0:0:
256,192,47400,1,0,0:0:0:0:
320,160,47550,1,0,0:0:0:0:
256,192,47700,1,8,0:0:0:0:
256,192,48000,1,8,0:0:0:0:
256,192,48150,1,8,0:0:0:0:
256,160,48300,1,0,0:0:0:0:
256,160,48600,1,8,0:0:0:0:
288,160,48900,1,0,0:0:0:0:
320,160,49050,1,8,0:0:0:0:
288,128,49200,1,0,0:0:0:0:
288,128,49350,1,0,0:0:0:0:
288,128,49500,1,8,0:0:0:0:
256,128,49800,1,0,0:0:0:0:
256,128,50100,1,8,0:0:0:0:
256,128,50250,1,8,0:0:0:0:
256,128,50400,1,0,0:0:0:0:
256,128,50700,1,0,0:0:0:0:
256,128,50850,1,8,0:0:0:0:
224,160,51300,1,0,0:0:0:0:
288,160,51600,1,12,0:0:0:0:
256,160,51900,1,0,0:0:0:0:
256,160,52200,1,8,0:0:0:0:
256,160,52350,1,0,0:0:0:0:
256,160,52500,1,8,0:0:0:0:
288,192,52800,1,0,0:0:0:0:
320,192,53100,1,8,0:0:0:0:
320,160,53250,1,0,0:0:0:0:
320,160,53400,1,8,0:0:0:0:
320,160,53550,1,8,0:0:0:0:
320,160,53700,1,0,0:0:0:0:
320,160,54000,1,0,0:0:0:0:
320,160,54150,1,0,0:0:0:0:
288,160,54300,1,8,0:0:0:0:
320,160,54600,1,0,0:0:0:0:
320,160,54750,1,0,0:0:0:0:
320,160,54900,1,8,0:0:0:0:
320,160,55200,1,12,0:0:0:0:
320,160,55500,1,12,0:0:0:0:
320,160,55800,1,12,0:0:0:0:
320,160,56100,1,12,0:0:0:0:
288,160,56400,1,4,0:0:0:0:
256,160,56700,1,8,0:0:0:0:
256,192,57000,1,8,0:0:0:0:
256,160,57150,1,0,0:0:0:0:
256,160,57300,1,8,0:0:0:0:
256,192,57600,1,0,0:0:0:0:
256,160,57900,1,8,0:0:0:0:
256,160,58200,1,8,0:0:0:0:
256,128,58350,1,0,0:0:0:0:
256,128,58500,1,8,0:0:0:0:
256,128,58800,1,4,0:0:0:0:
256,160,59100,1,8,0:0:0:0:
256,160,59250,1,8,0:0:0:0:
256,128,59400,1,0,0:0:0:0:
256,160,59700,1,8,0:0:0:0:
256,128,60000,1,0,0:0:0:0:
256,160,60150,1,0,0:0:0:0:
256,128,60300,1,8,0:0:0:0:
256,160,60450,1,8,0:0:0:0:
256,128,60600,1,0,0:0:0:0:
256,128,60900,1,8,0:0:0:0:
224,160,61200,1,4,0:0:0:0:
224,160,61350,1,4,0:0:0:0:
256,160,61800,1,12,0:0:0:0:
256,160,61950,1,12,0:0:0:0:
256,160,62400,1,4,0:0:0:0:
256,160,62550,1,4,0:0:0:0:
224,160,63000,1,12,0:0:0:0:
224,160,63150,1,12,0:0:0:0:
256,192,63600,1,0,0:0:0:0:
256,192,63750,1,0,0:0:0:0:
256,192,63900,1,8,0:0:0:0:
256,192,64050,1,8,0:0:0:0:
256,192,64200,1,0,0:0:0:0:
256,192,64275,1,0,0:0:0:0:
256,192,64350,1,0,0:0:0:0:
256,160,64500,1,8,0:0:0:0:
256,160,64575,1,8,0:0:0:0:
256,160,64650,1,8,0:0:0:0:
288,192,64800,1,4,0:0:0:0:
256,192,65000,1,4,0:0:0:0:
256,192,65200,1,12,0:0:0:0:
256,192,65400,1,12,0:0:0:0:
256,192,66000,1,4,0:0:0:0:
256,192,66300,1,8,0:0:0:0:
256,192,66600,1,0,0:0:0:0:
256,192,66750,1,0,0:0:0:0:
256,192,66900,1,8,0:0:0:0:
256,192,67200,1,8,0:0:0:0:
256,160,67350,1,8,0:0:0:0:
256,160,67500,1,0,0:0:0:0:
224,160,67650,1,8,0:0:0:0:
224,160,67725,1,8,0:0:0:0:
224,160,67800,1,8,0:0:0:0:
224,160,67950,1,8,0:0:0:0:
224,160,68100,1,0,0:0:0:0:
288,160,68400,1,8,0:0:0:0:
256,160,68700,1,0,0:0:0:0:
224,160,69000,1,0,0:0:0:0:
224,128,69150,1,0,0:0:0:0:
224,160,69300,1,8,0:0:0:0:
256,160,69450,1,0,0:0:0:0:
224,160,69600,1,8,0:0:0:0:
288,160,69900,1,0,0:0:0:0:
288,192,70200,1,8,0:0:0:0:
224,160,70350,1,0,0:0:0:0:
224,160,70500,1,8,0:0:0:0:
288,192,70650,1,0,0:0:0:0:
256,160,70725,1,0,0:0:0:0:
256,160,70800,1,0,0:0:0:0:
256,160,71250,1,8,0:0:0:0:
224,160,71400,1,8,0:0:0:0:
224,160,71700,1,0,0:0:0:0:
256,160,71850,1,8,0:0:0:0:
256,160,72000,1,0,0:0:0:0:
256,160,72150,1,0,0:0:0:0:
288,160,72300,1,8,0:0:0:0:
256,160,72450,1,8,0:0:0:0:
320,192,72600,1,0,0:0:0:0:
320,192,72900,1,8,0:0:0:0:
320,192,73200,1,4,0:0:0:0:
224,192,73500,1,8,0:0:0:0:
224,192,73950,1,8,0:0:0:0:
224,192,74100,1,8,0:0:0:0:
224,192,74250,1,0,0:0:0:0:
224,192,74400,1,12,0:0:0:0:
224,192,74700,1,12,0:0:0:0:
224,192,75000,1,12,0:0:0:0:
224,192,75300,1,12,0:0:0:0:
256,192,75600,1,4,0:0:0:0:
256,192,75900,1,8,0:0:0:0:
256,192,76200,1,8,0:0:0:0:
256,192,76350,1,0,0:0:0:0:
256,192,76500,1,8,0:0:0:0:
256,192,76800,1,0,0:0:0:0:
256,160,76950,1,0,0:0:0:0:
256,160,77100,1,8,0:0:0:0:
224,160,77250,1,0,0:0:0:0:
224,160,77325,1,0,0:0:0:0:
224,160,77400,1,0,0:0:0:0:
224,160,77550,1,0,0:0:0:0:
224,160,77700,1,8,0:0:0:0:
288,160,78000,1,0,0:0:0:0:
256,160,78300,1,8,0:0:0:0:
224,160,78450,1,8,0:0:0:0:
224,160,78600,1,0,0:0:0:0:
224,128,78750,1,0,0:0:0:0:
224,160,78900,1,8,0:0:0:0:
224,160,79200,1,0,0:0:0:0:
288,160,79500,1,8,0:0:0:0:
288,192,79800,1,8,0:0:0:0:
224,160,79950,1,0,0:0:0:0:
224,160,80100,1,8,0:0:0:0:
288,192,80250,1,8,0:0:0:0:
256,160,80325,1,8,0:0:0:0:
256,160,80400,1,8,0:0:0:0:
256,160,80850,1,0,0:0:0:0:
224,160,81000,1,8,0:0:0:0:
224,160,81300,1,8,0:0:0:0:
256,160,81450,1,8,0:0:0:0:
256,160,81600,1,0,0:0:0:0:
256,160,81750,1,0,0:0:0:0:
288,160,81900,1,8,0:0:0:0:
320,192,82200,1,8,0:0:0:0:
256,160,82350,1,0,0:0:0:0:
320,192,82500,1,8,0:0:0:0:
320,192,82800,1,4,0:0:0:0:
224,192,83100,1,8,0:0:0:0:
224,192,83250,1,8,0:0:0:0:
224,192,83550,1,8,0:0:0:0:
224,192,83700,1,0,0:0:0:0:
224,192,83850,1,0,0:0:0:0:
224,192,84000,1,12,0:0:0:0:
224,192,84300,1,12,0:0:0:0:
224,192,84600,1,12,0:0:0:0:
224,192,84900,1,12,0:0:0:0:
224,160,85200,1,4,0:0:0:0:
224,192,85500,1,8,0:0:0:0:
256,160,85800,1,0,0:0:0:0:
256,160,85950,1,0,0:0:0:0:
224,160,86100,1,8,0:0:0:0:
224,160,86250,1,0,0:0:0:0:
224,160,86550,1,0,0:0:0:0:
224,160,86700,1,8,0:0:0:0:
224,192,86850,1,8,0:0:0:0:
224,192,87000,1,0,0:0:0:0:
224,192,87150,1,8,0:0:0:0:
224,160,87300,1,0,0:0:0:0:
224,224,87600,1,8,0:0:0:0:
224,160,87900,1,0,0:0:0:0:
224,160,88050,1,0,0:0:0:0:
224,192,88200,1,8,0:0:0:0:
256,160,88500,1,8,0:0:0:0:
288,192,88650,1,0,0:0:0:0:
224,192,88800,1,8,0:0:0:0:
256,192,89400,1,8,0:0:0:0:
256,192,89550,1,8,0:0:0:0:
256,192,89700,1,0,0:0:0:0:
256,192,90000,1,12,0:0:0:0:
192,192,90300,1,0,0:0:0:0:
256,160,90450,1,8,0:0:0:0:
256,160,90525,1,8,0:0:0:0:
288,192,90600,1,8,0:0:0:0:
256,192,90750,1,0,0:0:0:0:
224,160,90900,1,0,0:0:0:0:
224,160,91050,1,8,0:0:0:0:
224,160,91350,1,8,0:0:0:0:
224,160,91500,1,0,0:0:0:0:
288,160,91650,1,0,0:0:0:0:
224,160,91800,1,8,0:0:0:0:
224,160,91950,1,0,0:0:0:0:
224,160,92100,1,8,0:0:0:0:
224,160,92400,1,12,0:0:0:0:
224,160,92700,1,0,0:0:0:0:
288,160,92850,1,0,0:0:0:0:
256,160,93000,1,12,0:0:0:0:
256,160,93300,1,0,0:0:0:0:
256,160,93450,1,12,0:0:0:0:
256,160,93750,1,8,0:0:0:0:
256,160,93900,1,0,0:0:0:0:
256,160,94200,1,0,0:0:0:0:
256,160,94275,1,0,0:0:0:0:
256,160,94350,1,0,0:0:0:0:
256,128,94500,1,8,0:0:0:0:
256,128,94800,1,4,0:0:0:0:
256,192,95100,1,0,0:0:0:0:
256,192,95250,1,0,0:0:0:0:
256,192,95400,1,8,0:0:0:0:
256,192,95850,1,0,0:0:0:0:
288,192,96150,1,8,0:0:0:0:
256,160,96300,1,0,0:0:0:0:
256,192,96450,1,0,0:0:0:0:
256,160,96600,1,8,0:0:0:0:
256,160,96900,1,0,0:0:0:0:
256,160,97200,1,8,0:0:0:0:
256,160,97500,1,0,0:0:0:0:
224,160,97650,1,0,0:0:0:0:
256,160,97800,1,8,0:0:0:0:
256,160,98100,1,8,0:0:0:0:
224,160,98250,1,0,0:0:0:0:
256,160,98700,1,8,0:0:0:0:
256,160,99000,1,0,0:0:0:0:
288,160,99150,1,0,0:0:0:0:
288,160,99300,1,8,0:0:0:0:
288,160,99600,1,4,0:0:0:0:
256,192,99900,1,8,0:0:0:0:
256,192,100050,1,0,0:0:0:0:
256,160,100200,1,8,0:0:0:0:
288,160,100350,1,0,0:0:0:0:
256,192,100500,1,8,0:0:0:0:
256,192,100800,1,0,0:0:0:0:
256,192,101100,1,8,0:0:0:0:
288,160,101250,1,0,0:0:0:0:
256,192,101400,1,0,0:0:0:0:
288,160,101550,1,0,0:0:0:0:
256,192,101700,1,8,0:0:0:0:
256,192,102000,1,0,0:0:0:0:
256,192,102300,1,8,0:0:0:0:
288,160,102600,1,0,0:0:0:0:
288,160,102750,1,0,0:0:0:0:
288,160,102900,1,8,0:0:0:0:
288,160,103200,1,0,0:0:0:0:
288,128,103500,1,8,0:0:0:0:
320,128,103650,1,8,0:0:0:0:
288,160,103800,1,0,0:0:0:0:
288,128,104100,1,8,0:0:0:0:
261,174,104400,1,4,0:0:0:0:
261,174,104700,1,8,0:0:0:0:
255,153,105000,1,8,0:0:0:0:
256,143,105150,1,8,0:0:0:0:
256,143,105300,1,0,0:0:0:0:
261,181,105600,1,8,0:0:0:0:
256,192,105750,1,0,0:0:0:0:
261,181,105900,1,0,0:0:0:0:
261,181,106050,1,8,0:0:0:0:
261,181,106350,1,8,0:0:0:0:
261,181,106500,1,0,0:0:0:0:
246,166,106575,1,0,0:0:0:0:
246,166,106650,1,0,0:0:0:0:
261,181,106800,1,8,0:0:0:0:
256,143,106950,1,8,0:0:0:0:
272,162,107100,1,0,0:0:0:0:
279,157,107400,1,8,0:0:0:0:
256,143,107700,1,0,0:0:0:0:
254,189,108000,1,8,0:0:0:0:
256,128,108150,1,0,0:0:0:0:
256,192,108300,1,0,0:0:0:0:
256,192,108450,1,8,0:0:0:0:
256,192,108750,1,0,0:0:0:0:
256,192,108900,1,8,0:0:0:0:
255,153,108975,1,8,0:0:0:0:
256,192,109050,1,8,0:0:0:0:
256,192,109200,1,0,0:0:0:0:
256,192,109500,1,8,0:0:0:0:
256,192,109800,1,8,0:0:0:0:
256,192,109950,1,8,0:0:0:0:
256,192,110100,1,0,0:0:0:0:
256,160,110400,1,8,0:0:0:0:
256,160,110550,1,0,0:0:0:0:
256,192,110700,1,0,0:0:0:0:
256,192,110850,1,8,0:0:0:0:
256,192,111150,1,8,0:0:0:0:
256,192,111300,1,0,0:0:0:0:
256,192,111375,1,0,0:0:0:0:
256,160,111450,1,0,0:0:0:0:
224,160,111600,1,8,0:0:0:0:
256,192,111750,1,8,0:0:0:0:
256,160,111900,1,0,0:0:0:0:
256,192,112200,1,8,0:0:0:0:
256,160,112500,1,0,0:0:0:0:
256,160,112800,1,8,0:0:0:0:
256,160,112950,1,0,0:0:0:0:
256,160,113100,1,0,0:0:0:0:
256,160,113250,1,8,0:0:0:0:
256,160,113550,1,0,0:0:0:0:
256,160,113700,1,8,0:0:0:0:
255,153,113775,1,8,0:0:0:0:
255,153,113850,1,8,0:0:0:0:
256,192,114000,1,4,0:0:0:0:
256,160,114300,1,8,0:0:0:0:
256,160,114450,1,0,0:0:0:0:
256,160,114600,1,8,0:0:0:0:
256,192,114900,1,0,0:0:0:0:
256,192,115050,1,8,0:0:0:0:
256,160,115350,1,0,0:0:0:0:
256,160,115650,1,8,0:0:0:0:
256,160,115800,1,8,0:0:0:0:
256,160,116400,1,0,0:0:0:0:
256,160,116550,1,0,0:0:0:0:
256,160,116700,1,8,0:0:0:0:
256,128,117000,1,8,0:0:0:0:
256,128,117300,1,0,0:0:0:0:
256,128,117450,1,8,0:0:0:0:
256,160,117750,1,4,0:0:0:0:
256,160,117900,1,4,0:0:0:0:
256,160,118050,1,4,0:0:0:0:
256,160,118350,1,12,0:0:0:0:
256,160,118500,1,12,0:0:0:0:
256,192,118800,1,4,0:0:0:0:
256,160,119100,1,8,0:0:0:0:
256,160,119250,1,0,0:0:0:0:
256,160,119400,1,8,0:0:0:0:
256,192,119700,1,0,0:0:0:0:
256,192,119850,1,8,0:0:0:0:
256,160,120150,1,0,0:0:0:0:
256,160,120450,1,8,0:0:0:0:
256,160,120600,1,8,0:0:0:0:
256,160,121200,1,0,0:0:0:0:
256,160,121350,1,0,0:0:0:0:
256,160,121500,1,8,0:0:0:0:
256,160,121650,1,8,0:0:0:0:
256,192,121950,1,0,0:0:0:0:
256,192,122100,1,0,0:0:0:0:
256,192,122250,1,0,0:0:0:0:
256,192,122550,1,12,0:0:0:0:
256,192,122700,1,12,0:0:0:0:
224,192,122850,1,4,0:0:0:0:
224,192,123000,1,4,0:0:0:0:
256,192,123300,1,8,0:0:0:0:
256,192,123600,1,4,0:0:0:0:
256,192,123900,1,8,0:0:0:0:
256,192,124050,1,0,0:0:0:0:
256,192,124200,1,8,0:0:0:0:
256,160,124350,1,0,0:0:0:0:
256,192,124500,1,8,0:0:0:0:
256,192,124800,1,0,0:0:0:0:
256,160,125100,1,8,0:0:0:0:
256,160,125400,1,0,0:0:0:0:
256,160,125550,1,8,0:0:0:0:
288,160,125700,1,0,0:0:0:0:
288,128,126000,1,8,0:0:0:0:
256,128,126600,1,0,0:0:0:0:
256,128,126900,1,8,0:0:0:0:
256,128,127050,1,8,0:0:0:0:
256,128,127200,1,0,0:0:0:0:
256,128,127500,1,0,0:0:0:0:
256,128,127650,1,8,0:0:0:0:
256,128,127950,1,8,0:0:0:0:
224,160,128100,1,0,0:0:0:0:
288,160,128400,1,8,0:0:0:0:
256,160,128700,1,8,0:0:0:0:
256,160,129000,1,0,0:0:0:0:
256,160,129150,1,0,0:0:0:0:
256,160,129300,1,8,0:0:0:0:
256,160,129450,1,8,0:0:0:0:
288,192,129600,1,0,0:0:0:0:
320,192,129900,1,8,0:0:0:0:
320,160,130200,1,0,0:0:0:0:
320,160,130350,1,0,0:0:0:0:
320,160,130500,1,8,0:0:0:0:
320,160,130800,1,4,0:0:0:0:
288,160,131100,1,8,0:0:0:0:
288,160,131550,1,0,0:0:0:0:
288,160,131700,1,8,0:0:0:0:
288,160,131850,1,8,0:0:0:0:
256,160,132000,1,4,0:0:0:0:
256,160,132150,1,4,0:0:0:0:
256,160,132300,1,12,0:0:0:0:
256,128,132450,1,12,0:0:0:0:
224,128,132750,1,12,0:0:0:0:
224,128,132900,1,12,0:0:0:0:
256,192,133200,1,4,0:0:0:0:
256,192,133500,1,8,0:0:0:0:
256,192,133650,1,8,0:0:0:0:
256,192,133800,1,0,0:0:0:0:
320,160,133950,1,0,0:0:0:0:
256,192,134100,1,8,0:0:0:0:
256,192,134400,1,8,0:0:0:0:
256,192,134550,1,8,0:0:0:0:
256,160,134700,1,0,0:0:0:0:
256,160,135000,1,8,0:0:0:0:
288,160,135300,1,0,0:0:0:0:
320,160,135450,1,8,0:0:0:0:
288,128,135600,1,0,0:0:0:0:
288,128,135750,1,0,0:0:0:0:
288,128,135900,1,8,0:0:0:0:
256,128,136200,1,0,0:0:0:0:
256,128,136500,1,8,0:0:0:0:
256,128,136650,1,8,0:0:0:0:
256,128,136800,1,0,0:0:0:0:
256,128,137100,1,0,0:0:0:0:
256,128,137250,1,8,0:0:0:0:
224,160,137700,1,0,0:0:0:0:
288,160,138000,1,12,0:0:0:0:
256,160,138300,1,0,0:0:0:0:
256,160,138600,1,8,0:0:0:0:
256,160,138750,1,0,0:0:0:0:
256,160,138900,1,8,0:0:0:0:
288,192,139200,1,0,0:0:0:0:
320,192,139500,1,8,0:0:0:0:
320,160,139650,1,0,0:0:0:0:
320,160,139800,1,8,0:0:0:0:
320,160,139950,1,8,0:0:0:0:
320,160,140100,1,0,0:0:0:0:
320,160,140400,1,0,0:0:0:0:
320,160,140550,1,0,0:0:0:0:
288,160,140700,1,8,0:0:0:0:
320,160,141000,1,0,0:0:0:0:
320,160,141150,1,0,0:0:0:0:
320,160,141300,1,8,0:0:0:0:
320,160,141600,1,12,0:0:0:0:
320,160,141900,1,12,0:0:0:0:
320,160,142200,1,12,0:0:0:0:
320,160,142500,1,12,0:0:0:0:
288,160,142800,1,4,0:0:0:0:
256,160,143100,1,8,0:0:0:0:
256,192,143400,1,8,0:0:0:0:
256,160,143550,1,0,0:0:0:0:
256,160,143700,1,8,0:0:0:0:
256,192,144000,1,0,0:0:0:0:
256,160,144300,1,8,0:0:0:0:
256,160,144600,1,8,0:0:0:0:
256,128,144750,1,0,0:0:0:0:
256,128,144900,1,8,0:0:0:0:
256,128,145200,1,4,0:0:0:0:
256,160,145500,1,8,0:0:0:0:
256,160,145650,1,8,0:0:0:0:
256,128,145800,1,0,0:0:0:0:
256,160,146100,1,8,0:0:0:0:
256,128,146400,1,0,0:0:0:0:
256,160,146550,1,0,0:0:0:0:
256,128,146700,1,8,0:0:0:0:
256,160,146850,1,8,0:0:0:0:
256,128,147000,1,0,0:0:0:0:
256,128,147300,1,8,0:0:0:0:
224,160,147600,1,4,0:0:0:0:
224,160,147750,1,4,0:0:0:0:
256,160,148200,1,12,0:0:0:0:
256,160,148350,1,12,0:0:0:0:
256,160,148800,1,4,0:0:0:0:
256,160,148950,1,4,0:0:0:0:
224,160,149400,1,12,0:0:0:0:
224,160,149550,1,12,0:0:0:0:
256,192,150000,1,0,0:0:0:0:
256,192,150150,1,0,0:0:0:0:
256,192,150300,1,8,0:0:0:0:
256,192,150450,1,8,0:0:0:0:
256,192,150600,1,0,0:0:0:0:
256,192,150675,1,0,0:0:0:0:
256,192,150750,1,0,0:0:0:0:
256,160,150900,1,8,0:0:0:0:
256,160,150975,1,8,0:0:0:0:
256,160,151050,1,8,0:0:0:0:
288,192,151200,1,4,0:0:0:0:
256,192,151400,1,4,0:0:0:0:
256,192,151600,1,12,0:0:0:0:
256,192,151800,1,12,0:0:0:0:
256,192,152400,1,4,0:0:0:0:
256,192,152700,1,8,0:0:0:0:
256,192,153000,1,0,0:0:0:0:
256,192,153150,1,0,0:0:0:0:
256,192,153300,1,8,0:0:0:0:
256,192,153600,1,8,0:0:0:0:
256,160,153750,1,8,0:0:0:0:
256,160,153900,1,0,0:0:0:0:
224,160,154050,1,8,0:0:0:0:
224,160,154125,1,8,0:0:0:0:
224,160,154200,1,8,0:0:0:0:
224,160,154350,1,8,0:0:0:0:
224,160,154500,1,0,0:0:0:0:
288,160,154800,1,8,0:0:0:0:
256,160,155100,1,0,0:0:0:0:
224,160,155400,1,0,0:0:0:0:
224,128,155550,1,0,0:0:0:0:
224,160,155700,1,8,0:0:0:0:
256,160,155850,1,0,0:0:0:0:
224,160,156000,1,8,0:0:0:0:
288,160,156300,1,0,0:0:0:0:
288,192,156600,1,8,0:0:0:0:
224,160,156750,1,0,0:0:0:0:
224,160,156900,1,8,0:0:0:0:
288,192,157050,1,0,0:0:0:0:
256,160,157125,1,0,0:0:0:0:
256,160,157200,1,0,0:0:0:0:
224,160,157800,1,8,0:0:0:0:
224,160,158100,1,0,0:0:0:0:
256,160,158250,1,8,0:0:0:0:
256,160,158400,1,0,0:0:0:0:
256,160,158550,1,0,0:0:0:0:
288,160,158700,1,8,0:0:0:0:
256,160,158850,1,8,0:0:0:0:
320,192,159000,1,0,0:0:0:0:
320,192,159300,1,8,0:0:0:0:
320,192,159600,1,4,0:0:0:0:
224,192,159900,1,8,0:0:0:0:
224,192,160350,1,8,0:0:0:0:
224,192,160500,1,8,0:0:0:0:
224,192,160650,1,0,0:0:0:0:
224,192,160800,1,12,0:0:0:0:
224,192,161100,1,12,0:0:0:0:
224,192,161400,1,12,0:0:0:0:
224,192,161700,1,12,0:0:0:0:
256,192,162000,1,4,0:0:0:0:
256,192,162300,1,8,0:0:0:0:
256,192,162600,1,8,0:0:0:0:
256,192,162750,1,0,0:0:0:0:
256,192,162900,1,8,0:0:0:0:
256,192,163200,1,0,0:0:0:0:
256,160,163350,1,0,0:0:0:0:
256,160,163500,1,8,0:0:0:0:
224,160,163650,1,0,0:0:0:0:
224,160,163725,1,0,0:0:0:0:
224,160,163800,1,0,0:0:0:0:
224,160,163950,1,0,0:0:0:0:
224,160,164100,1,8,0:0:0:0:
288,160,164400,1,0,0:0:0:0:
256,160,164700,1,8,0:0:0:0:
224,160,164850,1,8,0:0:0:0:
224,160,165000,1,0,0:0:0:0:
224,128,165150,1,0,0:0:0:0:
224,160,165300,1,8,0:0:0:0:
224,160,165600,1,0,0:0:0:0:
288,160,165900,1,8,0:0:0:0:
288,192,166200,1,8,0:0:0:0:
224,160,166350,1,0,0:0:0:0:
224,160,166500,1,8,0:0:0:0:
288,192,166650,1,8,0:0:0:0:
256,160,166725,1,8,0:0:0:0:
256,160,166800,1,8,0:0:0:0:
256,160,167250,1,0,0:0:0:0:
224,160,167400,1,8,0:0:0:0:
224,160,167700,1,8,0:0:0:0:
256,160,167850,1,8,0:0:0:0:
256,160,168000,1,0,0:0:0:0:
256,160,168150,1,0,0:0:0:0:
288,160,168300,1,8,0:0:0:0:
320,192,168600,1,8,0:0:0:0:
256,160,168750,1,0,0:0:0:0:
320,192,168900,1,8,0:0:0:0:
320,192,169200,1,4,0:0:0:0:
224,192,169500,1,8,0:0:0:0:
224,192,169650,1,8,0:0:0:0:
224,192,169950,1,8,0:0:0:0:
224,192,170100,1,0,0:0:0:0:
224,192,170250,1,0,0:0:0:0:
224,192,170400,1,12,0:0:0:0:
224,192,170700,1,12,0:0:0:0:
224,192,171000,1,12,0:0:0:0:
224,192,171300,1,12,0:0:0:0:
224,160,171600,1,4,0:0:0:0:
224,192,171900,1,8,0:0:0:0:
256,160,172200,1,0,0:0:0:0:
256,160,172350,1,0,0:0:0:0:
224,160,172500,1,8,0:0:0:0:
224,160,172650,1,0,0:0:0:0:
224,160,172950,1,0,0:0:0:0:
224,160,173100,1,8,0:0:0:0:
224,192,173250,1,8,0:0:0:0:
224,192,173400,1,0,0:0:0:0:
224,192,173550,1,8,0:0:0:0:
224,160,173700,1,0,0:0:0:0:
224,224,174000,1,8,0:0:0:0:
224,160,174300,1,0,0:0:0:0:
224,160,174450,1,0,0:0:0:0:
224,192,174600,1,8,0:0:0:0:
256,160,174900,1,8,0:0:0:0:
288,192,175050,1,0,0:0:0:0:
224,192,175200,1,8,0:0:0:0:
256,192,175800,1,8,0:0:0:0:
256,192,175950,1,8,0:0:0:0:
256,192,176100,1,0,0:0:0:0:
256,192,176400,1,12,0:0:0:0:
192,192,176700,1,0,0:0:0:0:
256,160,176850,1,8,0:0:0:0:
256,160,176925,1,8,0:0:0:0:
288,192,177000,1,8,0:0:0:0:
256,192,177150,1,0,0:0:0:0:
224,160,177300,1,0,0:0:0:0:
224,160,177450,1,8,0:0:0:0:
224,160,177750,1,8,0:0:0:0:
224,160,177900,1,0,0:0:0:0:
288,160,178050,1,0,0:0:0:0:
224,160,178200,1,8,0:0:0:0:
224,160,178350,1,0,0:0:0:0:
224,160,178500,1,8,0:0:0:0:
224,160,178800,1,12,0:0:0:0:
224,160,179100,1,0,0:0:0:0:
288,160,179250,1,0,0:0:0:0:
256,160,179400,1,12,0:0:0:0:
256,160,179700,1,0,0:0:0:0:
256,160,179850,1,12,0:0:0:0:
256,160,180150,1,8,0:0:0:0:
256,160,180300,1,0,0:0:0:0:
256,160,180600,1,0,0:0:0:0:
256,160,180675,1,0,0:0:0:0:
256,160,180750,1,0,0:0:0:0:
256,128,180900,1,8,0:0:0:0:
256,128,181200,1,4,0:0:0:0:
256,192,181500,1,0,0:0:0:0:
256,192,181650,1,0,0:0:0:0:
256,192,181800,1,8,0:0:0:0:
256,192,182250,1,0,0:0:0:0:
288,192,182550,1,8,0:0:0:0:
256,160,182700,1,0,0:0:0:0:
256,192,182850,1,0,0:0:0:0:
256,160,183000,1,8,0:0:0:0:
256,160,183300,1,0,0:0:0:0:
256,160,183600,1,8,0:0:0:0:
256,160,183900,1,0,0:0:0:0:
224,160,184050,1,0,0:0:0:0:
256,160,184200,1,8,0:0:0:0:
256,160,184500,1,8,0:0:0:0:
224,160,184650,1,0,0:0:0:0:
256,160,185100,1,8,0:0:0:0:
256,160,185400,1,0,0:0:0:0:
288,160,185550,1,0,0:0:0:0:
288,160,185700,1,8,0:0:0:0:
288,160,186000,1,4,0:0:0:0:
256,192,186300,1,8,0:0:0:0:
256,192,186450,1,0,0:0:0:0:
256,160,186600,1,8,0:0:0:0:
288,160,186750,1,0,0:0:0:0:
256,192,186900,1,8,0:0:0:0:
256,192,187200,1,0,0:0:0:0:
256,192,187500,1,8,0:0:0:0:
288,160,187650,1,0,0:0:0:0:
256,192,187800,1,0,0:0:0:0:
288,160,187950,1,0,0:0:0:0:
256,192,188100,1,8,0:0:0:0:
256,192,188400,1,0,0:0:0:0:
256,192,188700,1,8,0:0:0:0:
288,160,189000,1,0,0:0:0:0:
288,160,189150,1,0,0:0:0:0:
288,160,189300,1,8,0:0:0:0:
288,160,189600,1,0,0:0:0:0:
288,128,189900,1,8,0:0:0:0:
320,128,190050,1,8,0:0:0:0:
288,160,190200,1,0,0:0:0:0:
288,128,190500,1,8,0:0:0:0:
320,192,190800,1,4,0:0:0:0:
320,192,191400,1,0,0:0:0:0:
320,192,191700,1,0,0:0:0:0:
288,192,192000,1,8,0:0:0:0:
288,192,192300,1,0,0:0:0:0:
256,192,192600,1,0,0:0:0:0:
256,192,192900,1,0,0:0:0:0:
256,192,193200,1,8,0:0:0:0:
256,192,193500,1,0,0:0:0:0:
256,192,193800,1,0,0:0:0:0:
256,192,194100,1,0,0:0:0:0:
288,160,194400,1,12,0:0:0:0:
288,160,194550,1,12,0:0:0:0:
288,160,194700,1,12,0:0:0:0:
288,160,194850,1,12,0:0:0:0:
256,128,195150,1,4,0:0:0:0:
256,128,195450,1,12,0:0:0:0:
256,192,195900,1,0,0:0:0:0:
256,128,196200,1,8,0:0:0:0:
288,192,196350,1,8,0:0:0:0:
256,160,196500,1,0,0:0:0:0:
256,160,196800,1,8,0:0:0:0:
256,128,196950,1,0,0:0:0:0:
256,128,197100,1,0,0:0:0:0:
256,128,197250,1,8,0:0:0:0:
224,128,197550,1,0,0:0:0:0:
256,128,197700,1,8,0:0:0:0:
256,192,198000,1,0,0:0:0:0:
256,192,198300,1,8,0:0:0:0:
256,192,198600,1,0,0:0:0:0:
256,160,198750,1,0,0:0:0:0:
256,160,198900,1,8,0:0:0:0:
288,160,199200,1,8,0:0:0:0:
288,160,199350,1,8,0:0:0:0:
288,160,199500,1,0,0:0:0:0:
288,128,199650,1,8,0:0:0:0:
288,128,199950,1,8,0:0:0:0:
288,128,200100,1,0,0:0:0:0:
288,128,200250,1,12,0:0:0:0:
256,128,200700,1,8,0:0:0:0:
256,128,200850,1,0,0:0:0:0:
256,128,200925,1,0,0:0:0:0:
256,128,201000,1,0,0:0:0:0:
256,128,201150,1,0,0:0:0:0:
256,128,201300,1,8,0:0:0:0:
256,128,201450,1,8,0:0:0:0:
256,128,201750,1,0,0:0:0:0:
256,128,201900,1,8,0:0:0:0:
256,128,202200,1,8,0:0:0:0:
256,128,202350,1,0,0:0:0:0:
256,128,202500,1,0,0:0:0:0:
256,128,202650,1,12,0:0:0:0:
256,128,203100,1,0,0:0:0:0:
256,128,203250,1,8,0:0:0:0:
288,192,203325,1,8,0:0:0:0:
288,192,203400,1,8,0:0:0:0:
256,128,203550,1,8,0:0:0:0:
288,192,203700,1,0,0:0:0:0:
256,128,203850,1,8,0:0:0:0:
288,192,204150,1,12,0:0:0:0:
288,192,204450,1,12,0:0:0:0:
288,192,204750,1,12,0:0:0:0:
288,192,205050,1,4,0:0:0:0:
288,192,205500,1,8,0:0:0:0:
320,256,205800,1,0,0:0:0:0:
288,192,205950,1,0,0:0:0:0:
288,192,206100,1,8,0:0:0:0:
288,192,206400,1,8,0:0:0:0:
256,160,206550,1,0,0:0:0:0:
320,192,206700,1,8,0:0:0:0:
320,192,206850,1,0,0:0:0:0:
288,192,207150,1,0,0:0:0:0:
288,192,207300,1,8,0:0:0:0:
256,160,207450,1,8,0:0:0:0:
256,160,207525,1,8,0:0:0:0:
288,192,207600,1,8,0:0:0:0:
256,160,207750,1,0,0:0:0:0:
288,192,207900,1,0,0:0:0:0:
288,160,208050,1,8,0:0:0:0:
256,160,208350,1,8,0:0:0:0:
256,160,208500,1,0,0:0:0:0:
256,160,208650,1,0,0:0:0:0:
256,160,208725,1,0,0:0:0:0:
256,160,208800,1,0,0:0:0:0:
256,160,209100,1,8,0:0:0:0:
256,160,209400,1,0,0:0:0:0:
256,160,209550,1,8,0:0:0:0:
256,160,209700,1,8,0:0:0:0:
256,160,209850,1,4,0:0:0:0:
288,192,210300,1,0,0:0:0:0:
288,192,210600,1,8,0:0:0:0:
288,192,210900,1,0,0:0:0:0:
288,192,211050,1,0,0:0:0:0:
288,192,211200,1,8,0:0:0:0:
288,192,211500,1,0,0:0:0:0:
288,192,211800,1,8,0:0:0:0:
288,192,211950,1,8,0:0:0:0:
288,192,212100,1,0,0:0:0:0:
288,160,212400,1,12,0:0:0:0:
288,192,212700,1,0,0:0:0:0:
288,192,212850,1,12,0:0:0:0:
288,160,213150,1,0,0:0:0:0:
288,192,213300,1,12,0:0:0:0:
288,192,213750,1,12,0:0:0:0:
288,192,213900,1,12,0:0:0:0:
288,192,214050,1,12,0:0:0:0:
320,160,214200,1,12,0:0:0:0:
256,192,214800,1,0,0:0:0:0:
288,192,214950,1,0,0:0:0:0:
256,192,215100,1,8,0:0:0:0:
256,192,215250,1,8,0:0:0:0:
256,192,215400,1,0,0:0:0:0:
288,192,215550,1,0,0:0:0:0:
288,192,215700,1,8,0:0:0:0:
288,192,216000,1,8,0:0:0:0:
320,192,216150,1,0,0:0:0:0:
288,192,216300,1,0,0:0:0:0:
352,192,216375,1,0,0:0:0:0:
288,192,216450,1,0,0:0:0:0:
256,192,216600,1,8,0:0:0:0:
288,192,216750,1,0,0:0:0:0:
288,192,216900,1,8,0:0:0:0:
288,192,216975,1,8,0:0:0:0:
288,192,217050,1,8,0:0:0:0:
256,192,217200,1,4,0:0:0:0:
256,192,217500,1,8,0:0:0:0:
256,192,217800,1,0,0:0:0:0:
256,192,217950,1,0,0:0:0:0:
256,192,218100,1,8,0:0:0:0:
256,192,218400,1,8,0:0:0:0:
256,160,218550,1,8,0:0:0:0:
256,160,218700,1,0,0:0:0:0:
224,160,218850,1,8,0:0:0:0:
224,160,218925,1,8,0:0:0:0:
224,160,219000,1,8,0:0:0:0:
224,160,219150,1,8,0:0:0:0:
224,160,219300,1,0,0:0:0:0:
288,160,219600,1,8,0:0:0:0:
256,160,219900,1,0,0:0:0:0:
224,160,220200,1,0,0:0:0:0:
224,128,220350,1,0,0:0:0:0:
224,160,220500,1,8,0:0:0:0:
256,160,220650,1,0,0:0:0:0:
224,160,220800,1,8,0:0:0:0:
288,160,221100,1,0,0:0:0:0:
288,192,221400,1,8,0:0:0:0:
224,160,221550,1,0,0:0:0:0:
224,160,221700,1,8,0:0:0:0:
288,192,221850,1,0,0:0:0:0:
256,160,221925,1,0,0:0:0:0:
256,160,222000,1,0,0:0:0:0:
224,160,222450,1,8,0:0:0:0:
224,160,222600,1,8,0:0:0:0:
224,160,222900,1,0,0:0:0:0:
256,160,223050,1,8,0:0:0:0:
256,160,223200,1,0,0:0:0:0:
256,160,223350,1,0,0:0:0:0:
288,160,223500,1,8,0:0:0:0:
256,160,223650,1,8,0:0:0:0:
320,192,223800,1,0,0:0:0:0:
320,192,224100,1,8,0:0:0:0:
320,192,224400,1,4,0:0:0:0:
224,192,224700,1,8,0:0:0:0:
224,192,225150,1,8,0:0:0:0:
224,192,225300,1,8,0:0:0:0:
224,192,225450,1,0,0:0:0:0:
224,192,225600,1,12,0:0:0:0:
224,192,225900,1,12,0:0:0:0:
224,192,226200,1,12,0:0:0:0:
224,192,226500,1,12,0:0:0:0:
256,192,226800,1,4,0:0:0:0:
256,192,227100,1,8,0:0:0:0:
256,192,227400,1,8,0:0:0:0:
256,192,227550,1,0,0:0:0:0:
256,192,227700,1,8,0:0:0:0:
256,192,228000,1,0,0:0:0:0:
256,160,228150,1,0,0:0:0:0:
256,160,228300,1,8,0:0:0:0:
224,160,228450,1,0,0:0:0:0:
224,160,228525,1,0,0:0:0:0:
224,160,228600,1,0,0:0:0:0:
224,160,228750,1,0,0:0:0:0:
224,160,228900,1,8,0:0:0:0:
288,160,229200,1,0,0:0:0:0:
256,160,229500,1,8,0:0:0:0:
224,160,229650,1,8,0:0:0:0:
224,160,229800,1,0,0:0:0:0:
224,128,229950,1,0,0:0:0:0:
224,160,230100,1,8,0:0:0:0:
224,160,230400,1,0,0:0:0:0:
288,160,230700,1,8,0:0:0:0:
288,192,231000,1,8,0:0:0:0:
224,160,231150,1,0,0:0:0:0:
224,160,231300,1,8,0:0:0:0:
288,192,231450,1,8,0:0:0:0:
256,160,231525,1,8,0:0:0:0:
256,160,231600,1,8,0:0:0:0:
256,160,232050,1,0,0:0:0:0:
224,160,232200,1,8,0:0:0:0:
224,160,232500,1,8,0:0:0:0:
256,160,232650,1,8,0:0:0:0:
256,160,232800,1,0,0:0:0:0:
256,160,232950,1,0,0:0:0:0:
288,160,233100,1,8,0:0:0:0:
320,192,233400,1,8,0:0:0:0:
256,160,233550,1,0,0:0:0:0:
320,192,233700,1,8,0:0:0:0:
320,192,234000,1,4,0:0:0:0:
224,192,234300,1,8,0:0:0:0:
224,192,234450,1,8,0:0:0:0:
224,192,234750,1,8,0:0:0:0:
224,192,234900,1,0,0:0:0:0:
224,192,235050,1,0,0:0:0:0:
224,192,235200,1,12,0:0:0:0:
224,192,235500,1,12,0:0:0:0:
224,192,235800,1,12,0:0:0:0:
224,192,236100,1,12,0:0:0:0:
224,160,236400,1,4,0:0:0:0:
224,192,236700,1,8,0:0:0:0:
256,160,237000,1,0,0:0:0:0:
256,160,237150,1,0,0:0:0:0:
224,160,237300,1,8,0:0:0:0:
224,160,237450,1,0,0:0:0:0:
224,160,237750,1,0,0:0:0:0:
224,160,237900,1,8,0:0:0:0:
224,192,238050,1,8,0:0:0:0:
224,192,238200,1,0,0:0:0:0:
224,192,238350,1,8,0:0:0:0:
224,160,238500,1,0,0:0:0:0:
224,224,238800,1,8,0:0:0:0:
224,160,239100,1,0,0:0:0:0:
224,160,239250,1,0,0:0:0:0:
224,192,239400,1,8,0:0:0:0:
256,160,239700,1,8,0:0:0:0:
288,192,239850,1,0,0:0:0:0:
224,192,240000,1,8,0:0:0:0:
256,192,240600,1,8,0:0:0:0:
256,192,240750,1,8,0:0:0:0:
256,192,240900,1,0,0:0:0:0:
256,192,241200,1,12,0:0:0:0:
192,192,241500,1,0,0:0:0:0:
256,160,241650,1,8,0:0:0:0:
256,160,241725,1,8,0:0:0:0:
288,192,241800,1,8,0:0:0:0:
256,192,241950,1,0,0:0:0:0:
224,160,242100,1,0,0:0:0:0:
224,160,242250,1,8,0:0:0:0:
224,160,242550,1,8,0:0:0:0:
224,160,242700,1,0,0:0:0:0:
288,160,242850,1,0,0:0:0:0:
224,160,243000,1,8,0:0:0:0:
224,160,243150,1,0,0:0:0:0:
224,160,243300,1,8,0:0:0:0:
224,160,243600,1,12,0:0:0:0:
224,160,243900,1,0,0:0:0:0:
288,160,244050,1,0,0:0:0:0:
256,160,244200,1,12,0:0:0:0:
256,160,244500,1,0,0:0:0:0:
256,160,244650,1,12,0:0:0:0:
256,160,244950,1,8,0:0:0:0:
256,160,245100,1,0,0:0:0:0:
256,160,245400,1,0,0:0:0:0:
256,160,245475,1,0,0:0:0:0:
256,160,245550,1,0,0:0:0:0:
256,128,245700,1,8,0:0:0:0:
256,128,246000,1,4,0:0:0:0:
256,192,246300,1,0,0:0:0:0:
256,192,246450,1,0,0:0:0:0:
256,192,246600,1,8,0:0:0:0:
256,192,247050,1,0,0:0:0:0:
288,192,247350,1,8,0:0:0:0:
256,160,247500,1,0,0:0:0:0:
256,192,247650,1,0,0:0:0:0:
256,160,247800,1,8,0:0:0:0:
256,160,248100,1,0,0:0:0:0:
256,160,248400,1,8,0:0:0:0:
256,160,248700,1,0,0:0:0:0:
224,160,248850,1,0,0:0:0:0:
256,160,249000,1,8,0:0:0:0:
256,160,249300,1,8,0:0:0:0:
224,160,249450,1,0,0:0:0:0:
256,160,249900,1,8,0:0:0:0:
256,160,250200,1,0,0:0:0:0:
288,160,250350,1,0,0:0:0:0:
288,160,250500,1,8,0:0:0:0:
288,160,250800,1,4,0:0:0:0:
256,192,251100,1,8,0:0:0:0:
256,192,251250,1,0,0:0:0:0:
256,160,251400,1,8,0:0:0:0:
288,160,251550,1,0,0:0:0:0:
256,192,251700,1,8,0:0:0:0:
256,192,252000,1,0,0:0:0:0:
256,192,252300,1,8,0:0:0:0:
288,160,252450,1,0,0:0:0:0:
256,192,252600,1,0,0:0:0:0:
288,160,252750,1,0,0:0:0:0:
256,192,252900,1,8,0:0:0:0:
256,192,253200,1,0,0:0:0:0:
256,192,253500,1,8,0:0:0:0:
288,160,253800,1,0,0:0:0:0:
288,160,253950,1,0,0:0:0:0:
288,160,254100,1,8,0:0:0:0:
288,160,254400,1,0,0:0:0:0:
288,128,254700,1,8,0:0:0:0:
320,128,254850,1,8,0:0:0:0:
288,160,255000,1,0,0:0:0:0:
288,128,255300,1,8,0:0:0:0:
288,160,255600,1,4,0:0:0:0:
256,192,255900,1,8,0:0:0:0:
256,192,256500,1,8,0:0:0:0:
256,192,256800,1,0,0:0:0:0:
256,192,257100,1,8,0:0:0:0:
288,160,257250,1,0,0:0:0:0:
288,160,257325,1,0,0:0:0:0:
256,192,257400,1,0,0:0:0:0:
288,160,257550,1,0,0:0:0:0:
256,192,257700,1,8,0:0:0:0:
256,192,258000,1,0,0:0:0:0:
256,192,258300,1,8,0:0:0:0:
288,160,258450,1,8,0:0:0:0:
288,160,258600,1,0,0:0:0:0:
288,160,258900,1,8,0:0:0:0:
288,160,259200,1,0,0:0:0:0:
288,160,259350,1,8,0:0:0:0:
288,160,259425,1,8,0:0:0:0:
288,128,259500,1,8,0:0:0:0:
320,128,259650,1,8,0:0:0:0:
288,160,259800,1,0,0:0:0:0:
288,128,260100,1,8,0:0:0:0:
261,174,260400,1,4,0:0:0:0:
261,174,260700,1,8,0:0:0:0:
255,153,261000,1,8,0:0:0:0:
256,143,261150,1,8,0:0:0:0:
256,143,261300,1,0,0:0:0:0:
261,181,261600,1,8,0:0:0:0:
256,192,261750,1,0,0:0:0:0:
261,181,261900,1,0,0:0:0:0:
261,181,262050,1,8,0:0:0:0:
261,181,262350,1,8,0:0:0:0:
261,181,262500,1,0,0:0:0:0:
246,166,262575,1,0,0:0:0:0:
246,166,262650,1,0,0:0:0:0:
261,181,262800,1,8,0:0:0:0:
256,143,262950,1,8,0:0:0:0:
272,162,263100,1,0,0:0:0:0:
279,157,263400,1,8,0:0:0:0:
256,143,263700,1,0,0:0:0:0:
254,189,264000,1,8,0:0:0:0:
256,128,264150,1,0,0:0:0:0:
256,192,264300,1,0,0:0:0:0:
256,192,264450,1,8,0:0:0:0:
256,192,264750,1,0,0:0:0:0:
256,192,264900,1,8,0:0:0:0:
255,153,264975,1,8,0:0:0:0:
256,192,265050,1,8,0:0:0:0:
256,192,265200,1,0,0:0:0:0:
256,192,265500,1,8,0:0:0:0:
256,192,265800,1,8,0:0:0:0:
256,192,265950,1,8,0:0:0:0:
256,192,266100,1,0,0:0:0:0:
256,160,266400,1,8,0:0:0:0:
256,160,266550,1,0,0:0:0:0:
256,192,266700,1,0,0:0:0:0:
256,192,266850,1,8,0:0:0:0:
256,192,267150,1,8,0:0:0:0:
256,192,267300,1,0,0:0:0:0:
256,192,267375,1,0,0:0:0:0:
256,160,267450,1,0,0:0:0:0:
224,160,267600,1,8,0:0:0:0:
256,192,267750,1,8,0:0:0:0:
256,160,267900,1,0,0:0:0:0:
256,192,268200,1,8,0:0:0:0:
256,160,268500,1,0,0:0:0:0:
256,160,268800,1,8,0:0:0:0:
256,160,268950,1,0,0:0:0:0:
256,160,269100,1,0,0:0:0:0:
256,160,269250,1,8,0:0:0:0:
256,160,269550,1,0,0:0:0:0:
256,160,269700,1,8,0:0:0:0:
255,153,269775,1,8,0:0:0:0:
255,153,269850,1,8,0:0:0:0:
261,174,270000,1,4,0:0:0:0:
261,174,270300,1,8,0:0:0:0:
255,153,270600,1,8,0:0:0:0:
256,143,270750,1,8,0:0:0:0:
256,143,270900,1,0,0:0:0:0:
261,181,271200,1,8,0:0:0:0:
256,192,271350,1,0,0:0:0:0:
261,181,271500,1,0,0:0:0:0:
261,181,271650,1,8,0:0:0:0:
261,181,271950,1,8,0:0:0:0:
261,181,272100,1,0,0:0:0:0:
246,166,272175,1,0,0:0:0:0:
246,166,272250,1,0,0:0:0:0:
261,181,272400,1,8,0:0:0:0:
256,143,272550,1,8,0:0:0:0:
272,162,272700,1,0,0:0:0:0:
279,157,273000,1,8,0:0:0:0:
256,143,273300,1,0,0:0:0:0:
254,189,273600,1,8,0:0:0:0:
256,128,273750,1,0,0:0:0:0:
256,192,273900,1,0,0:0:0:0:
256,192,274050,1,8,0:0:0:0:
256,192,274350,1,0,0:0:0:0:
256,192,274500,1,8,0:0:0:0:
255,153,274575,1,8,0:0:0:0:
256,192,274650,1,8,0:0:0:0:
256,192,274800,1,0,0:0:0:0:
256,192,275100,1,8,0:0:0:0:
256,192,275400,1,8,0:0:0:0:
256,192,275550,1,8,0:0:0:0:
256,192,275700,1,0,0:0:0:0:
256,160,276000,1,8,0:0:0:0:
256,160,276150,1,0,0:0:0:0:
256,192,276300,1,0,0:0:0:0:
256,192,276450,1,8,0:0:0:0:
256,192,276750,1,8,0:0:0:0:
256,192,276900,1,0,0:0:0:0:
256,192,276975,1,0,0:0:0:0:
256,160,277050,1,0,0:0:0:0:
224,160,277200,1,8,0:0:0:0:
256,192,277350,1,8,0:0:0:0:
256,160,277500,1,0,0:0:0:0:
256,192,277800,1,8,0:0:0:0:
256,160,278100,1,0,0:0:0:0:
256,160,278400,1,8,0:0:0:0:
256,160,278550,1,0,0:0:0:0:
256,160,278700,1,0,0:0:0:0:
256,160,278850,1,8,0:0:0:0:
256,160,279150,1,0,0:0:0:0:
256,160,279300,1,8,0:0:0:0:
255,153,279375,1,8,0:0:0:0:
255,153,279450,1,8,0:0:0:0:
256,160,280200,1,4,0:0:0:0:
256,160,280500,1,4,0:0:0:0:
256,192,280800,12,0,285600,0:0:0:0:
