osu file format v14

[General]
AudioFilename: audio.mp3
AudioLeadIn: 0
PreviewTime: 134715
Countdown: 1
SampleSet: Normal
StackLeniency: 0.7
Mode: 1
LetterboxInBreaks: 0
WidescreenStoryboard: 1

[Editor]
Bookmarks: 267743
DistanceSpacing: 0.1
BeatDivisor: 4
GridSize: 32
TimelineZoom: 1

[Metadata]
Title:Neptune*Sagashite (you & Asterisk Remix)
TitleUnicode:ネプテューヌ☆サガして(you & Asterisk Remix)
Artist:Afilia Saga
ArtistUnicode:アフィリア・サーガ
Creator:Naryuga
Version:Muzukashii
Source:超次元ゲイムネプテューヌ
Tags:Hyperdimension Neptunia Anime
BeatmapID:1029842
BeatmapSetID:482643

[Difficulty]
HPDrainRate:5
CircleSize:5
OverallDifficulty:5
ApproachRate:5
SliderMultiplier:1.4
SliderTickRate:1

[Events]
//Background and Video events
0,0,"wallpaper1280x960.jpg",0,100
//Break Periods
//Storyboard Layer 0 (Background)
//Storyboard Layer 1 (Fail)
//Storyboard Layer 2 (Pass)
//Storyboard Layer 3 (Foreground)
//Storyboard Sound Samples

[TimingPoints]
312,342.857142857143,4,1,0,80,1,0
46940,-100,4,2,0,50,0,0
56540,-100,4,1,0,80,0,0
68883,-100,4,1,0,80,0,1
90826,-100,4,1,0,80,0,0
134712,-100,4,1,0,80,0,1
156654,-100,4,1,0,80,0,0
179969,-125,4,1,0,80,0,0
189569,-111.111111111111,4,1,0,80,0,0
190940,-100,4,1,0,80,0,0
201912,-100,4,1,0,80,0,1
223854,-100,4,1,0,80,0,0

[HitObjects]
252,192,312,5,4,0:0:0:0:
256,192,483,1,0,0:0:0:0:
256,192,826,1,0,0:0:0:0:
256,192,1169,1,0,0:0:0:0:
256,192,1340,1,8,0:0:0:0:
256,192,1683,1,0,0:0:0:0:
256,192,1940,1,0,0:0:0:0:
256,192,2197,1,0,0:0:0:0:
256,192,2369,1,8,0:0:0:0:
256,192,2712,1,8,0:0:0:0:
256,192,3054,1,0,0:0:0:0:
256,192,3226,1,0,0:0:0:0:
256,192,3397,1,0,0:0:0:0:
256,192,3912,1,0,0:0:0:0:
256,192,4083,1,8,0:0:0:0:
256,192,4426,1,0,0:0:0:0:
256,192,4769,1,0,0:0:0:0:
256,192,4940,1,0,0:0:0:0:
256,192,5112,1,8,0:0:0:0:
256,192,5454,1,8,0:0:0:0:
252,192,5797,1,0,0:0:0:0:
256,192,5969,1,0,0:0:0:0:
256,192,6312,1,0,0:0:0:0:
256,192,6654,1,0,0:0:0:0:
256,192,6826,1,8,0:0:0:0:
256,192,7169,1,0,0:0:0:0:
256,192,7426,1,0,0:0:0:0:
256,192,7683,1,0,0:0:0:0:
256,192,7854,1,8,0:0:0:0:
256,192,8197,1,8,0:0:0:0:
256,192,8540,1,0,0:0:0:0:
256,192,8712,1,0,0:0:0:0:
256,192,8883,1,0,0:0:0:0:
256,192,9226,1,8,0:0:0:0:
256,192,9569,1,8,0:0:0:0:
256,192,9912,1,4,0:0:0:0:
256,192,11283,1,0,0:0:0:0:
256,192,11454,1,0,0:0:0:0:
256,192,11797,1,0,0:0:0:0:
256,192,12140,1,0,0:0:0:0:
256,192,12312,1,8,0:0:0:0:
256,192,12654,1,0,0:0:0:0:
256,192,12912,1,0,0:0:0:0:
256,192,13169,1,0,0:0:0:0:
256,192,13340,1,8,0:0:0:0:
256,192,13683,1,8,0:0:0:0:
256,192,14026,1,0,0:0:0:0:
256,192,14197,1,0,0:0:0:0:
256,192,14369,1,8,0:0:0:0:
256,192,14712,1,0,0:0:0:0:
256,192,15054,1,8,0:0:0:0:
256,192,15226,1,8,0:0:0:0:
256,192,15397,1,0,0:0:0:0:
256,192,15740,1,8,0:0:0:0:
256,192,15912,1,0,0:0:0:0:
256,192,16083,1,8,0:0:0:0:
256,192,16426,1,8,0:0:0:0:
256,192,16769,1,0,0:0:0:0:
256,192,16940,1,0,0:0:0:0:
256,192,17283,1,0,0:0:0:0:
256,192,17626,1,0,0:0:0:0:
256,192,17797,1,8,0:0:0:0:
256,192,18140,1,0,0:0:0:0:
256,192,18397,1,0,0:0:0:0:
256,192,18654,1,0,0:0:0:0:
256,192,18826,1,8,0:0:0:0:
256,192,19169,1,8,0:0:0:0:
256,192,19512,1,0,0:0:0:0:
256,192,19683,1,0,0:0:0:0:
256,192,19854,1,8,0:0:0:0:
256,192,20197,1,0,0:0:0:0:
256,192,20369,1,0,0:0:0:0:
256,192,20540,1,8,0:0:0:0:
256,192,20712,1,8,0:0:0:0:
256,192,20883,1,0,0:0:0:0:
256,192,21569,1,0,0:0:0:0:
256,192,21740,1,0,0:0:0:0:
256,192,21912,1,14,0:0:0:0:
256,192,22254,1,4,0:0:0:0:
256,192,22597,1,8,0:0:0:0:
256,192,22940,1,0,0:0:0:0:
256,192,23112,1,0,0:0:0:0:
256,192,23283,1,8,0:0:0:0:
256,192,23454,1,0,0:0:0:0:
256,192,23626,1,0,0:0:0:0:
256,192,23969,1,8,0:0:0:0:
256,192,24312,1,0,0:0:0:0:
256,192,24483,1,0,0:0:0:0:
256,192,24654,1,8,0:0:0:0:
256,192,24826,1,8,0:0:0:0:
256,192,24997,1,0,0:0:0:0:
256,192,25340,1,8,0:0:0:0:
256,192,25683,1,0,0:0:0:0:
256,192,25854,1,0,0:0:0:0:
256,192,26026,1,8,0:0:0:0:
256,192,26197,1,0,0:0:0:0:
256,192,26369,1,0,0:0:0:0:
256,192,26712,1,8,0:0:0:0:
256,192,27054,1,0,0:0:0:0:
256,192,27397,1,8,0:0:0:0:
256,192,27569,1,8,0:0:0:0:
256,192,27740,1,0,0:0:0:0:
256,192,28083,1,8,0:0:0:0:
256,192,28426,1,0,0:0:0:0:
256,192,28597,1,0,0:0:0:0:
256,192,28769,1,8,0:0:0:0:
256,192,28940,1,0,0:0:0:0:
256,192,29112,1,0,0:0:0:0:
256,192,29454,1,8,0:0:0:0:
256,192,29797,1,0,0:0:0:0:
256,192,29969,1,0,0:0:0:0:
256,192,30140,1,8,0:0:0:0:
256,192,30312,1,8,0:0:0:0:
256,192,30483,1,0,0:0:0:0:
256,192,30826,1,8,0:0:0:0:
256,192,31169,1,0,0:0:0:0:
256,192,31340,1,0,0:0:0:0:
256,192,31512,1,8,0:0:0:0:
256,192,31683,1,0,0:0:0:0:
256,192,31854,1,14,0:0:0:0:
256,192,32540,1,0,0:0:0:0:
256,192,32712,1,0,0:0:0:0:
256,192,32883,1,8,0:0:0:0:
256,192,33226,1,4,0:0:0:0:
256,192,33569,1,8,0:0:0:0:
256,192,33912,1,0,0:0:0:0:
256,192,34083,1,0,0:0:0:0:
256,192,34254,1,8,0:0:0:0:
256,192,34426,1,0,0:0:0:0:
256,192,34597,1,0,0:0:0:0:
256,192,34940,1,8,0:0:0:0:
256,192,35283,1,0,0:0:0:0:
256,192,35454,1,0,0:0:0:0:
256,192,35626,1,8,0:0:0:0:
256,192,35797,1,8,0:0:0:0:
256,192,35969,1,0,0:0:0:0:
256,192,36312,1,8,0:0:0:0:
256,192,36654,1,0,0:0:0:0:
256,192,36826,1,0,0:0:0:0:
256,192,36997,1,8,0:0:0:0:
256,192,37169,1,0,0:0:0:0:
256,192,37340,1,0,0:0:0:0:
256,192,37683,1,8,0:0:0:0:
256,192,37854,1,8,0:0:0:0:
256,192,38026,1,0,0:0:0:0:
256,192,38197,1,0,0:0:0:0:
256,192,38369,1,8,0:0:0:0:
256,192,38712,1,0,0:0:0:0:
256,192,39054,1,8,0:0:0:0:
256,192,39140,1,8,0:0:0:0:
256,192,39226,1,8,0:0:0:0:
256,192,39397,1,0,0:0:0:0:
256,192,39569,1,0,0:0:0:0:
256,192,39740,1,0,0:0:0:0:
256,192,40083,1,0,0:0:0:0:
256,192,40426,1,8,0:0:0:0:
256,192,40512,1,8,0:0:0:0:
256,192,40597,1,8,0:0:0:0:
256,192,40769,1,0,0:0:0:0:
256,192,40940,1,0,0:0:0:0:
256,192,41112,1,0,0:0:0:0:
256,192,41454,1,0,0:0:0:0:
256,192,41797,1,8,0:0:0:0:
256,192,42140,1,0,0:0:0:0:
256,192,42312,1,0,0:0:0:0:
256,192,42483,1,8,0:0:0:0:
256,192,42569,1,8,0:0:0:0:
256,192,42654,1,8,0:0:0:0:
256,192,42826,1,4,0:0:0:0:
256,192,43169,1,0,0:0:0:0:
256,192,43512,1,8,0:0:0:0:
256,192,43769,1,8,0:0:0:0:
256,192,44026,1,8,0:0:0:0:
256,192,44197,1,4,0:0:0:0:
256,192,46940,1,4,0:1:0:0:
256,192,47626,1,8,0:0:0:0:
256,192,47969,1,0,0:0:0:0:
256,192,48312,1,0,0:0:0:0:
256,192,48654,1,0,0:0:0:0:
256,192,48997,1,8,0:0:0:0:
256,192,49340,1,0,0:0:0:0:
256,192,49683,1,0,0:0:0:0:
256,192,50369,1,8,0:0:0:0:
256,192,50712,1,0,0:0:0:0:
256,192,51054,1,8,0:0:0:0:
256,192,51740,1,0,0:0:0:0:
256,192,52083,1,8,0:0:0:0:
256,192,52426,1,0,0:0:0:0:
256,192,53112,1,8,0:0:0:0:
256,192,53454,1,0,0:0:0:0:
256,192,53797,1,0,0:0:0:0:
256,192,54140,1,0,0:0:0:0:
256,192,54483,1,8,0:0:0:0:
256,192,54826,1,0,0:0:0:0:
256,192,55169,1,0,0:0:0:0:
256,192,55854,1,8,0:0:0:0:
256,192,56197,1,0,0:0:0:0:
256,192,56540,1,4,0:0:0:0:
256,192,57226,1,8,0:0:0:0:
256,192,57569,1,0,0:0:0:0:
256,192,58083,1,4,0:0:0:0:
256,192,58254,1,4,0:0:0:0:
256,192,58597,1,8,0:0:0:0:
256,192,58940,1,0,0:0:0:0:
256,192,59112,1,8,0:0:0:0:
256,192,59454,1,4,0:0:0:0:
256,192,59626,1,4,0:0:0:0:
256,192,59969,1,8,0:0:0:0:
256,192,60312,1,0,0:0:0:0:
256,192,60483,1,8,0:0:0:0:
256,192,60654,1,4,0:0:0:0:
256,192,60997,1,8,0:0:0:0:
256,192,61340,1,0,0:0:0:0:
256,192,61512,1,0,0:0:0:0:
256,192,61683,1,8,0:0:0:0:
256,192,62026,1,14,0:0:0:0:
256,192,62369,1,0,0:0:0:0:
256,192,62540,1,0,0:0:0:0:
256,192,62712,1,8,0:0:0:0:
256,192,63054,1,8,0:0:0:0:
256,192,63569,1,14,0:0:0:0:
256,192,63740,1,14,0:0:0:0:
256,192,64083,1,0,0:0:0:0:
256,192,64426,1,8,0:0:0:0:
256,192,64597,1,0,0:0:0:0:
256,192,64940,1,14,0:0:0:0:
256,192,65112,1,14,0:0:0:0:
256,192,65454,1,0,0:0:0:0:
256,192,65797,1,8,0:0:0:0:
256,192,65969,1,0,0:0:0:0:
256,192,66140,1,0,0:0:0:0:
256,192,66483,1,14,0:0:0:0:
256,192,66826,1,14,0:0:0:0:
256,192,67169,1,0,0:0:0:0:
256,192,67340,1,0,0:0:0:0:
256,192,67512,1,14,0:0:0:0:
256,192,67854,1,14,0:0:0:0:
256,192,68540,1,8,0:0:0:0:
256,192,68883,1,0,0:0:0:0:
256,192,69054,1,0,0:0:0:0:
256,192,69226,1,8,0:0:0:0:
256,192,69569,1,0,0:0:0:0:
256,192,69740,1,0,0:0:0:0:
256,192,69912,1,8,0:0:0:0:
256,192,70254,1,0,0:0:0:0:
256,192,70426,1,0,0:0:0:0:
256,192,70597,1,8,0:0:0:0:
256,192,70940,1,8,0:0:0:0:
256,192,71283,1,8,0:0:0:0:
256,192,71454,1,0,0:0:0:0:
256,192,71626,1,0,0:0:0:0:
256,192,71969,1,8,0:0:0:0:
256,192,72312,1,8,0:0:0:0:
256,192,72654,1,0,0:0:0:0:
256,192,72826,1,0,0:0:0:0:
256,192,72997,1,8,0:0:0:0:
256,192,73169,1,0,0:0:0:0:
256,192,73340,1,8,0:0:0:0:
256,192,73683,1,8,0:0:0:0:
256,192,74369,1,0,0:0:0:0:
256,192,74540,1,0,0:0:0:0:
256,192,74712,1,8,0:0:0:0:
256,192,75054,1,0,0:0:0:0:
256,192,75226,1,0,0:0:0:0:
256,192,75397,1,8,0:0:0:0:
256,192,75740,1,0,0:0:0:0:
256,192,75912,1,0,0:0:0:0:
256,192,76083,1,8,0:0:0:0:
256,192,76426,1,8,0:0:0:0:
256,192,76769,1,8,0:0:0:0:
256,192,76940,1,0,0:0:0:0:
256,192,77112,1,0,0:0:0:0:
256,192,77454,1,8,0:0:0:0:
256,192,77626,1,0,0:0:0:0:
256,192,77797,1,8,0:0:0:0:
256,192,78140,1,8,0:0:0:0:
256,192,78312,1,0,0:0:0:0:
256,192,78483,1,4,0:0:0:0:
256,192,79169,1,8,0:0:0:0:
256,192,79512,1,0,0:0:0:0:
256,192,79683,1,0,0:0:0:0:
256,192,79854,1,0,0:0:0:0:
256,192,80026,1,0,0:0:0:0:
256,192,80197,1,8,0:0:0:0:
256,192,80540,1,0,0:0:0:0:
256,192,80712,1,0,0:0:0:0:
256,192,80883,1,8,0:0:0:0:
256,192,81226,1,0,0:0:0:0:
256,192,81397,1,0,0:0:0:0:
256,192,81569,1,8,0:0:0:0:
256,192,81912,1,8,0:0:0:0:
256,192,82254,1,8,0:0:0:0:
256,192,82426,1,0,0:0:0:0:
256,192,82597,1,0,0:0:0:0:
256,192,82940,1,8,0:0:0:0:
256,192,83283,1,8,0:0:0:0:
256,192,83626,1,0,0:0:0:0:
256,192,83797,1,0,0:0:0:0:
256,192,83969,1,8,0:0:0:0:
256,192,84140,1,0,0:0:0:0:
256,192,84312,1,8,0:0:0:0:
256,192,84654,1,8,0:0:0:0:
256,192,85340,1,0,0:0:0:0:
256,192,85512,1,0,0:0:0:0:
256,192,85683,1,8,0:0:0:0:
256,192,86026,1,0,0:0:0:0:
256,192,86369,1,8,0:0:0:0:
256,192,86540,1,0,0:0:0:0:
256,192,86712,1,0,0:0:0:0:
256,192,87054,1,8,0:0:0:0:
256,192,87226,1,8,0:0:0:0:
256,192,87397,1,0,0:0:0:0:
256,192,87740,1,8,0:0:0:0:
256,192,87912,1,0,0:0:0:0:
256,192,88083,1,0,0:0:0:0:
256,192,88426,1,8,0:0:0:0:
256,192,88769,1,0,0:0:0:0:
256,192,88940,1,0,0:0:0:0:
256,192,89112,1,8,0:0:0:0:
256,192,89197,1,8,0:0:0:0:
256,192,89283,1,8,0:0:0:0:
256,192,89454,1,4,0:0:0:0:
256,192,90140,1,0,0:0:0:0:
256,192,90226,1,0,0:0:0:0:
256,192,90312,1,0,0:0:0:0:
256,192,90483,1,8,0:0:0:0:
256,192,90826,1,4,0:0:0:0:
256,192,91169,1,8,0:0:0:0:
256,192,91512,1,0,0:0:0:0:
256,192,91683,1,0,0:0:0:0:
256,192,91854,1,8,0:0:0:0:
256,192,92026,1,0,0:0:0:0:
256,192,92197,1,0,0:0:0:0:
256,192,92540,1,8,0:0:0:0:
256,192,92883,1,0,0:0:0:0:
256,192,93054,1,0,0:0:0:0:
256,192,93226,1,8,0:0:0:0:
256,192,93397,1,8,0:0:0:0:
256,192,93569,1,0,0:0:0:0:
256,192,93912,1,8,0:0:0:0:
256,192,94254,1,0,0:0:0:0:
256,192,94426,1,0,0:0:0:0:
256,192,94597,1,8,0:0:0:0:
256,192,94769,1,0,0:0:0:0:
256,192,94940,1,0,0:0:0:0:
256,192,95283,1,8,0:0:0:0:
256,192,95626,1,0,0:0:0:0:
256,192,95969,1,8,0:0:0:0:
256,192,96140,1,8,0:0:0:0:
256,192,96312,1,0,0:0:0:0:
256,192,96654,1,8,0:0:0:0:
256,192,96997,1,0,0:0:0:0:
256,192,97169,1,0,0:0:0:0:
256,192,97340,1,8,0:0:0:0:
256,192,97512,1,0,0:0:0:0:
256,192,97683,1,0,0:0:0:0:
256,192,98026,1,8,0:0:0:0:
256,192,98369,1,0,0:0:0:0:
256,192,98540,1,0,0:0:0:0:
256,192,98712,1,8,0:0:0:0:
256,192,98883,1,8,0:0:0:0:
256,192,99054,1,0,0:0:0:0:
256,192,99397,1,8,0:0:0:0:
256,192,99740,1,0,0:0:0:0:
256,192,99912,1,0,0:0:0:0:
256,192,100083,1,8,0:0:0:0:
256,192,100254,1,0,0:0:0:0:
256,192,100426,1,14,0:0:0:0:
256,192,101112,1,0,0:0:0:0:
256,192,101283,1,0,0:0:0:0:
256,192,101454,1,8,0:0:0:0:
256,192,101797,1,4,0:0:0:0:
256,192,102140,1,8,0:0:0:0:
256,192,102312,1,0,0:0:0:0:
256,192,102483,1,0,0:0:0:0:
256,192,102654,1,0,0:0:0:0:
256,192,102826,1,8,0:0:0:0:
256,192,102997,1,0,0:0:0:0:
256,192,103169,1,0,0:0:0:0:
256,192,103512,1,8,0:0:0:0:
256,192,103683,1,8,0:0:0:0:
256,192,103854,1,0,0:0:0:0:
256,192,104026,1,0,0:0:0:0:
256,192,104197,1,8,0:0:0:0:
256,192,104369,1,8,0:0:0:0:
256,192,104540,1,0,0:0:0:0:
256,192,104883,1,8,0:0:0:0:
256,192,105054,1,0,0:0:0:0:
256,192,105226,1,0,0:0:0:0:
256,192,105397,1,0,0:0:0:0:
256,192,105569,1,8,0:0:0:0:
256,192,105740,1,0,0:0:0:0:
256,192,105912,1,0,0:0:0:0:
256,192,106254,1,8,0:0:0:0:
256,192,106425,1,8,0:0:0:0:
256,192,106597,1,0,0:0:0:0:
256,192,106768,1,0,0:0:0:0:
256,192,106940,1,8,0:0:0:0:
256,192,107283,1,0,0:0:0:0:
256,192,107625,1,8,0:0:0:0:
256,192,107711,1,8,0:0:0:0:
256,192,107797,1,8,0:0:0:0:
256,192,107968,1,0,0:0:0:0:
256,192,108140,1,0,0:0:0:0:
256,192,108311,1,0,0:0:0:0:
256,192,108654,1,0,0:0:0:0:
256,192,108997,1,8,0:0:0:0:
256,192,109083,1,8,0:0:0:0:
256,192,109168,1,8,0:0:0:0:
256,192,109340,1,0,0:0:0:0:
256,192,109511,1,0,0:0:0:0:
256,192,109683,1,0,0:0:0:0:
256,192,110025,1,0,0:0:0:0:
256,192,110368,1,8,0:0:0:0:
256,192,110711,1,0,0:0:0:0:
256,192,110883,1,0,0:0:0:0:
256,192,111054,1,8,0:0:0:0:
256,192,111140,1,8,0:0:0:0:
256,192,111225,1,8,0:0:0:0:
256,192,111397,1,4,0:0:0:0:
256,192,111740,1,0,0:0:0:0:
256,192,111912,1,0,0:0:0:0:
256,192,112083,1,8,0:0:0:0:
256,192,112340,1,8,0:0:0:0:
256,192,112597,1,8,0:0:0:0:
256,192,112768,1,4,0:0:0:0:
256,192,113112,1,8,0:0:0:0:
256,192,113454,1,0,0:0:0:0:
256,192,113626,1,0,0:0:0:0:
256,192,113797,1,8,0:0:0:0:
256,192,114140,1,0,0:0:0:0:
256,192,114312,1,0,0:0:0:0:
256,192,114483,1,8,0:0:0:0:
256,192,114654,1,0,0:0:0:0:
256,192,114826,1,8,0:0:0:0:
256,192,115169,1,0,0:0:0:0:
256,192,115512,1,8,0:0:0:0:
256,192,115854,1,0,0:0:0:0:
256,192,116197,1,8,0:0:0:0:
256,192,116369,1,8,0:0:0:0:
256,192,116540,1,0,0:0:0:0:
256,192,116883,1,8,0:0:0:0:
256,192,117054,1,8,0:0:0:0:
256,192,117226,1,0,0:0:0:0:
256,192,117397,1,8,0:0:0:0:
256,192,117569,1,0,0:0:0:0:
256,192,118254,1,0,0:0:0:0:
256,192,118597,1,8,0:0:0:0:
256,192,118940,1,0,0:0:0:0:
256,192,119112,1,0,0:0:0:0:
256,192,119283,1,8,0:0:0:0:
256,192,119626,1,0,0:0:0:0:
256,192,119797,1,0,0:0:0:0:
256,192,119969,1,8,0:0:0:0:
256,192,120140,1,0,0:0:0:0:
256,192,120312,1,0,0:0:0:0:
256,192,120654,1,8,0:0:0:0:
256,192,120997,1,8,0:0:0:0:
256,192,121340,1,0,0:0:0:0:
256,192,121512,1,8,0:0:0:0:
256,192,121683,1,0,0:0:0:0:
256,192,121854,1,0,0:0:0:0:
256,192,122026,1,8,0:0:0:0:
256,192,122369,1,4,0:0:0:0:
288,192,123054,1,0,0:0:0:0:
256,192,123226,1,8,0:0:0:0:
256,192,123397,1,0,0:0:0:0:
256,192,123912,1,4,0:0:0:0:
256,192,124083,1,4,0:0:0:0:
256,192,124426,1,8,0:0:0:0:
256,192,124769,1,0,0:0:0:0:
256,192,124940,1,8,0:0:0:0:
256,192,125112,1,8,0:0:0:0:
256,192,125454,1,0,0:0:0:0:
256,192,125626,1,8,0:0:0:0:
256,192,125797,1,8,0:0:0:0:
256,192,126140,1,0,0:0:0:0:
256,192,126312,1,8,0:0:0:0:
256,192,126483,1,0,0:0:0:0:
256,192,126826,1,0,0:0:0:0:
256,192,126997,1,0,0:0:0:0:
256,192,127169,1,8,0:0:0:0:
256,192,127340,1,0,0:0:0:0:
256,192,127512,1,8,0:0:0:0:
256,192,127854,1,8,0:0:0:0:
256,192,128197,1,0,0:0:0:0:
256,192,128369,1,0,0:0:0:0:
256,192,128540,1,8,0:0:0:0:
256,192,128883,1,8,0:0:0:0:
256,192,129054,1,0,0:0:0:0:
256,192,129397,1,4,0:0:0:0:
256,192,129569,1,4,0:0:0:0:
256,192,129912,1,8,0:0:0:0:
256,192,130254,1,0,0:0:0:0:
256,192,130426,1,8,0:0:0:0:
256,192,130769,1,4,0:0:0:0:
256,192,130940,1,4,0:0:0:0:
256,192,131283,1,8,0:0:0:0:
256,192,131626,1,0,0:0:0:0:
256,192,131797,1,8,0:0:0:0:
256,192,132140,1,0,0:0:0:0:
256,192,132312,1,4,0:0:0:0:
256,192,132654,1,4,0:0:0:0:
256,192,132997,1,0,0:0:0:0:
256,192,133340,1,14,0:0:0:0:
256,192,133683,1,14,0:0:0:0:
256,192,134026,1,8,0:0:0:0:
256,192,134112,1,8,0:0:0:0:
256,192,134197,1,8,0:0:0:0:
256,192,134369,1,8,0:0:0:0:
256,192,134712,1,0,0:0:0:0:
256,192,134883,1,0,0:0:0:0:
256,192,135055,1,8,0:0:0:0:
256,192,135398,1,0,0:0:0:0:
256,192,135569,1,0,0:0:0:0:
256,192,135741,1,8,0:0:0:0:
256,192,136083,1,0,0:0:0:0:
256,192,136255,1,0,0:0:0:0:
256,192,136426,1,8,0:0:0:0:
256,192,136598,1,0,0:0:0:0:
256,192,136769,1,8,0:0:0:0:
256,192,137112,1,8,0:0:0:0:
256,192,137283,1,0,0:0:0:0:
256,192,137455,1,0,0:0:0:0:
256,192,137798,1,8,0:0:0:0:
256,192,138141,1,8,0:0:0:0:
256,192,138483,1,0,0:0:0:0:
256,192,138655,1,0,0:0:0:0:
256,192,138826,1,8,0:0:0:0:
256,192,138998,1,0,0:0:0:0:
256,192,139169,1,8,0:0:0:0:
256,192,139512,1,8,0:0:0:0:
256,192,140198,1,0,0:0:0:0:
256,192,140369,1,0,0:0:0:0:
256,192,140541,1,8,0:0:0:0:
256,192,140883,1,0,0:0:0:0:
256,192,141055,1,0,0:0:0:0:
256,192,141226,1,8,0:0:0:0:
256,192,141569,1,0,0:0:0:0:
256,192,141741,1,0,0:0:0:0:
256,192,141912,1,8,0:0:0:0:
256,192,142083,1,0,0:0:0:0:
256,192,142255,1,8,0:0:0:0:
256,192,142598,1,8,0:0:0:0:
256,192,142769,1,0,0:0:0:0:
256,192,142941,1,0,0:0:0:0:
256,192,143283,1,8,0:0:0:0:
256,192,143455,1,0,0:0:0:0:
256,192,143626,1,8,0:0:0:0:
256,192,143969,1,8,0:0:0:0:
256,192,144141,1,0,0:0:0:0:
256,192,144312,1,4,0:0:0:0:
256,192,144998,1,8,0:0:0:0:
256,192,145341,1,0,0:0:0:0:
256,192,145512,1,0,0:0:0:0:
256,192,145683,1,0,0:0:0:0:
256,192,145855,1,0,0:0:0:0:
256,192,146026,1,8,0:0:0:0:
256,192,146369,1,0,0:0:0:0:
256,192,146541,1,0,0:0:0:0:
256,192,146712,1,8,0:0:0:0:
256,192,147055,1,0,0:0:0:0:
256,192,147226,1,0,0:0:0:0:
256,192,147398,1,8,0:0:0:0:
256,192,147569,1,0,0:0:0:0:
256,192,147741,1,8,0:0:0:0:
256,192,148083,1,8,0:0:0:0:
256,192,148255,1,0,0:0:0:0:
256,192,148426,1,0,0:0:0:0:
256,192,148769,1,8,0:0:0:0:
256,192,149112,1,8,0:0:0:0:
256,192,149455,1,0,0:0:0:0:
256,192,149626,1,0,0:0:0:0:
256,192,149798,1,8,0:0:0:0:
256,192,149969,1,0,0:0:0:0:
256,192,150141,1,8,0:0:0:0:
256,192,150483,1,8,0:0:0:0:
256,192,151169,1,0,0:0:0:0:
256,192,151341,1,0,0:0:0:0:
256,192,151512,1,8,0:0:0:0:
256,192,151855,1,0,0:0:0:0:
256,192,152198,1,8,0:0:0:0:
256,192,152369,1,0,0:0:0:0:
256,192,152541,1,0,0:0:0:0:
256,192,152883,1,8,0:0:0:0:
256,192,153055,1,8,0:0:0:0:
256,192,153226,1,0,0:0:0:0:
256,192,153569,1,8,0:0:0:0:
256,192,153741,1,0,0:0:0:0:
256,192,153826,1,0,0:0:0:0:
256,192,153912,1,0,0:0:0:0:
256,192,154255,1,8,0:0:0:0:
256,192,154598,1,0,0:0:0:0:
256,192,154769,1,0,0:0:0:0:
256,192,154941,1,8,0:0:0:0:
256,192,155026,1,8,0:0:0:0:
256,192,155112,1,8,0:0:0:0:
256,192,155283,1,4,0:0:0:0:
256,192,155969,1,0,0:0:0:0:
256,192,156055,1,0,0:0:0:0:
256,192,156141,1,0,0:0:0:0:
256,192,156312,1,8,0:0:0:0:
256,192,156654,1,4,0:0:0:0:
256,192,156826,1,4,0:0:0:0:
256,192,158026,1,4,0:0:0:0:
256,192,158197,1,4,0:0:0:0:
256,192,159397,1,4,0:0:0:0:
256,192,159569,1,4,0:0:0:0:
256,192,160769,1,14,0:0:0:0:
256,192,161112,1,4,0:0:0:0:
256,192,161454,1,4,0:0:0:0:
256,192,161797,1,14,0:0:0:0:
256,192,162140,1,4,0:0:0:0:
256,192,162312,1,4,0:0:0:0:
256,192,163512,1,4,0:0:0:0:
256,192,163683,1,4,0:0:0:0:
256,192,164883,1,4,0:0:0:0:
256,192,165226,1,8,0:0:0:0:
256,192,165569,1,4,0:0:0:0:
256,192,165912,1,8,0:0:0:0:
256,192,166254,1,4,0:0:0:0:
256,192,166597,1,4,0:0:0:0:
256,192,166940,1,4,0:0:0:0:
256,192,167283,1,8,0:0:0:0:
256,192,167626,1,0,0:0:0:0:
256,192,167797,1,0,0:0:0:0:
256,192,167969,1,8,0:0:0:0:
256,192,168483,1,0,0:0:0:0:
256,192,168654,1,8,0:0:0:0:
256,192,168997,1,4,0:0:0:0:
256,192,169169,1,0,0:0:0:0:
256,192,169340,1,8,0:0:0:0:
256,192,169854,1,8,0:0:0:0:
256,192,170026,1,0,0:0:0:0:
256,192,170369,1,14,0:0:0:0:
256,192,170712,1,14,0:0:0:0:
256,192,171054,1,14,0:0:0:0:
256,192,171397,1,14,0:0:0:0:
256,192,171740,1,4,0:0:0:0:
256,192,172426,2,0,L|289:179,4,35,8|8|8|8|0,0:0|0:0|0:0|0:0|0:0,0:0:0:0:
256,192,173112,1,4,0:0:0:0:
256,192,173283,1,8,0:0:0:0:
256,192,173626,1,8,0:0:0:0:
256,192,173969,1,8,0:0:0:0:
256,192,174140,1,0,0:0:0:0:
256,192,174312,1,8,0:0:0:0:
256,192,174483,1,0,0:0:0:0:
256,192,174654,1,8,0:0:0:0:
256,192,174997,1,8,0:0:0:0:
256,192,175340,1,8,0:0:0:0:
256,192,175512,1,0,0:0:0:0:
256,192,175854,1,0,0:0:0:0:
256,192,176026,1,8,0:0:0:0:
256,192,176369,1,8,0:0:0:0:
256,192,176712,1,8,0:0:0:0:
256,192,176883,1,0,0:0:0:0:
256,192,177054,1,8,0:0:0:0:
256,192,177226,1,4,0:0:0:0:
256,192,177569,1,4,0:0:0:0:
256,192,177912,1,14,0:0:0:0:
256,192,178083,1,14,0:0:0:0:
256,192,178254,1,14,0:0:0:0:
256,192,178597,1,4,0:0:0:0:
256,192,179969,1,4,0:0:0:0:
256,192,180654,1,8,0:0:0:0:
256,192,181340,1,0,0:0:0:0:
256,192,181683,1,0,0:0:0:0:
256,192,182026,1,8,0:0:0:0:
256,192,182712,1,0,0:0:0:0:
256,192,183397,1,8,0:0:0:0:
256,192,184083,1,8,0:0:0:0:
256,192,184426,1,8,0:0:0:0:
256,192,184769,1,8,0:0:0:0:
256,192,185454,1,0,0:0:0:0:
256,192,186140,1,8,0:0:0:0:
256,192,186826,1,0,0:0:0:0:
256,192,187169,1,0,0:0:0:0:
256,192,187512,1,8,0:0:0:0:
256,192,188197,1,0,0:0:0:0:
256,224,188883,1,8,0:0:0:0:
256,192,189226,1,0,0:0:0:0:
256,192,189569,1,4,0:0:0:0:
256,192,190254,1,14,0:0:0:0:
256,192,190940,1,0,0:0:0:0:
256,192,191283,1,8,0:0:0:0:
256,192,191626,1,0,0:0:0:0:
256,192,191797,1,0,0:0:0:0:
256,192,191969,1,8,0:0:0:0:
256,192,192312,1,0,0:0:0:0:
256,192,192654,1,8,0:0:0:0:
256,192,192997,1,8,0:0:0:0:
256,192,193683,1,0,0:0:0:0:
256,192,194026,1,8,0:0:0:0:
256,192,194369,1,8,0:0:0:0:
256,192,194712,1,0,0:0:0:0:
256,192,195054,1,8,0:0:0:0:
256,192,195226,1,0,0:0:0:0:
256,192,195397,1,8,0:0:0:0:
256,192,195740,1,0,0:0:0:0:
256,192,196426,1,0,0:0:0:0:
256,192,196597,1,0,0:0:0:0:
256,192,196769,1,0,0:0:0:0:
256,192,197112,1,8,0:0:0:0:
256,192,197454,1,8,0:0:0:0:
256,192,197626,1,8,0:0:0:0:
256,192,197797,1,0,0:0:0:0:
256,192,198140,1,0,0:0:0:0:
256,192,198312,1,0,0:0:0:0:
256,192,198483,1,8,0:0:0:0:
256,192,198826,1,8,0:0:0:0:
256,192,198997,1,8,0:0:0:0:
256,192,199169,12,0,200369,0:0:0:0:
256,192,200540,5,0,0:0:0:0:
256,192,200712,1,0,0:0:0:0:
256,192,201226,1,0,0:0:0:0:
256,192,201397,1,0,0:0:0:0:
256,192,201569,1,14,0:0:0:0:
256,192,201912,1,4,0:0:0:0:
256,192,202254,1,8,0:0:0:0:
256,192,202597,1,0,0:0:0:0:
256,192,202769,1,0,0:0:0:0:
256,192,202940,1,8,0:0:0:0:
256,192,203112,1,0,0:0:0:0:
256,192,203283,1,0,0:0:0:0:
256,192,203626,1,8,0:0:0:0:
256,192,203969,1,0,0:0:0:0:
256,192,204140,1,0,0:0:0:0:
256,192,204312,1,8,0:0:0:0:
256,192,204483,1,8,0:0:0:0:
256,192,204654,1,0,0:0:0:0:
256,192,204997,1,8,0:0:0:0:
256,192,205340,1,0,0:0:0:0:
256,192,205512,1,0,0:0:0:0:
256,192,205683,1,8,0:0:0:0:
256,192,205854,1,0,0:0:0:0:
256,192,206026,1,0,0:0:0:0:
256,192,206369,1,8,0:0:0:0:
256,192,206712,1,0,0:0:0:0:
256,192,207054,1,8,0:0:0:0:
256,192,207140,1,8,0:0:0:0:
256,192,207226,1,8,0:0:0:0:
256,192,207397,1,0,0:0:0:0:
256,192,207740,1,8,0:0:0:0:
256,192,207997,1,0,0:0:0:0:
256,192,208083,1,0,0:0:0:0:
256,192,208254,1,0,0:0:0:0:
256,192,208426,1,8,0:0:0:0:
256,192,208597,1,0,0:0:0:0:
256,192,208769,1,0,0:0:0:0:
256,192,209112,1,8,0:0:0:0:
256,192,209369,1,0,0:0:0:0:
256,192,209454,1,0,0:0:0:0:
256,192,209626,1,0,0:0:0:0:
256,192,209797,1,8,0:0:0:0:
256,192,209969,1,8,0:0:0:0:
256,192,210140,1,0,0:0:0:0:
256,192,210483,1,8,0:0:0:0:
256,192,210740,1,0,0:0:0:0:
256,192,210826,1,0,0:0:0:0:
256,192,210997,1,0,0:0:0:0:
256,192,211169,1,8,0:0:0:0:
256,192,211340,1,0,0:0:0:0:
256,192,211512,1,8,0:0:0:0:
256,192,211769,1,8,0:0:0:0:
256,192,212026,1,8,0:0:0:0:
256,192,212197,1,0,0:0:0:0:
256,192,212540,1,8,0:0:0:0:
256,192,212883,1,4,0:0:0:0:
256,192,213226,1,8,0:0:0:0:
256,192,213312,1,8,0:0:0:0:
256,192,213397,1,8,0:0:0:0:
256,192,213569,1,0,0:0:0:0:
256,192,213740,1,0,0:0:0:0:
256,192,213912,1,8,0:0:0:0:
256,192,214254,1,0,0:0:0:0:
256,192,214597,1,8,0:0:0:0:
256,192,214683,1,8,0:0:0:0:
256,192,214769,1,8,0:0:0:0:
256,192,214940,1,0,0:0:0:0:
256,192,215112,1,0,0:0:0:0:
256,192,215283,1,8,0:0:0:0:
256,192,215454,1,8,0:0:0:0:
256,192,215626,1,0,0:0:0:0:
256,192,215969,1,8,0:0:0:0:
256,192,216054,1,8,0:0:0:0:
256,192,216140,1,8,0:0:0:0:
256,192,216312,1,0,0:0:0:0:
256,192,216483,1,0,0:0:0:0:
256,192,216654,1,8,0:0:0:0:
256,192,216997,1,0,0:0:0:0:
256,192,217254,1,0,0:0:0:0:
256,192,217512,1,0,0:0:0:0:
256,192,217683,1,8,0:0:0:0:
256,192,218026,1,0,0:0:0:0:
256,192,218369,1,0,0:0:0:0:
256,192,218711,1,8,0:0:0:0:
256,192,218797,1,8,0:0:0:0:
256,192,218883,1,8,0:0:0:0:
256,192,219054,1,0,0:0:0:0:
256,192,219226,1,0,0:0:0:0:
256,192,219397,1,0,0:0:0:0:
256,192,219740,1,0,0:0:0:0:
256,192,220083,1,8,0:0:0:0:
256,192,220169,1,8,0:0:0:0:
256,192,220254,1,8,0:0:0:0:
256,192,220426,1,0,0:0:0:0:
256,192,220597,1,0,0:0:0:0:
256,192,220769,1,0,0:0:0:0:
256,192,221111,1,0,0:0:0:0:
256,192,221454,1,8,0:0:0:0:
256,192,221626,1,0,0:0:0:0:
256,192,221712,1,0,0:0:0:0:
256,192,221797,1,0,0:0:0:0:
256,192,221969,1,0,0:0:0:0:
256,192,222140,1,8,0:0:0:0:
256,192,222226,1,8,0:0:0:0:
256,192,222311,1,8,0:0:0:0:
256,192,222483,1,4,0:0:0:0:
256,192,222826,1,0,0:0:0:0:
256,192,222997,1,0,0:0:0:0:
256,192,223169,1,8,0:0:0:0:
256,192,223426,1,8,0:0:0:0:
256,192,223683,1,8,0:0:0:0:
256,192,223854,1,4,0:0:0:0:
256,192,224197,1,8,0:0:0:0:
256,192,224540,1,0,0:0:0:0:
256,192,224712,1,0,0:0:0:0:
256,192,224883,1,0,0:0:0:0:
256,192,225226,1,0,0:0:0:0:
256,192,225569,1,8,0:0:0:0:
256,192,225912,1,0,0:0:0:0:
256,192,226083,1,0,0:0:0:0:
256,192,226254,1,8,0:0:0:0:
256,192,226597,1,0,0:0:0:0:
256,192,226940,1,8,0:0:0:0:
256,192,227283,1,0,0:0:0:0:
256,192,227454,1,0,0:0:0:0:
256,192,227626,1,0,0:0:0:0:
256,192,227969,1,0,0:0:0:0:
256,192,228140,1,0,0:0:0:0:
256,192,228312,1,8,0:0:0:0:
256,192,228483,1,0,0:0:0:0:
256,192,228654,1,8,0:0:0:0:
256,192,229340,1,0,0:0:0:0:
256,192,229683,1,8,0:0:0:0:
256,192,230026,1,0,0:0:0:0:
256,192,230197,1,0,0:0:0:0:
256,192,230369,1,0,0:0:0:0:
256,192,230712,1,0,0:0:0:0:
256,192,231054,1,8,0:0:0:0:
256,192,231397,1,0,0:0:0:0:
256,192,231569,1,0,0:0:0:0:
256,192,231740,1,8,0:0:0:0:
256,192,232083,1,0,0:0:0:0:
256,192,232426,1,8,0:0:0:0:
256,192,232769,1,0,0:0:0:0:
256,192,232940,1,0,0:0:0:0:
256,192,233112,1,0,0:0:0:0:
256,192,233454,1,4,0:0:0:0:
256,192,234140,1,0,0:0:0:0:
256,192,234312,1,0,0:0:0:0:
256,192,234483,1,8,0:0:0:0:
256,192,234826,1,4,0:0:0:0:
256,192,235169,1,8,0:0:0:0:
256,192,235512,1,0,0:0:0:0:
256,192,235683,1,0,0:0:0:0:
256,192,235854,1,8,0:0:0:0:
256,192,236026,1,0,0:0:0:0:
256,192,236197,1,0,0:0:0:0:
256,192,236540,1,8,0:0:0:0:
256,192,236883,1,0,0:0:0:0:
256,192,237054,1,0,0:0:0:0:
256,192,237226,1,8,0:0:0:0:
256,192,237569,1,0,0:0:0:0:
256,192,237912,1,8,0:0:0:0:
256,192,238254,1,0,0:0:0:0:
256,192,238426,1,0,0:0:0:0:
256,192,238597,1,8,0:0:0:0:
256,192,238940,1,0,0:0:0:0:
256,192,239112,1,0,0:0:0:0:
256,192,239283,1,8,0:0:0:0:
256,192,239454,1,0,0:0:0:0:
256,192,239626,1,8,0:0:0:0:
256,192,240312,1,4,0:0:0:0:
256,192,240654,1,8,0:0:0:0:
256,192,240826,1,0,0:0:0:0:
256,192,240997,1,0,0:0:0:0:
256,192,241169,1,0,0:0:0:0:
256,192,241340,1,8,0:0:0:0:
256,192,241683,1,0,0:0:0:0:
256,192,242026,1,8,0:0:0:0:
256,192,242197,1,0,0:0:0:0:
256,192,242369,1,0,0:0:0:0:
256,192,242540,1,0,0:0:0:0:
256,192,242712,1,8,0:0:0:0:
256,192,243054,1,0,0:0:0:0:
256,192,243397,1,8,0:0:0:0:
256,192,243569,1,0,0:0:0:0:
256,192,243654,1,0,0:0:0:0:
256,192,243740,1,0,0:0:0:0:
256,192,243912,1,0,0:0:0:0:
256,192,244083,1,8,0:0:0:0:
256,192,244426,1,4,0:0:0:0:
256,192,245112,2,8,L|287:166,4,35,8|8|8|8|0,0:0|0:0|0:0|0:0|0:0,0:0:0:0:
256,192,245797,1,4,0:0:0:0:
256,192,246483,1,0,0:0:0:0:
256,192,246826,1,8,0:0:0:0:
256,192,247169,1,0,0:0:0:0:
256,192,247854,1,0,0:0:0:0:
256,192,248026,1,0,0:0:0:0:
256,192,248197,1,8,0:0:0:0:
256,192,248540,1,0,0:0:0:0:
256,192,249226,1,0,0:0:0:0:
256,192,249569,1,8,0:0:0:0:
256,192,249912,1,0,0:0:0:0:
256,192,250597,1,8,0:0:0:0:
256,192,250769,1,0,0:0:0:0:
256,192,250940,1,8,0:0:0:0:
256,192,251283,1,0,0:0:0:0:
256,192,251626,1,8,0:0:0:0:
256,192,251969,1,0,0:0:0:0:
256,192,252140,1,0,0:0:0:0:
256,192,252312,1,8,0:0:0:0:
256,192,252654,1,0,0:0:0:0:
256,192,252997,1,8,0:0:0:0:
256,192,253340,1,0,0:0:0:0:
256,192,253512,1,0,0:0:0:0:
256,192,253683,1,8,0:0:0:0:
256,192,254026,1,0,0:0:0:0:
256,192,254369,1,8,0:0:0:0:
256,192,254712,1,0,0:0:0:0:
256,192,254883,1,0,0:0:0:0:
256,192,255054,1,8,0:0:0:0:
256,192,255397,1,4,0:0:0:0:
256,192,256083,1,0,0:0:0:0:
256,192,256168,1,0,0:0:0:0:
256,192,256254,1,0,0:0:0:0:
256,192,256426,1,0,0:0:0:0:
256,192,256769,1,4,0:0:0:0:
256,192,257454,1,0,0:0:0:0:
256,192,257626,1,0,0:0:0:0:
256,192,257797,1,8,0:0:0:0:
256,192,258140,1,0,0:0:0:0:
256,192,258483,1,0,0:0:0:0:
256,192,258826,1,0,0:0:0:0:
256,192,258997,1,0,0:0:0:0:
256,192,259169,1,8,0:0:0:0:
256,192,259512,1,4,0:0:0:0:
256,192,260197,1,0,0:0:0:0:
256,192,260369,1,0,0:0:0:0:
256,192,260540,1,8,0:0:0:0:
256,192,260883,1,0,0:0:0:0:
256,192,261226,1,0,0:0:0:0:
256,192,261569,1,0,0:0:0:0:
256,192,261740,1,0,0:0:0:0:
256,192,261912,1,8,0:0:0:0:
256,192,262254,1,4,0:0:0:0:
256,192,262597,1,8,0:0:0:0:
256,192,262769,1,0,0:0:0:0:
256,192,262940,1,0,0:0:0:0:
256,192,263112,1,0,0:0:0:0:
256,192,263283,1,8,0:0:0:0:
256,192,263626,1,4,0:0:0:0:
256,192,263969,1,8,0:0:0:0:
256,192,264140,1,0,0:0:0:0:
256,192,264312,1,8,0:0:0:0:
256,192,264483,1,8,0:0:0:0:
256,192,264654,1,0,0:0:0:0:
256,192,264997,1,4,0:0:0:0:
256,192,265340,1,8,0:0:0:0:
256,192,265512,1,0,0:0:0:0:
256,192,265683,1,0,0:0:0:0:
256,192,265769,1,0,0:0:0:0:
256,192,265854,1,0,0:0:0:0:
256,192,266026,1,8,0:0:0:0:
256,192,266369,1,0,0:0:0:0:
256,192,267740,1,4,0:0:0:0:
