osu file format v14

[General]
AudioFilename: audio.mp3
AudioLeadIn: 0
PreviewTime: 47562
Countdown: 0
SampleSet: Normal
StackLeniency: 0.7
Mode: 1
LetterboxInBreaks: 0
WidescreenStoryboard: 0

[Editor]
Bookmarks: 1295,7915,21157,34398,47639,74122,87363
DistanceSpacing: 1.3
BeatDivisor: 4
GridSize: 32
TimelineZoom: 1.2

[Metadata]
Title:Neptune*Sagashite (TV Size)
TitleUnicode:ネプテューヌ☆サガして (TV Size)
Artist:Afilia Saga
ArtistUnicode:アフィリア・サーガ
Creator:KatK1
Version:Oni
Source:超次元ゲイム ネプテューヌ
Tags:hyperdimension neptunia the animation ending ed choujigen video game neptune pop jpop j-pop japanese anime
BeatmapID:4001159
BeatmapSetID:1935891

[Difficulty]
HPDrainRate:7
CircleSize:4
OverallDifficulty:5.5
ApproachRate:8
SliderMultiplier:1.4
SliderTickRate:1

[Events]
//Background and Video events
0,0,"neptunia.jpg",0,-136
//Break Periods
//Storyboard Layer 0 (Background)
//Storyboard Layer 1 (Fail)
//Storyboard Layer 2 (Pass)
//Storyboard Layer 3 (Foreground)
//Storyboard Layer 4 (Overlay)
//Storyboard Sound Samples

[TimingPoints]
-5334,413.793103448276,4,1,0,50,1,0
1286,-125,4,1,0,50,0,0
7217,-100,4,1,0,75,0,0
7699,-93.75472,4,1,0,75,0,0
7768,-92.78659,4,1,0,75,0,0
7837,-91.83824,4,1,0,75,0,0
7872,-83.33333,4,1,0,80,0,0
21079,-100,4,1,0,50,0,0
34114,-90.9090909090909,4,1,0,70,0,0
34528,-83.3333333333333,4,1,0,80,0,0
34941,-90.9090909090909,4,1,0,70,0,0
35355,-83.3333333333333,4,1,0,80,0,0
35769,-90.9090909090909,4,1,0,70,0,0
36183,-83.3333333333333,4,1,0,80,0,0
36597,-90.9090909090909,4,1,0,70,0,0
37011,-83.3333333333333,4,1,0,80,0,0
37424,-90.90909,4,1,0,70,0,0
37596,-90.6506,4,1,0,70,0,0
37648,-90.32081,4,1,0,70,0,0
37907,-89.43844,4,1,0,70,0,0
38113,-88.74884,4,1,0,70,0,0
38320,-87.88777,4,1,0,70,0,0
38423,-87.44871,4,1,0,70,0,0
38527,-86.99996,4,1,0,70,0,0
38734,-86.09457,4,1,0,70,0,0
38941,-85.177956,4,1,0,70,0,0
39354,-83.33333,4,1,0,70,0,0
39561,-84.82357,4,1,0,70,0,0
39665,-85.41154,4,1,0,70,0,0
39768,-85.96284,4,1,0,70,0,0
39975,-87.014885,4,1,0,70,0,0
40182,-88.0212,4,1,0,70,0,0
40286,-88.51555,4,1,0,70,0,0
40389,-88.9997,4,1,0,70,0,0
40492,-89.47946,4,1,0,70,0,0
40596,-89.96026,4,1,0,70,0,0
40734,-90.9090909090909,4,1,0,70,0,0
41148,-83.3333333333333,4,1,0,80,0,0
41561,-90.9090909090909,4,1,0,70,0,0
41975,-83.3333333333333,4,1,0,80,0,0
42389,-90.9090909090909,4,1,0,70,0,0
42803,-83.3333333333333,4,1,0,80,0,0
43217,-90.9090909090909,4,1,0,70,0,0
43631,-83.3333333333333,4,1,0,80,0,0
44045,-90.90909,4,1,0,70,0,0
44320,-94.091446,4,1,0,70,0,0
44527,-97.03324,4,1,0,70,0,0
44630,-98.50206,4,1,0,80,0,0
44734,-83.3333333333333,4,1,0,80,0,0
45148,-83.33333,4,1,0,80,0,0
45286,-85.36966,4,1,0,70,0,0
45458,-86.307304,4,1,0,70,0,0
45561,-87.2243,4,1,0,70,0,0
45768,-89.05996,4,1,0,70,0,0
45907,-76.9230762721894,4,1,0,80,0,0
46389,-76.9230762721894,4,1,0,80,0,0
46734,-100,4,1,0,50,0,0
47562,-83.3333333333333,4,1,0,80,0,0
47631,-83.3333333333333,4,1,0,80,0,1
69148,-76.9230769230769,4,1,0,80,0,1
69561,-83.3333333333333,4,1,0,80,0,1
69975,-76.9230769230769,4,1,0,80,0,1
70389,-83.3333333333333,4,1,0,80,0,1
70803,-76.9230769230769,4,1,0,80,0,1
71217,-50,4,1,0,80,0,1
72458,-76.9230769230769,4,1,0,80,0,1
72872,-83.3333333333333,4,1,0,80,0,1
73286,-76.9230769230769,4,1,0,80,0,1
73699,-83.3333333333333,4,1,0,80,0,1
74114,-71.42857,4,1,0,80,0,0
74320,-72.72763,4,1,0,80,0,0
74424,-73.09541,4,1,0,80,0,0
74527,-73.41622,4,1,0,80,0,0
74941,-74.48515,4,1,0,80,0,0
75148,-74.9446,4,1,0,80,0,0
75251,-75.16131,4,1,0,80,0,0
75355,-75.373505,4,1,0,80,0,0
75768,-76.16419,4,1,0,80,0,0
75975,-76.535995,4,1,0,80,0,0
76079,-76.71783,4,1,0,80,0,0
76182,-76.89498,4,1,0,80,0,0
76389,-77.24305,4,1,0,80,0,0
76596,-77.58166,4,1,0,80,0,0
77010,-78.23498,4,1,0,80,0,0
77217,-78.55144,4,1,0,80,0,0
77320,-78.70669,4,1,0,80,0,0
77424,-78.86204,4,1,0,80,0,0
77630,-79.16587,4,1,0,80,0,0
77734,-79.31742,4,1,0,80,0,0
77837,-79.46637,4,1,0,80,0,0
78251,-80.05454,4,1,0,80,0,0
78458,-80.34291,4,1,0,80,0,0
78561,-80.48511,4,1,0,80,0,0
78665,-80.62786,4,1,0,80,0,0
79079,-81.18849,4,1,0,80,0,0
79286,-81.46461,4,1,0,80,0,0
79389,-81.601036,4,1,0,80,0,0
79493,-81.73818,4,1,0,80,0,0
79699,-82.00807,4,1,0,80,0,0
79906,-82.27705,4,1,0,80,0,0
80113,-82.54393,4,1,0,80,0,0
80320,-82.80887,4,1,0,80,0,0
80424,-82.94128,4,1,0,80,0,0
80527,-83.07197,4,1,0,80,0,0
80734,-83.33333,4,1,0,80,0,0

[HitObjects]
224,160,1286,5,0,0:0:0:0:
224,160,1492,1,0,0:0:0:0:
288,160,1699,1,8,0:0:0:0:
224,160,2113,1,0,0:0:0:0:
224,160,2320,1,0,0:0:0:0:
288,160,2527,1,8,0:0:0:0:
224,160,2941,1,0,0:0:0:0:
224,160,3148,1,0,0:0:0:0:
288,160,3354,1,8,0:0:0:0:
288,160,3768,1,8,0:0:0:0:
224,160,4596,1,0,0:0:0:0:
288,160,4803,1,8,0:0:0:0:
288,160,5010,1,8,0:0:0:0:
224,160,5423,1,0,0:0:0:0:
288,160,5630,1,8,0:0:0:0:
288,160,5837,1,8,0:0:0:0:
224,160,6251,1,0,0:0:0:0:
288,160,6458,1,8,0:0:0:0:
288,160,6665,1,8,0:0:0:0:
288,160,7079,1,8,0:0:0:0:
224,224,7286,1,4,0:0:0:0:
224,224,7906,1,4,0:0:0:0:
224,160,8113,1,0,0:0:0:0:
224,160,8217,1,0,0:0:0:0:
288,160,8320,1,8,0:0:0:0:
224,160,8734,1,0,0:0:0:0:
224,160,8941,1,0,0:0:0:0:
224,160,9044,1,0,0:0:0:0:
288,160,9148,1,8,0:0:0:0:
224,160,9561,1,0,0:0:0:0:
224,160,9768,1,0,0:0:0:0:
224,160,9872,1,0,0:0:0:0:
288,160,9975,1,8,0:0:0:0:
224,160,10182,1,0,0:0:0:0:
288,160,10389,1,8,0:0:0:0:
288,160,10803,1,8,0:0:0:0:
288,160,11010,1,8,0:0:0:0:
288,160,11113,1,8,0:0:0:0:
224,160,11217,1,0,0:0:0:0:
288,160,11423,1,8,0:0:0:0:
224,160,11527,1,0,0:0:0:0:
288,160,11630,1,8,0:0:0:0:
224,160,12044,1,0,0:0:0:0:
288,160,12251,1,8,0:0:0:0:
224,160,12354,1,0,0:0:0:0:
288,160,12458,1,8,0:0:0:0:
224,160,12872,1,0,0:0:0:0:
288,160,13079,1,8,0:0:0:0:
224,160,13182,1,0,0:0:0:0:
288,160,13286,1,8,0:0:0:0:
224,160,13492,1,0,0:0:0:0:
288,160,13699,1,8,0:0:0:0:
224,160,13906,1,0,0:0:0:0:
288,160,14113,1,8,0:0:0:0:
288,160,14217,1,8,0:0:0:0:
288,160,14320,1,8,0:0:0:0:
224,160,14527,1,0,0:0:0:0:
224,160,14734,1,0,0:0:0:0:
224,160,14837,1,0,0:0:0:0:
288,160,14941,1,8,0:0:0:0:
224,160,15354,1,0,0:0:0:0:
224,160,15561,1,0,0:0:0:0:
224,160,15665,1,0,0:0:0:0:
288,160,15768,1,8,0:0:0:0:
224,160,16182,1,0,0:0:0:0:
224,160,16389,1,0,0:0:0:0:
224,160,16492,1,0,0:0:0:0:
288,160,16596,1,8,0:0:0:0:
224,160,16803,1,0,0:0:0:0:
288,160,17010,1,8,0:0:0:0:
288,160,17424,1,8,0:0:0:0:
288,160,17631,1,8,0:0:0:0:
288,160,17734,1,8,0:0:0:0:
224,160,17837,1,0,0:0:0:0:
288,160,18044,1,8,0:0:0:0:
224,160,18148,1,0,0:0:0:0:
288,160,18251,1,8,0:0:0:0:
224,160,18665,1,0,0:0:0:0:
288,160,18872,1,8,0:0:0:0:
224,160,18975,1,0,0:0:0:0:
288,160,19079,1,8,0:0:0:0:
224,160,19492,1,0,0:0:0:0:
288,160,19699,1,8,0:0:0:0:
224,160,19803,1,0,0:0:0:0:
288,160,19906,1,8,0:0:0:0:
224,160,20113,1,0,0:0:0:0:
288,160,20320,1,8,0:0:0:0:
288,160,20423,1,8,0:0:0:0:
224,160,20527,1,0,0:0:0:0:
288,160,20630,1,8,0:0:0:0:
224,160,20734,1,0,0:0:0:0:
224,160,21148,1,0,0:0:0:0:
288,160,21561,1,8,0:0:0:0:
288,160,21975,1,8,0:0:0:0:
224,160,22389,1,0,0:0:0:0:
288,160,22803,1,8,0:0:0:0:
288,160,23217,1,8,0:0:0:0:
288,160,23630,1,8,0:0:0:0:
224,160,24044,1,0,0:0:0:0:
224,160,24458,1,0,0:0:0:0:
288,160,24872,1,8,0:0:0:0:
224,160,25286,1,0,0:0:0:0:
224,160,25699,1,0,0:0:0:0:
288,160,26113,1,8,0:0:0:0:
288,160,27354,1,8,0:0:0:0:
224,160,27768,1,0,0:0:0:0:
288,160,28183,1,8,0:0:0:0:
288,160,28596,1,8,0:0:0:0:
224,160,29010,1,0,0:0:0:0:
224,160,29424,1,0,0:0:0:0:
288,160,29837,1,8,0:0:0:0:
224,160,30251,1,0,0:0:0:0:
288,160,30665,1,8,0:0:0:0:
288,160,31079,1,8,0:0:0:0:
288,160,31906,1,8,0:0:0:0:
288,160,32320,1,8,0:0:0:0:
224,160,32734,1,0,0:0:0:0:
224,160,33561,1,0,0:0:0:0:
224,160,33975,1,0,0:0:0:0:
288,160,34182,1,8,0:0:0:0:
288,160,34286,1,8,0:0:0:0:
288,160,34389,1,8,0:0:0:0:
224,224,34596,1,4,0:0:0:0:
224,224,34803,1,4,0:0:0:0:
288,160,35010,1,8,0:0:0:0:
224,160,35113,1,0,0:0:0:0:
288,160,35217,1,8,0:0:0:0:
224,224,35423,1,4,0:0:0:0:
224,224,35630,1,4,0:0:0:0:
288,160,35837,1,8,0:0:0:0:
288,160,35941,1,8,0:0:0:0:
288,160,36044,1,8,0:0:0:0:
224,224,36251,1,4,0:0:0:0:
224,224,36458,1,4,0:0:0:0:
288,160,36665,1,8,0:0:0:0:
224,160,36768,1,0,0:0:0:0:
288,160,36872,1,8,0:0:0:0:
224,224,37079,1,4,0:0:0:0:
224,224,37286,1,4,0:0:0:0:
288,160,37492,1,8,0:0:0:0:
288,160,37596,1,8,0:0:0:0:
224,160,37699,1,0,0:0:0:0:
224,160,37907,1,0,0:0:0:0:
288,160,38113,1,8,0:0:0:0:
288,160,38320,1,8,0:0:0:0:
288,160,38423,1,8,0:0:0:0:
224,160,38527,1,0,0:0:0:0:
224,160,38734,1,0,0:0:0:0:
288,160,38941,1,8,0:0:0:0:
224,160,39354,1,0,0:0:0:0:
224,160,39561,1,0,0:0:0:0:
224,160,39665,1,0,0:0:0:0:
288,160,39768,1,8,0:0:0:0:
224,160,39975,1,0,0:0:0:0:
288,160,40182,1,8,0:0:0:0:
288,160,40286,1,8,0:0:0:0:
224,160,40389,1,0,0:0:0:0:
288,160,40596,1,8,0:0:0:0:
288,160,40803,1,8,0:0:0:0:
224,160,40906,1,0,0:0:0:0:
224,160,41010,1,0,0:0:0:0:
288,224,41217,1,12,0:0:0:0:
288,224,41423,1,12,0:0:0:0:
224,160,41630,1,0,0:0:0:0:
224,160,41734,1,0,0:0:0:0:
288,160,41837,1,8,0:0:0:0:
224,224,42044,1,4,0:0:0:0:
224,224,42251,1,4,0:0:0:0:
288,160,42458,1,8,0:0:0:0:
288,160,42561,1,8,0:0:0:0:
224,160,42665,1,0,0:0:0:0:
288,224,42872,1,12,0:0:0:0:
288,224,43079,1,12,0:0:0:0:
224,160,43286,1,0,0:0:0:0:
288,160,43389,1,8,0:0:0:0:
288,160,43492,1,8,0:0:0:0:
224,224,43699,1,4,0:0:0:0:
224,224,43906,1,4,0:0:0:0:
288,160,44113,1,8,0:0:0:0:
224,160,44320,1,0,0:0:0:0:
224,160,44527,1,0,0:0:0:0:
288,224,44734,1,12,0:0:0:0:
288,224,45148,1,12,0:0:0:0:
224,160,45354,1,0,0:0:0:0:
224,160,45458,1,0,0:0:0:0:
224,160,45561,1,0,0:0:0:0:
224,160,45768,1,0,0:0:0:0:
288,224,45975,1,12,0:0:0:0:
288,224,46389,1,12,0:0:0:0:
224,160,46803,1,0,0:0:0:0:
288,160,46906,1,8,0:0:0:0:
224,160,47010,1,0,0:0:0:0:
224,160,47113,1,0,0:0:0:0:
288,160,47217,1,8,0:0:0:0:
224,224,47630,1,4,0:0:0:0:
224,160,47837,1,0,0:0:0:0:
224,160,47941,1,0,0:0:0:0:
288,160,48044,1,8,0:0:0:0:
288,160,48251,1,8,0:0:0:0:
224,160,48458,1,0,0:0:0:0:
288,160,48666,1,8,0:0:0:0:
224,160,48768,1,0,0:0:0:0:
288,160,48872,1,8,0:0:0:0:
288,160,49079,1,8,0:0:0:0:
224,160,49286,1,0,0:0:0:0:
224,160,49492,1,0,0:0:0:0:
224,160,49596,1,0,0:0:0:0:
288,160,49699,1,8,0:0:0:0:
224,160,49906,1,0,0:0:0:0:
288,160,50113,1,8,0:0:0:0:
288,160,50217,1,8,0:0:0:0:
224,160,50320,1,0,0:0:0:0:
288,224,50527,1,12,0:0:0:0:
224,160,50734,1,0,0:0:0:0:
288,224,50941,1,12,0:0:0:0:
224,160,51148,1,0,0:0:0:0:
224,160,51252,1,0,0:0:0:0:
288,160,51354,1,8,0:0:0:0:
224,160,51561,1,0,0:0:0:0:
288,160,51768,1,8,0:0:0:0:
288,160,51975,1,8,0:0:0:0:
288,160,52079,1,8,0:0:0:0:
224,160,52183,1,0,0:0:0:0:
288,160,52390,1,8,0:0:0:0:
288,160,52597,1,8,0:0:0:0:
224,160,52803,1,0,0:0:0:0:
224,160,52906,1,0,0:0:0:0:
288,160,53010,1,8,0:0:0:0:
288,160,53113,1,8,0:0:0:0:
224,160,53217,1,0,0:0:0:0:
288,160,53423,1,8,0:0:0:0:
288,160,53527,1,8,0:0:0:0:
224,160,53630,1,0,0:0:0:0:
288,160,53837,1,8,0:0:0:0:
224,160,54251,1,0,0:0:0:0:
288,160,54458,1,8,0:0:0:0:
224,160,54561,1,0,0:0:0:0:
288,160,54665,1,8,0:0:0:0:
288,160,54872,1,8,0:0:0:0:
224,160,55079,1,0,0:0:0:0:
224,160,55286,1,0,0:0:0:0:
224,160,55389,1,0,0:0:0:0:
288,160,55492,1,8,0:0:0:0:
288,160,55700,1,8,0:0:0:0:
224,160,55906,1,0,0:0:0:0:
288,160,56113,1,8,0:0:0:0:
224,160,56217,1,0,0:0:0:0:
288,160,56320,1,8,0:0:0:0:
224,160,56527,1,0,0:0:0:0:
288,160,56734,1,8,0:0:0:0:
288,160,56837,1,8,0:0:0:0:
224,160,56941,1,0,0:0:0:0:
288,160,57148,1,8,0:0:0:0:
288,160,57251,1,8,0:0:0:0:
288,160,57354,1,8,0:0:0:0:
224,160,57561,1,0,0:0:0:0:
288,160,57975,1,8,0:0:0:0:
288,160,58079,1,8,0:0:0:0:
224,160,58182,1,0,0:0:0:0:
288,160,58389,1,8,0:0:0:0:
224,160,58596,1,0,0:0:0:0:
288,160,58803,1,8,0:0:0:0:
224,160,58906,1,0,0:0:0:0:
288,160,59010,1,8,0:0:0:0:
224,160,59217,1,0,0:0:0:0:
224,160,59423,1,0,0:0:0:0:
288,160,59630,1,8,0:0:0:0:
288,160,59734,1,8,0:0:0:0:
224,160,59837,1,0,0:0:0:0:
288,160,60044,1,8,0:0:0:0:
224,160,60251,1,0,0:0:0:0:
224,160,60354,1,0,0:0:0:0:
288,160,60458,1,8,0:0:0:0:
224,160,60872,1,4,0:0:0:0:
224,160,61079,1,0,0:0:0:0:
224,160,61182,1,0,0:0:0:0:
288,160,61286,1,8,0:0:0:0:
288,160,61492,1,8,0:0:0:0:
224,160,61699,1,0,0:0:0:0:
288,160,61907,1,8,0:0:0:0:
224,160,62010,1,0,0:0:0:0:
288,160,62113,1,8,0:0:0:0:
288,160,62320,1,8,0:0:0:0:
224,160,62527,1,0,0:0:0:0:
224,160,62734,1,0,0:0:0:0:
224,160,62837,1,0,0:0:0:0:
288,160,62941,1,8,0:0:0:0:
224,160,63148,1,0,0:0:0:0:
288,160,63354,1,8,0:0:0:0:
288,160,63458,1,8,0:0:0:0:
224,160,63561,1,0,0:0:0:0:
288,224,63768,1,12,0:0:0:0:
224,160,63975,1,0,0:0:0:0:
288,224,64182,1,12,0:0:0:0:
288,160,64596,1,8,0:0:0:0:
224,160,64803,1,0,0:0:0:0:
224,160,64906,1,0,0:0:0:0:
288,160,65010,1,8,0:0:0:0:
224,160,65217,1,0,0:0:0:0:
288,160,65423,1,8,0:0:0:0:
224,160,65630,1,0,0:0:0:0:
224,160,65734,1,0,0:0:0:0:
288,160,65837,1,8,0:0:0:0:
288,160,65941,1,8,0:0:0:0:
224,160,66044,1,0,0:0:0:0:
288,160,66251,1,8,0:0:0:0:
288,160,66355,1,8,0:0:0:0:
224,160,66458,1,0,0:0:0:0:
224,160,66561,1,0,0:0:0:0:
288,160,66665,1,8,0:0:0:0:
224,160,66872,1,0,0:0:0:0:
288,160,67079,1,8,0:0:0:0:
288,160,67286,1,8,0:0:0:0:
224,160,67390,1,0,0:0:0:0:
288,160,67493,1,8,0:0:0:0:
224,160,67699,1,0,0:0:0:0:
224,160,67803,1,0,0:0:0:0:
288,160,67906,1,8,0:0:0:0:
224,160,68113,1,0,0:0:0:0:
288,160,68320,1,8,0:0:0:0:
288,160,68423,1,8,0:0:0:0:
224,160,68527,1,0,0:0:0:0:
288,160,68734,1,8,0:0:0:0:
288,160,68941,1,8,0:0:0:0:
224,224,69148,1,4,0:0:0:0:
224,224,69354,1,4,0:0:0:0:
288,160,69561,1,8,0:0:0:0:
224,160,69665,1,0,0:0:0:0:
288,160,69768,1,8,0:0:0:0:
224,224,69975,1,4,0:0:0:0:
224,224,70182,1,4,0:0:0:0:
288,160,70389,1,8,0:0:0:0:
288,160,70492,1,8,0:0:0:0:
288,160,70596,1,8,0:0:0:0:
224,224,70803,1,4,0:0:0:0:
256,192,71217,8,0,72044,0:0:0:0:
224,224,72458,5,4,0:0:0:0:
224,224,72665,1,4,0:0:0:0:
288,160,72872,1,8,0:0:0:0:
224,224,73286,1,4,0:0:0:0:
224,224,73492,1,4,0:0:0:0:
288,160,73699,1,8,0:0:0:0:
224,224,74114,1,4,0:0:0:0:
224,160,74320,1,0,0:0:0:0:
224,160,74424,1,0,0:0:0:0:
288,160,74527,1,8,0:0:0:0:
224,160,74941,1,0,0:0:0:0:
224,160,75148,1,0,0:0:0:0:
224,160,75251,1,0,0:0:0:0:
288,160,75355,1,8,0:0:0:0:
224,160,75768,1,0,0:0:0:0:
224,160,75975,1,0,0:0:0:0:
224,160,76079,1,0,0:0:0:0:
288,160,76182,1,8,0:0:0:0:
224,160,76389,1,0,0:0:0:0:
288,160,76596,1,8,0:0:0:0:
288,160,77010,1,8,0:0:0:0:
288,160,77217,1,8,0:0:0:0:
288,160,77320,1,8,0:0:0:0:
224,160,77424,1,0,0:0:0:0:
288,160,77630,1,8,0:0:0:0:
224,160,77734,1,0,0:0:0:0:
288,160,77837,1,8,0:0:0:0:
224,160,78251,1,0,0:0:0:0:
288,160,78458,1,8,0:0:0:0:
224,160,78561,1,0,0:0:0:0:
288,160,78665,1,8,0:0:0:0:
224,160,79079,1,0,0:0:0:0:
288,160,79286,1,8,0:0:0:0:
224,160,79389,1,0,0:0:0:0:
288,160,79493,1,8,0:0:0:0:
224,160,79699,1,0,0:0:0:0:
288,160,79906,1,8,0:0:0:0:
224,160,80113,1,0,0:0:0:0:
288,160,80320,1,8,0:0:0:0:
288,160,80424,1,8,0:0:0:0:
288,160,80527,1,8,0:0:0:0:
224,160,80734,1,0,0:0:0:0:
224,160,80941,1,0,0:0:0:0:
224,160,81044,1,0,0:0:0:0:
288,160,81148,1,8,0:0:0:0:
224,160,81561,1,0,0:0:0:0:
224,160,81768,1,0,0:0:0:0:
224,160,81872,1,0,0:0:0:0:
288,160,81975,1,8,0:0:0:0:
224,160,82389,1,0,0:0:0:0:
224,160,82596,1,0,0:0:0:0:
224,160,82699,1,0,0:0:0:0:
288,160,82803,1,8,0:0:0:0:
224,160,83010,1,0,0:0:0:0:
288,160,83217,1,8,0:0:0:0:
288,160,83631,1,8,0:0:0:0:
288,160,83838,1,8,0:0:0:0:
288,160,83941,1,8,0:0:0:0:
224,160,84044,1,0,0:0:0:0:
288,160,84251,1,8,0:0:0:0:
224,160,84355,1,0,0:0:0:0:
288,160,84458,1,8,0:0:0:0:
224,160,84872,1,0,0:0:0:0:
288,160,85079,1,8,0:0:0:0:
224,160,85182,1,0,0:0:0:0:
288,160,85286,1,8,0:0:0:0:
224,160,85699,1,0,0:0:0:0:
288,160,85906,1,8,0:0:0:0:
224,160,86010,1,0,0:0:0:0:
288,160,86113,1,8,0:0:0:0:
224,160,86320,1,0,0:0:0:0:
288,160,86527,1,8,0:0:0:0:
288,160,86630,1,8,0:0:0:0:
224,160,86734,1,0,0:0:0:0:
