osu file format v14

[General]
AudioFilename: audio.mp3
AudioLeadIn: 0
PreviewTime: 47562
Countdown: 0
SampleSet: Normal
StackLeniency: 0.7
Mode: 1
LetterboxInBreaks: 0
WidescreenStoryboard: 1

[Editor]
Bookmarks: 1295,7915,21157,34398,47639,74122,87363
DistanceSpacing: 1.3
BeatDivisor: 6
GridSize: 32
TimelineZoom: 1.2

[Metadata]
Title:Neptune*Sagashite (TV Size)
TitleUnicode:ネプテューヌ☆サガして (TV Size)
Artist:Afilia Saga
ArtistUnicode:アフィリア・サーガ
Creator:KatK1
Version:Kantan
Source:超次元ゲイム ネプテューヌ
Tags:hyperdimension neptunia the animation ending ed choujigen video game neptune pop jpop j-pop japanese anime
BeatmapID:4001223
BeatmapSetID:1935891

[Difficulty]
HPDrainRate:10
CircleSize:4
OverallDifficulty:3
ApproachRate:8
SliderMultiplier:1.4
SliderTickRate:1

[Events]
//Background and Video events
0,0,"neptunia.jpg",0,-136
//Break Periods
//Storyboard Layer 0 (Background)
//Storyboard Layer 1 (Fail)
//Storyboard Layer 2 (Pass)
//Storyboard Layer 3 (Foreground)
//Storyboard Layer 4 (Overlay)
//Storyboard Sound Samples

[TimingPoints]
-5334,413.793103448276,4,1,0,50,1,0
1286,-125,4,1,0,50,0,0
7217,-125,4,1,0,75,0,0
7838,-111.111111111111,4,1,0,80,0,0
21079,-125,4,1,0,50,0,0
34114,-111.111111111111,4,1,0,70,0,0
34528,-111.111111111111,4,1,0,80,0,0
34941,-111.111111111111,4,1,0,70,0,0
35355,-111.111111111111,4,1,0,80,0,0
35769,-111.111111111111,4,1,0,70,0,0
36183,-111.111111111111,4,1,0,80,0,0
36597,-111.111111111111,4,1,0,70,0,0
37011,-111.111111111111,4,1,0,80,0,0
37424,-111.111111111111,4,1,0,70,0,0
40734,-111.111111111111,4,1,0,70,0,0
41148,-111.111111111111,4,1,0,80,0,0
41562,-111.111111111111,4,1,0,70,0,0
41976,-111.111111111111,4,1,0,80,0,0
42390,-111.111111111111,4,1,0,70,0,0
42804,-111.111111111111,4,1,0,80,0,0
43217,-111.111111111111,4,1,0,70,0,0
43631,-111.111111111111,4,1,0,80,0,0
44045,-111.111111111111,4,1,0,70,0,0
44666,-111.111111111111,4,1,0,80,0,0
45286,-111.111111111111,4,1,0,70,0,0
45907,-111.111111111111,4,1,0,80,0,0
46803,-111.111111111111,4,1,0,70,0,0
47562,-100,4,1,0,80,0,0
47631,-100,4,1,0,80,0,1
74114,-111.111111111111,4,1,0,80,0,0

[HitObjects]
224,160,1286,5,0,0:0:0:0:
288,160,2113,1,8,0:0:0:0:
224,160,2941,1,0,0:0:0:0:
224,160,4596,1,0,0:0:0:0:
288,160,5423,1,8,0:0:0:0:
224,160,6251,1,0,0:0:0:0:
288,224,7286,1,12,0:0:0:0:
224,224,7907,1,4,0:0:0:0:
224,160,8735,1,0,0:0:0:0:
224,160,9562,1,0,0:0:0:0:
288,160,10390,1,8,0:0:0:0:
224,160,11218,1,0,0:0:0:0:
224,160,12045,1,0,0:0:0:0:
224,160,12873,1,0,0:0:0:0:
288,160,13700,1,8,0:0:0:0:
288,160,14114,1,8,0:0:0:0:
224,160,14528,1,0,0:0:0:0:
224,160,15355,1,0,0:0:0:0:
224,160,16183,1,0,0:0:0:0:
288,160,17011,1,8,0:0:0:0:
224,160,17838,1,0,0:0:0:0:
224,160,18666,1,0,0:0:0:0:
224,160,19493,1,0,0:0:0:0:
288,160,20321,1,8,0:0:0:0:
224,160,20734,1,0,0:0:0:0:
288,160,21975,1,8,0:0:0:0:
288,160,22803,1,8,0:0:0:0:
288,160,23630,1,8,0:0:0:0:
224,160,24458,1,0,0:0:0:0:
224,160,25286,1,0,0:0:0:0:
288,160,26113,1,8,0:0:0:0:
224,160,27769,1,0,0:0:0:0:
288,160,28596,1,8,0:0:0:0:
288,160,29423,1,8,0:0:0:0:
224,160,30251,1,0,0:0:0:0:
288,160,31079,1,8,0:0:0:0:
288,160,31906,1,8,0:0:0:0:
224,160,32734,1,0,0:0:0:0:
288,224,34390,1,12,0:0:0:0:
224,224,35217,1,4,0:0:0:0:
288,224,36045,1,12,0:0:0:0:
224,224,36873,1,4,0:0:0:0:
288,160,37700,1,8,0:0:0:0:
224,160,38114,1,0,0:0:0:0:
288,160,38528,1,8,0:0:0:0:
288,160,39355,1,8,0:0:0:0:
288,160,39769,1,8,0:0:0:0:
224,160,40183,1,0,0:0:0:0:
224,224,41010,1,4,0:0:0:0:
224,224,41838,1,4,0:0:0:0:
288,224,42666,1,12,0:0:0:0:
288,224,43493,1,12,0:0:0:0:
224,160,44321,1,0,0:0:0:0:
288,224,44734,1,12,0:0:0:0:
288,224,45148,1,12,0:0:0:0:
288,224,45975,1,12,0:0:0:0:
288,224,46389,1,12,0:0:0:0:
224,224,47630,1,4,0:0:0:0:
288,160,48044,1,8,0:0:0:0:
224,160,48458,1,0,0:0:0:0:
288,160,48872,1,8,0:0:0:0:
224,160,49286,1,0,0:0:0:0:
224,160,50114,1,0,0:0:0:0:
288,224,50527,1,12,0:0:0:0:
288,224,50941,1,12,0:0:0:0:
288,160,51768,1,8,0:0:0:0:
224,160,52596,1,0,0:0:0:0:
288,160,53010,1,8,0:0:0:0:
288,160,53424,1,8,0:0:0:0:
224,160,54251,1,0,0:0:0:0:
288,160,54665,1,8,0:0:0:0:
224,160,55079,1,0,0:0:0:0:
288,160,55492,1,8,0:0:0:0:
224,160,55906,1,0,0:0:0:0:
288,160,56734,1,8,0:0:0:0:
224,160,57561,1,0,0:0:0:0:
288,160,58389,1,8,0:0:0:0:
224,160,59217,1,0,0:0:0:0:
288,160,59631,1,8,0:0:0:0:
288,160,60045,1,8,0:0:0:0:
224,224,60872,1,4,0:0:0:0:
288,160,61286,1,8,0:0:0:0:
224,160,61699,1,0,0:0:0:0:
288,160,62113,1,8,0:0:0:0:
224,160,62527,1,0,0:0:0:0:
224,160,63355,1,0,0:0:0:0:
288,224,63768,1,12,0:0:0:0:
288,224,64182,1,12,0:0:0:0:
288,160,65010,1,8,0:0:0:0:
224,160,65838,1,0,0:0:0:0:
288,160,66252,1,8,0:0:0:0:
288,160,66666,1,8,0:0:0:0:
224,160,67492,1,0,0:0:0:0:
288,160,68320,1,8,0:0:0:0:
224,224,69148,1,4,0:0:0:0:
288,224,69975,1,12,0:0:0:0:
224,160,70803,1,0,0:0:0:0:
288,224,71217,1,12,0:0:0:0:
224,224,72458,1,4,0:0:0:0:
288,224,73286,1,12,0:0:0:0:
224,224,74114,1,4,0:0:0:0:
224,160,74942,1,0,0:0:0:0:
224,160,75769,1,0,0:0:0:0:
288,160,76597,1,8,0:0:0:0:
224,160,77425,1,0,0:0:0:0:
224,160,78252,1,0,0:0:0:0:
224,160,79080,1,0,0:0:0:0:
288,160,79907,1,8,0:0:0:0:
288,160,80321,1,8,0:0:0:0:
224,160,80735,1,0,0:0:0:0:
224,160,81562,1,0,0:0:0:0:
224,160,82390,1,0,0:0:0:0:
288,160,83218,1,8,0:0:0:0:
224,160,84045,1,0,0:0:0:0:
224,160,84873,1,0,0:0:0:0:
224,160,85700,1,0,0:0:0:0:
288,160,86734,1,8,0:0:0:0:
