osu file format v14

[General]
AudioFilename: audio.mp3
AudioLeadIn: 0
PreviewTime: 47562
Countdown: 0
SampleSet: Normal
StackLeniency: 0.7
Mode: 1
LetterboxInBreaks: 0
WidescreenStoryboard: 1

[Editor]
Bookmarks: 1295,7915,21157,34398,47639,74122,87363
DistanceSpacing: 1.3
BeatDivisor: 4
GridSize: 32
TimelineZoom: 1.2

[Metadata]
Title:Neptune*Sagashite (TV Size)
TitleUnicode:ネプテューヌ☆サガして (TV Size)
Artist:Afilia Saga
ArtistUnicode:アフィリア・サーガ
Creator:KatK1
Version:Futsuu
Source:超次元ゲイム ネプテューヌ
Tags:hyperdimension neptunia the animation ending ed choujigen video game neptune pop jpop j-pop japanese anime
BeatmapID:4001222
BeatmapSetID:1935891

[Difficulty]
HPDrainRate:9
CircleSize:4
OverallDifficulty:4
ApproachRate:8
SliderMultiplier:1.4
SliderTickRate:1

[Events]
//Background and Video events
0,0,"neptunia.jpg",0,-136
//Break Periods
//Storyboard Layer 0 (Background)
//Storyboard Layer 1 (Fail)
//Storyboard Layer 2 (Pass)
//Storyboard Layer 3 (Foreground)
//Storyboard Layer 4 (Overlay)
//Storyboard Sound Samples

[TimingPoints]
-5334,413.793103448276,4,1,0,50,1,0
1286,-125,4,1,0,50,0,0
7217,-125,4,1,0,75,0,0
7838,-111.111111111111,4,1,0,80,0,0
21079,-125,4,1,0,50,0,0
34114,-111.111111111111,4,1,0,70,0,0
34528,-111.111111111111,4,1,0,80,0,0
34941,-111.111111111111,4,1,0,70,0,0
35355,-111.111111111111,4,1,0,80,0,0
35769,-111.111111111111,4,1,0,70,0,0
36183,-111.111111111111,4,1,0,80,0,0
36597,-111.111111111111,4,1,0,70,0,0
37011,-111.111111111111,4,1,0,80,0,0
37424,-111.111111111111,4,1,0,70,0,0
40734,-111.111111111111,4,1,0,70,0,0
41148,-111.111111111111,4,1,0,80,0,0
41562,-111.111111111111,4,1,0,70,0,0
41976,-111.111111111111,4,1,0,80,0,0
42390,-111.111111111111,4,1,0,70,0,0
42804,-111.111111111111,4,1,0,80,0,0
43217,-111.111111111111,4,1,0,70,0,0
43631,-111.111111111111,4,1,0,80,0,0
44045,-111.111111111111,4,1,0,70,0,0
44666,-111.111111111111,4,1,0,80,0,0
45286,-111.111111111111,4,1,0,70,0,0
45907,-111.111111111111,4,1,0,80,0,0
46803,-111.111111111111,4,1,0,70,0,0
47562,-100,4,1,0,80,0,0
47631,-100,4,1,0,80,0,1
74114,-111.111111111111,4,1,0,80,0,0

[HitObjects]
224,160,1286,5,0,0:0:0:0:
288,160,1699,1,8,0:0:0:0:
224,160,2113,1,0,0:0:0:0:
288,160,2527,1,8,0:0:0:0:
224,160,2941,1,0,0:0:0:0:
288,160,3354,1,8,0:0:0:0:
288,160,3768,1,8,0:0:0:0:
224,160,4596,1,0,0:0:0:0:
288,160,5010,1,8,0:0:0:0:
224,160,5423,1,0,0:0:0:0:
288,160,5837,1,8,0:0:0:0:
224,160,6251,1,0,0:0:0:0:
288,160,6665,1,8,0:0:0:0:
288,160,7079,1,8,0:0:0:0:
224,224,7286,1,4,0:0:0:0:
224,160,7907,1,0,0:0:0:0:
288,160,8321,1,8,0:0:0:0:
224,160,8735,1,0,0:0:0:0:
288,160,9149,1,8,0:0:0:0:
224,160,9562,1,0,0:0:0:0:
224,160,9769,1,0,0:0:0:0:
288,160,9976,1,8,0:0:0:0:
288,160,10390,1,8,0:0:0:0:
224,160,11218,1,0,0:0:0:0:
288,160,11631,1,8,0:0:0:0:
224,160,12045,1,0,0:0:0:0:
288,160,12459,1,8,0:0:0:0:
224,160,12873,1,0,0:0:0:0:
224,160,13079,1,0,0:0:0:0:
288,160,13287,1,8,0:0:0:0:
288,160,13700,1,8,0:0:0:0:
224,160,13907,1,0,0:0:0:0:
288,160,14114,1,8,0:0:0:0:
224,160,14528,1,0,0:0:0:0:
288,160,14942,1,8,0:0:0:0:
224,160,15355,1,0,0:0:0:0:
288,160,15769,1,8,0:0:0:0:
224,160,16183,1,0,0:0:0:0:
224,160,16390,1,0,0:0:0:0:
288,160,16597,1,8,0:0:0:0:
288,160,17011,1,8,0:0:0:0:
224,160,17838,1,0,0:0:0:0:
288,160,18252,1,8,0:0:0:0:
224,160,18666,1,0,0:0:0:0:
288,160,19080,1,8,0:0:0:0:
224,160,19493,1,0,0:0:0:0:
224,160,19700,1,0,0:0:0:0:
288,160,19907,1,8,0:0:0:0:
224,160,20321,1,0,0:0:0:0:
288,160,20528,1,8,0:0:0:0:
224,160,20734,1,0,0:0:0:0:
288,160,21561,1,8,0:0:0:0:
288,160,21975,1,8,0:0:0:0:
224,160,22390,1,0,0:0:0:0:
288,160,22803,1,8,0:0:0:0:
288,160,23217,1,8,0:0:0:0:
288,160,23630,1,8,0:0:0:0:
224,160,24044,1,0,0:0:0:0:
224,160,24458,1,0,0:0:0:0:
288,160,24872,1,8,0:0:0:0:
224,160,25286,1,0,0:0:0:0:
224,160,25699,1,0,0:0:0:0:
288,160,26113,1,8,0:0:0:0:
288,160,27355,1,8,0:0:0:0:
224,160,27769,1,0,0:0:0:0:
288,160,28183,1,8,0:0:0:0:
288,160,28596,1,8,0:0:0:0:
224,160,29010,1,0,0:0:0:0:
288,160,29423,1,8,0:0:0:0:
288,160,29837,1,8,0:0:0:0:
224,160,30251,1,0,0:0:0:0:
288,160,30665,1,8,0:0:0:0:
288,160,31079,1,8,0:0:0:0:
288,160,31906,1,8,0:0:0:0:
288,160,32320,1,8,0:0:0:0:
224,160,32734,1,0,0:0:0:0:
224,224,34596,1,4,0:0:0:0:
224,224,34803,1,4,0:0:0:0:
224,224,35423,1,4,0:0:0:0:
224,224,35630,1,4,0:0:0:0:
224,224,36251,1,4,0:0:0:0:
224,224,36458,1,4,0:0:0:0:
224,224,37079,1,4,0:0:0:0:
224,224,37286,1,4,0:0:0:0:
224,160,37699,1,0,0:0:0:0:
288,160,38113,1,8,0:0:0:0:
224,160,38527,1,0,0:0:0:0:
288,160,38941,1,8,0:0:0:0:
224,160,39354,1,0,0:0:0:0:
288,160,39768,1,8,0:0:0:0:
288,160,40182,1,8,0:0:0:0:
288,224,41217,1,12,0:0:0:0:
288,224,41423,1,12,0:0:0:0:
224,224,42044,1,4,0:0:0:0:
224,224,42251,1,4,0:0:0:0:
288,224,42872,1,12,0:0:0:0:
288,224,43079,1,12,0:0:0:0:
224,224,43699,1,4,0:0:0:0:
224,224,43906,1,4,0:0:0:0:
224,160,44320,1,0,0:0:0:0:
288,224,44734,1,12,0:0:0:0:
288,224,45148,1,12,0:0:0:0:
224,160,45561,1,0,0:0:0:0:
224,160,45768,1,0,0:0:0:0:
288,224,45975,1,12,0:0:0:0:
288,224,46389,1,12,0:0:0:0:
288,160,47217,1,8,0:0:0:0:
224,224,47630,1,4,0:0:0:0:
224,160,47837,1,0,0:0:0:0:
288,160,48044,1,8,0:0:0:0:
224,160,48458,1,0,0:0:0:0:
288,160,48666,1,8,0:0:0:0:
288,160,48872,1,8,0:0:0:0:
224,160,49286,1,0,0:0:0:0:
224,160,49492,1,0,0:0:0:0:
288,160,49699,1,8,0:0:0:0:
224,160,50114,1,0,0:0:0:0:
288,224,50527,1,12,0:0:0:0:
288,224,50941,1,12,0:0:0:0:
224,160,51355,1,0,0:0:0:0:
288,160,51768,1,8,0:0:0:0:
224,160,52182,1,0,0:0:0:0:
288,160,52389,1,8,0:0:0:0:
224,160,52596,1,0,0:0:0:0:
288,160,53010,1,8,0:0:0:0:
224,160,53424,1,0,0:0:0:0:
224,160,54251,1,0,0:0:0:0:
288,160,54458,1,8,0:0:0:0:
288,160,54665,1,8,0:0:0:0:
224,160,55079,1,0,0:0:0:0:
224,160,55286,1,0,0:0:0:0:
288,160,55492,1,8,0:0:0:0:
224,160,55906,1,0,0:0:0:0:
288,160,56113,1,8,0:0:0:0:
288,160,56320,1,8,0:0:0:0:
224,160,56734,1,0,0:0:0:0:
288,160,57148,1,8,0:0:0:0:
224,160,57561,1,0,0:0:0:0:
224,160,57975,1,0,0:0:0:0:
224,160,58183,1,0,0:0:0:0:
288,160,58389,1,8,0:0:0:0:
224,160,58803,1,0,0:0:0:0:
288,160,59217,1,8,0:0:0:0:
288,160,59630,1,8,0:0:0:0:
224,160,59838,1,0,0:0:0:0:
288,160,60045,1,8,0:0:0:0:
224,224,60872,1,4,0:0:0:0:
224,160,61079,1,0,0:0:0:0:
288,160,61286,1,8,0:0:0:0:
224,160,61699,1,0,0:0:0:0:
288,160,61907,1,8,0:0:0:0:
288,160,62113,1,8,0:0:0:0:
224,160,62527,1,0,0:0:0:0:
224,160,62734,1,0,0:0:0:0:
288,160,62941,1,8,0:0:0:0:
224,160,63355,1,0,0:0:0:0:
288,224,63768,1,12,0:0:0:0:
288,224,64182,1,12,0:0:0:0:
224,160,64597,1,0,0:0:0:0:
288,160,65010,1,8,0:0:0:0:
288,160,65423,1,8,0:0:0:0:
224,160,65630,1,0,0:0:0:0:
288,160,65837,1,8,0:0:0:0:
224,160,66045,1,0,0:0:0:0:
288,160,66252,1,8,0:0:0:0:
288,160,66666,1,8,0:0:0:0:
224,160,67079,1,0,0:0:0:0:
224,160,67286,1,0,0:0:0:0:
288,160,67493,1,8,0:0:0:0:
288,160,67700,1,8,0:0:0:0:
224,160,67907,1,0,0:0:0:0:
288,160,68320,1,8,0:0:0:0:
288,160,68734,1,8,0:0:0:0:
288,160,68941,1,8,0:0:0:0:
224,224,69148,1,4,0:0:0:0:
224,224,69355,1,4,0:0:0:0:
288,224,69976,1,12,0:0:0:0:
288,224,70183,1,12,0:0:0:0:
224,160,70803,1,0,0:0:0:0:
288,224,71217,1,12,0:0:0:0:
288,160,72045,1,8,0:0:0:0:
224,224,72458,1,4,0:0:0:0:
224,224,72665,1,4,0:0:0:0:
288,224,73286,1,12,0:0:0:0:
288,224,73493,1,12,0:0:0:0:
224,224,74114,1,4,0:0:0:0:
288,160,74528,1,8,0:0:0:0:
224,160,74942,1,0,0:0:0:0:
288,160,75356,1,8,0:0:0:0:
224,160,75769,1,0,0:0:0:0:
224,160,75976,1,0,0:0:0:0:
288,160,76183,1,8,0:0:0:0:
288,160,76597,1,8,0:0:0:0:
224,160,77425,1,0,0:0:0:0:
288,160,77838,1,8,0:0:0:0:
224,160,78252,1,0,0:0:0:0:
288,160,78666,1,8,0:0:0:0:
224,160,79080,1,0,0:0:0:0:
224,160,79286,1,0,0:0:0:0:
288,160,79494,1,8,0:0:0:0:
288,160,79907,1,8,0:0:0:0:
288,160,80321,1,8,0:0:0:0:
288,160,80528,1,8,0:0:0:0:
224,160,80735,1,0,0:0:0:0:
288,160,81149,1,8,0:0:0:0:
224,160,81562,1,0,0:0:0:0:
288,160,81976,1,8,0:0:0:0:
224,160,82390,1,0,0:0:0:0:
224,160,82597,1,0,0:0:0:0:
288,160,82804,1,8,0:0:0:0:
288,160,83218,1,8,0:0:0:0:
224,160,84045,1,0,0:0:0:0:
288,160,84459,1,8,0:0:0:0:
224,160,84873,1,0,0:0:0:0:
288,160,85287,1,8,0:0:0:0:
224,160,85700,1,0,0:0:0:0:
224,160,85907,1,0,0:0:0:0:
288,160,86114,1,8,0:0:0:0:
224,160,86528,1,0,0:0:0:0:
288,160,86734,1,8,0:0:0:0:
