osu file format v14

[General]
AudioFilename: Neptune Sagashite.mp3
AudioLeadIn: 0
PreviewTime: 121584
Countdown: 0
SampleSet: Normal
StackLeniency: 0.3
Mode: 0
LetterboxInBreaks: 0
UseSkinSprites: 1
WidescreenStoryboard: 1

[Editor]
Bookmarks: 1273,2515,9135,15135,15549,15618,15687,15756,22377,28997,35618,42032,42239,48653,48860,52170,54653,55066,55480,62101,68722,75342,81963,88584,94791,95204,108239,108446,114860,115066,121687,128308,134928,141549,148170,154791,158101,158308,158515,158722,158928,159135,159342,159549,159756,159963,160170,160377,160584,160791,160894,160997,161411,164722,168032,174239,174446,174653,174791,174928,175066,175135,175204,175273,175342,175411,175480,175549,175618,175653,175687,175722,175756,175791,175825,175860,175894,176308,182722,182928,186239,187894,188308,188722,189135,189549,192860,196170,200928,201342,201549,201756,201963,202377,202791,209411,216032,224308,225963,227618,229273,242515,245825,248722,249135,255549,255618,255687,255756,259066,259687,260308,260928,261549,261963,267135,267342,267756,267963,268170,268273,268377,268480,268584,268635,268687,268739,268791,268842,268894,268946,268997
DistanceSpacing: 1
BeatDivisor: 8
GridSize: 8
TimelineZoom: 2.3

[Metadata]
Title:Neptune*Sagashite
TitleUnicode:ネプテューヌ☆サガして
Artist:Afilia Saga
ArtistUnicode:アフィリア・サーガ
Creator:PortableFreak
Version:Nep Nep 2018
Source:超次元ゲイム ネプテューヌ
Tags:Hyperdimension Neptunia Choujigen Game Neptune Max 60000 NepFreak
BeatmapID:1491206
BeatmapSetID:572781

[Difficulty]
HPDrainRate:5.2
CircleSize:4.6
OverallDifficulty:8.7
ApproachRate:8.6
SliderMultiplier:2.88
SliderTickRate:2

[Events]
//Background and Video events
0,0,"HDN_Neptune_alternate.png",0,0
//Break Periods
2,83818,84614
2,176611,180614
2,242766,243925
//Storyboard Layer 0 (Background)
Sprite,Background,Centre,"ready.png",320,240 F,0,186239,186653,0,1 S,0,186653,,0.5 F,0,187480,187894,1,0 M,0,189549,,320,240
Sprite,Background,Centre,"count3.png",320,240 S,0,187894,187997,0.54,0.5 F,0,187894,188308,1 F,0,188308,188411,1,0 M,0,189549,,320,240
Sprite,Background,Centre,"count2.png",320,240 S,0,188308,188411,0.54,0.5 F,0,188308,188722,1 F,0,188722,188825,1,0 M,0,189549,,320,240
Sprite,Background,Centre,"count1.png",320,240 S,0,188722,188825,0.54,0.5 F,0,188722,189135,1 F,0,189135,189239,1,0 M,0,189549,,320,240
Sprite,Background,Centre,"go.png",320,240 S,0,189135,189239,0.54,0.5 F,0,189135,189549,1 M,0,189549,,320,240
Sprite,Background,Centre,"white background.png",320,240 M,0,189549,,320,240 C,0,189549,191204,0,0,255,0,255,255 C,0,191204,192860,0,255,255,0,255,0 C,0,192860,194515,0,255,0,128,255,0 C,0,194515,196170,128,255,0,255,255,0 C,0,196170,197825,255,255,0,255,128,64 C,0,197825,199480,255,128,64,255,0,0 F,0,199480,200928,0.25,1 C,0,199480,200928,255,0,0,0,0,0 F,0,200928,202377,1 C,0,202791,,255,0,0 F,0,202791,229273,0.35
//Storyboard Layer 1 (Fail)
//Storyboard Layer 2 (Pass)
//Storyboard Layer 3 (Foreground)
Sprite,Foreground,Centre,"Error Message.png",320,240 F,0,189549,199480,1 F,0,199480,200928,1,0
Sprite,Foreground,Centre,"Error Message (2).png",320,240 F,0,201342,202377,1
Sprite,Foreground,Centre,"Error Message (3).png",320,240 F,0,227618,229273,1
Sprite,Foreground,Centre,"white background.png",320,240 M,0,189549,,320,240 F,0,189549,189756,1,0 F,0,201342,201549,1,0 F,0,202377,202584,1,0 F,0,202791,202997,1,0 F,0,216032,216239,1,0 F,0,224308,,1 F,0,224308,224515,1,0 F,0,225963,226170,1,0 F,0,227618,227825,1,0 F,0,229273,229480,1,0
//Storyboard Sound Samples

[TimingPoints]
860,413.793103448276,4,2,11,100,1,0
1480,-800,4,2,11,100,0,0
1687,-800,4,2,11,40,0,0
1894,-800,4,2,11,70,0,0
1997,-800,4,2,11,5,0,0
2075,-100,4,2,11,5,0,0
2101,-100,4,2,11,100,0,0
2127,-100,4,2,11,50,0,0
2489,-100,4,2,11,100,0,0
2515,-66.6666666666667,4,2,11,100,0,0
2566,-66.6666666666667,4,2,11,5,0,0
2618,-133.333333333333,4,2,11,5,0,0
2722,-133.333333333333,4,2,11,100,0,0
2825,-133.333333333333,4,2,11,5,0,0
2928,-133.333333333333,4,2,11,100,0,0
3446,-133.333333333333,4,2,11,5,0,0
3549,-133.333333333333,4,2,11,100,0,0
3704,-133.333333333333,4,2,11,5,0,0
3756,-133.333333333333,4,2,11,100,0,0
4273,-133.333333333333,4,2,11,5,0,0
4325,-133.333333333333,4,2,11,5,0,0
4377,-133.333333333333,4,2,11,100,0,0
4480,-133.333333333333,4,2,11,5,0,0
4584,-133.333333333333,4,2,11,100,0,0
5153,-133.333333333333,4,2,11,5,0,0
5204,-133.333333333333,4,2,11,100,0,0
5773,-133.333333333333,4,2,11,5,0,0
5825,-133.333333333333,4,2,11,100,0,0
5877,-133.333333333333,4,2,11,5,0,0
6032,-133.333333333333,4,2,11,100,0,0
6135,-133.333333333333,4,2,11,5,0,0
6239,-133.333333333333,4,2,11,100,0,0
6704,-133.333333333333,4,2,11,5,0,0
6860,-133.333333333333,4,2,11,100,0,0
7015,-133.333333333333,4,2,11,5,0,0
7066,-133.333333333333,4,2,11,100,0,0
7584,-133.333333333333,4,2,11,5,0,0
7687,-133.333333333333,4,2,11,100,0,0
7791,-133.333333333333,4,2,11,5,0,0
7894,-133.333333333333,4,2,11,100,0,0
8256,-133.333333333333,4,2,11,5,0,0
8308,-133.333333333333,4,2,11,100,0,0
8360,-133.333333333333,4,2,11,5,0,0
8463,-133.333333333333,4,2,11,5,0,0
8515,-133.333333333333,4,2,11,100,0,0
8618,-133.333333333333,4,2,11,5,0,0
8722,-133.333333333333,4,2,11,100,0,0
8877,-133.333333333333,4,2,11,5,0,0
8928,-100,4,2,11,60,0,0
9032,-133.333333333333,4,2,11,5,0,0
9135,-66.6666666666667,4,2,11,100,0,0
9187,-66.6666666666667,4,2,11,5,0,0
9291,-133.333333333333,4,2,11,5,0,0
9342,-133.333333333333,4,2,11,100,0,0
10118,-133.333333333333,4,2,11,5,0,0
10170,-133.333333333333,4,2,11,100,0,0
10273,-133.333333333333,4,2,11,5,0,0
10377,-133.333333333333,4,2,11,100,0,0
10428,-133.333333333333,4,2,11,5,0,0
10584,-133.333333333333,4,2,11,100,0,0
10894,-133.333333333333,4,2,11,5,0,0
10946,-133.333333333333,4,2,11,5,0,0
10997,-133.333333333333,4,2,11,100,0,0
11049,-133.333333333333,4,2,11,5,0,0
11204,-133.333333333333,4,2,11,100,0,0
11308,-133.333333333333,4,2,11,5,0,0
11411,-133.333333333333,4,2,11,100,0,0
11463,-133.333333333333,4,2,11,5,0,0
11618,-133.333333333333,4,2,11,100,0,0
11722,-133.333333333333,4,2,11,5,0,0
11825,-133.333333333333,4,2,11,100,0,0
11928,-133.333333333333,4,2,11,5,0,0
12032,-133.333333333333,4,2,11,100,0,0
12135,-133.333333333333,4,2,11,5,0,0
12239,-133.333333333333,4,2,11,100,0,0
12394,-133.333333333333,4,2,11,5,0,0
12446,-133.333333333333,4,2,11,100,0,0
12601,-133.333333333333,4,2,11,5,0,0
12653,-133.333333333333,4,2,11,100,0,0
12808,-133.333333333333,4,2,11,5,0,0
12860,-133.333333333333,4,2,11,100,0,0
13428,-133.333333333333,4,2,11,5,0,0
13480,-133.333333333333,4,2,11,100,0,0
13635,-133.333333333333,4,2,11,5,0,0
13687,-133.333333333333,4,2,11,100,0,0
14049,-133.333333333333,4,2,11,5,0,0
14101,-133.333333333333,4,2,11,100,0,0
14204,-133.333333333333,4,2,11,5,0,0
14256,-133.333333333333,4,2,11,5,0,0
14308,-133.333333333333,4,2,11,100,0,0
14515,-133.333333333333,4,2,11,100,0,0
14618,-133.333333333333,4,2,11,5,0,0
14722,-133.333333333333,4,2,11,100,0,0
14825,-133.333333333333,4,2,11,5,0,0
14928,-100,4,2,11,100,0,0
15135,-50,4,2,11,100,0,0
15239,-50,4,2,11,5,0,0
15342,-111.111111111111,4,3,11,100,0,0
15394,-111.111111111111,4,2,11,100,0,0
15497,-111.111111111111,4,2,11,5,0,0
15549,-111.111111111111,4,2,11,100,0,0
15756,-50,4,1,11,75,0,0
15808,-100,4,1,11,75,0,0
21963,-500,4,2,2,100,0,0
22118,-500,4,2,2,5,0,0
22170,-500,4,2,2,100,0,0
22377,-50,4,1,11,75,0,0
22428,-100,4,1,11,75,0,0
26928,-95.2380952380952,4,1,11,75,0,0
27135,-100,4,1,11,75,0,0
28377,-50,4,1,11,75,0,0
28584,-50,4,2,10,100,0,0
28946,-200,4,2,11,5,0,0
28997,-133.333333333333,4,2,11,100,0,0
29049,-133.333333333333,4,2,11,5,0,0
29204,-133.333333333333,4,2,11,100,0,0
29877,-133.333333333333,4,2,11,5,0,0
30032,-133.333333333333,4,2,11,100,0,0
30704,-133.333333333333,4,2,11,5,0,0
30860,-133.333333333333,4,2,11,100,0,0
31170,-133.333333333333,4,2,11,5,0,0
31273,-133.333333333333,4,2,11,100,0,0
31532,-133.333333333333,4,2,11,5,0,0
31687,-133.333333333333,4,2,11,100,0,0
31791,-133.333333333333,4,2,11,5,0,0
31894,-133.333333333333,4,2,11,100,0,0
32204,-133.333333333333,4,2,11,5,0,0
32256,-133.333333333333,4,2,11,5,0,0
32308,-133.333333333333,4,2,11,100,0,0
32360,-133.333333333333,4,2,11,5,0,0
32463,-133.333333333333,4,2,11,5,0,0
32515,-133.333333333333,4,2,11,100,0,0
32825,-133.333333333333,4,2,11,5,0,0
32928,-133.333333333333,4,2,11,100,0,0
33187,-133.333333333333,4,2,11,5,0,0
33342,-133.333333333333,4,2,11,100,0,0
33704,-133.333333333333,4,2,11,5,0,0
33756,-133.333333333333,4,2,11,100,0,0
34118,-133.333333333333,4,2,11,5,0,0
34170,-133.333333333333,4,2,11,100,0,0
34842,-133.333333333333,4,2,11,5,0,0
34997,-133.333333333333,4,2,11,100,0,0
35618,-50,4,2,11,100,0,0
35825,-133.333333333333,4,2,11,100,0,0
35980,-133.333333333333,4,2,11,5,0,0
36032,-133.333333333333,4,2,11,100,0,0
36084,-133.333333333333,4,2,11,5,0,0
36239,-133.333333333333,4,2,11,100,0,0
37635,-133.333333333333,4,2,11,5,0,0
37687,-133.333333333333,4,2,11,100,0,0
37842,-133.333333333333,4,2,11,5,0,0
37894,-133.333333333333,4,2,11,100,0,0
37997,-133.333333333333,4,2,11,5,0,0
38101,-133.333333333333,4,2,11,100,0,0
38256,-133.333333333333,4,2,11,5,0,0
38308,-133.333333333333,4,2,11,100,0,0
38411,-133.333333333333,4,2,11,5,0,0
38515,-133.333333333333,4,2,11,100,0,0
38566,-133.333333333333,4,2,11,5,0,0
38722,-133.333333333333,4,2,11,100,0,0
38825,-133.333333333333,4,2,11,5,0,0
38928,-133.333333333333,4,2,11,100,0,0
39239,-133.333333333333,4,2,11,5,0,0
39342,-133.333333333333,4,2,11,100,0,0
39446,-133.333333333333,4,2,11,5,0,0
39549,-133.333333333333,4,2,11,100,0,0
39704,-133.333333333333,4,2,11,5,0,0
39756,-133.333333333333,4,2,11,100,0,0
39911,-133.333333333333,4,2,11,5,0,0
39963,-133.333333333333,4,2,11,100,0,0
40066,-133.333333333333,4,2,11,5,0,0
40170,-133.333333333333,4,2,11,100,0,0
40325,-133.333333333333,4,2,11,5,0,0
40377,-133.333333333333,4,2,11,100,0,0
40584,-133.333333333333,4,1,11,100,0,0
40791,-133.333333333333,4,2,11,100,0,0
41101,-133.333333333333,4,2,11,5,0,0
41204,-133.333333333333,4,2,11,100,0,0
42032,-100,4,1,11,75,0,0
42446,-90.9090909090909,4,3,11,90,0,0
42860,-100,4,1,11,75,0,0
43273,-90.9090909090909,4,3,11,90,0,0
43687,-100,4,1,11,75,0,0
44101,-90.9090909090909,4,3,11,90,0,0
44515,-100,4,1,11,75,0,0
44928,-90.9090909090909,4,3,11,90,0,0
45342,-100,4,1,11,75,0,0
45549,-50,4,1,11,100,0,0
45601,-100,4,1,11,100,0,0
48239,-100,4,1,11,100,0,0
48342,-100,4,1,11,75,0,0
48446,-100,4,1,11,100,0,0
48653,-90.9090909090909,4,1,11,75,0,0
49066,-90.9090909090909,4,3,11,90,0,0
49480,-90.9090909090909,4,1,11,75,0,0
49894,-90.9090909090909,4,3,11,90,0,0
50308,-90.9090909090909,4,1,11,75,0,0
50722,-90.9090909090909,4,3,11,90,0,0
51135,-90.9090909090909,4,1,11,75,0,0
51549,-90.9090909090909,4,3,11,90,0,0
51963,-90.9090909090909,4,1,11,75,0,0
52170,-100,4,1,11,75,0,0
52584,-90.9090909090909,4,1,11,75,0,0
52997,-83.3333333333333,4,1,11,75,0,0
53204,-100,4,1,11,75,0,0
53825,-80,4,1,11,75,0,0
54239,-66.6666666666667,4,1,11,75,0,0
54653,-133.333333333333,4,2,11,100,0,0
55066,-111.111111111111,4,2,20,100,0,0
55428,-111.111111111111,4,2,11,5,0,0
55480,-80,4,1,11,100,0,1
63756,-81.3008130081301,4,1,11,100,0,1
64170,-80,4,1,11,100,0,1
68308,-80,4,1,11,100,0,0
68722,-80,4,1,11,100,0,1
72032,-81.3008130081301,4,1,11,100,0,1
73066,-80,4,1,11,100,0,1
74308,-80,4,1,2,100,0,1
74515,-80,4,1,11,100,0,1
75342,-40,4,1,11,100,0,1
75394,-80,4,1,11,100,0,1
75549,-80,4,1,11,100,0,1
78653,-400,4,1,11,100,0,1
79066,-25,4,1,21,100,0,1
79118,-80,4,1,11,100,0,1
81963,-50,4,1,11,75,0,0
82066,-100,4,1,11,75,0,0
88170,-95.2380952380952,4,1,11,75,0,0
88584,-50,4,1,31,75,0,0
88635,-100,4,1,11,75,0,0
91480,-95.2380952380952,4,1,11,75,0,0
91894,-100,4,1,11,75,0,0
94791,-50,4,2,10,100,0,0
94842,-50,4,2,10,12,0,0
94894,-100,4,2,10,20,0,0
94946,-200,4,2,10,36,0,0
94997,-200,4,2,10,52,0,0
95049,-200,4,2,10,68,0,0
95101,-200,4,2,10,84,0,0
95153,-200,4,2,10,5,0,0
95204,-66.6666666666667,4,2,11,100,0,0
95256,-133.333333333333,4,2,11,100,0,0
96911,-133.333333333333,4,2,11,5,0,0
97066,-133.333333333333,4,2,11,100,0,0
97377,-133.333333333333,4,2,11,5,0,0
97480,-133.333333333333,4,2,11,100,0,0
97997,-133.333333333333,4,2,11,5,0,0
98101,-133.333333333333,4,2,11,100,0,0
98411,-133.333333333333,4,2,11,5,0,0
98515,-133.333333333333,4,2,11,100,0,0
98618,-88.8888888888889,4,2,11,5,0,0
98670,-133.333333333333,4,2,11,5,0,0
98722,-133.333333333333,4,2,11,100,0,0
99032,-133.333333333333,4,2,11,5,0,0
99135,-133.333333333333,4,2,11,100,0,0
99497,-133.333333333333,4,2,11,5,0,0
99549,-133.333333333333,4,2,11,100,0,0
99911,-133.333333333333,4,2,11,5,0,0
99963,-133.333333333333,4,2,11,100,0,0
100325,-133.333333333333,4,2,11,5,0,0
100377,-133.333333333333,4,2,11,100,0,0
101101,-133.333333333333,4,2,11,5,0,0
101204,-133.333333333333,4,2,11,100,0,0
101825,-50,4,2,11,100,0,0
102032,-133.333333333333,4,2,11,100,0,0
102187,-133.333333333333,4,2,11,5,0,0
102239,-133.333333333333,4,2,11,100,0,0
102291,-133.333333333333,4,2,11,5,0,0
102446,-133.333333333333,4,2,11,100,0,0
102756,-133.333333333333,4,2,11,5,0,0
102860,-133.333333333333,4,2,11,100,0,0
103170,-133.333333333333,4,2,11,5,0,0
103273,-133.333333333333,4,2,11,100,0,0
103480,-117.647058823529,4,2,11,100,0,0
103894,-105.263157894737,4,2,11,100,0,0
104256,-105.263157894737,4,2,11,5,0,0
104308,-95.2380952380951,4,2,11,100,0,0
104360,-95.2380952380951,4,2,11,5,0,0
104515,-95.2380952380951,4,2,11,100,0,0
104722,-86.9565217391306,4,2,11,100,0,0
104825,-86.9565217391306,4,2,11,5,0,0
104928,-86.9565217391306,4,2,11,100,0,0
105135,-80,4,2,11,100,0,0
105549,-133.333333333333,4,2,11,100,0,0
105911,-133.333333333333,4,2,11,5,0,0
105963,-133.333333333333,4,2,11,100,0,0
106015,-133.333333333333,4,2,11,5,0,0
106170,-133.333333333333,4,2,11,100,0,0
106480,-133.333333333333,4,2,11,5,0,0
106584,-133.333333333333,4,2,11,100,0,0
106791,-80,4,2,1,100,0,0
106842,-133.333333333333,4,2,11,100,0,0
106946,-133.333333333333,4,2,11,5,0,0
106997,-133.333333333333,4,2,11,100,0,0
107153,-133.333333333333,4,2,11,5,0,0
107204,-80,4,2,1,100,0,0
107255,-133.333333333333,4,2,11,100,0,0
107670,-133.333333333333,4,2,11,5,0,0
107825,-133.333333333333,4,2,11,100,0,0
107928,-133.333333333333,4,2,11,5,0,0
108032,-133.333333333333,4,2,11,100,0,0
108187,-133.333333333333,4,2,11,5,0,0
108239,-100,4,1,11,75,0,0
108653,-90.9090909090909,4,3,11,90,0,0
109066,-100,4,1,11,75,0,0
109480,-90.9090909090909,4,3,11,90,0,0
109894,-100,4,1,11,75,0,0
110308,-90.9090909090909,4,3,11,90,0,0
110722,-100,4,1,11,75,0,0
111135,-90.9090909090909,4,3,11,90,0,0
111549,-100,4,1,11,75,0,0
111756,-50,4,1,11,100,0,0
111808,-100,4,1,11,100,0,0
114446,-100,4,1,0,100,0,0
114653,-100,4,1,11,100,0,0
114860,-90.9090909090909,4,1,11,75,0,0
115273,-90.9090909090909,4,3,11,90,0,0
115687,-90.9090909090909,4,1,11,75,0,0
116101,-90.9090909090909,4,3,11,90,0,0
116515,-90.9090909090909,4,1,11,75,0,0
116928,-90.9090909090909,4,3,11,90,0,0
117342,-90.9090909090909,4,1,11,75,0,0
117756,-90.9090909090909,4,3,11,90,0,0
118170,-90.9090909090909,4,1,11,75,0,0
118377,-100,4,1,11,75,0,0
118791,-96.1538461538461,4,1,11,75,0,0
119204,-100,4,1,11,75,0,0
120032,-80,4,1,11,75,0,0
120446,-66.6666666666667,4,1,11,75,0,0
120653,-100,4,3,0,75,0,0
120860,-133.333333333333,4,2,11,100,0,0
121273,-111.111111111111,4,2,21,100,0,0
121635,-111.111111111111,4,2,11,5,0,0
121687,-80,4,1,11,100,0,1
134515,-80,4,1,11,100,0,0
134928,-80,4,1,11,100,0,1
140515,-80,4,1,2,100,0,1
140722,-80,4,1,11,100,0,1
141549,-40,4,1,11,100,0,1
141601,-80,4,1,11,100,0,1
144860,-400,4,1,11,100,0,1
145273,-25,4,1,21,100,0,1
145325,-80,4,1,11,100,0,1
148170,-100,4,1,11,75,0,0
148584,-133.333333333333,4,2,11,100,0,0
148894,-133.333333333333,4,2,11,5,0,0
148997,-133.333333333333,4,2,11,100,0,0
149049,-133.333333333333,4,2,11,5,0,0
149204,-133.333333333333,4,2,11,100,0,0
149515,-133.333333333333,4,2,11,5,0,0
149618,-111.111111111111,4,3,11,100,0,0
149825,-100,4,1,11,75,0,0
150239,-133.333333333333,4,2,11,100,0,0
150291,-133.333333333333,4,2,11,5,0,0
150446,-133.333333333333,4,2,11,100,0,0
150756,-133.333333333333,4,2,11,5,0,0
150860,-133.333333333333,4,2,11,100,0,0
151118,-133.333333333333,4,2,11,5,0,0
151273,-133.333333333333,4,2,11,100,0,0
151428,-133.333333333333,4,2,11,5,0,0
151480,-100,4,1,11,75,0,0
151894,-133.333333333333,4,2,11,100,0,0
152204,-133.333333333333,4,2,11,5,0,0
152308,-133.333333333333,4,2,11,100,0,0
152360,-133.333333333333,4,2,11,5,0,0
152411,-133.333333333333,4,2,11,5,0,0
152515,-133.333333333333,4,2,11,100,0,0
152618,-133.333333333333,4,2,11,5,0,0
152722,-133.333333333333,4,2,11,100,0,0
152877,-133.333333333333,4,2,11,5,0,0
152928,-111.111111111111,4,3,11,100,0,0
153135,-100,4,1,11,75,0,0
154377,-80,4,1,11,75,0,0
154584,-80,4,1,11,100,0,0
154687,-80,4,1,11,75,0,0
154791,-90.9090909090909,4,1,1,90,0,0
155204,-100,4,1,11,75,0,0
156446,-90.9090909090909,4,1,1,90,0,0
156859,-100,4,1,11,75,0,0
158101,-90.9090909090909,4,1,11,90,0,0
160997,-400,4,1,11,90,0,0
161411,-50,4,1,11,75,0,0
161463,-90.9090909090909,4,1,11,75,0,0
165963,-88.4955752212389,4,1,11,75,0,0
166377,-90.9090909090909,4,1,11,75,0,0
168032,-90.9090909090909,4,1,31,75,0,0
168084,-90.9090909090909,4,1,11,75,0,0
169273,-74.0740740740741,4,1,11,75,0,0
169687,-90.9090909090909,4,1,31,75,0,0
169739,-90.9090909090909,4,1,11,75,0,0
170928,-74.0740740740741,4,1,11,75,0,0
171342,-90.9090909090909,4,1,31,75,0,0
171394,-90.9090909090909,4,1,11,75,0,0
172997,-80,4,1,11,75,0,0
173411,-71.4285714285714,4,1,11,75,0,0
173825,-66.6666666666667,4,1,11,75,0,0
174239,-50,4,1,21,75,0,0
174291,-90.9090909090909,4,1,11,75,0,0
174446,-133.333333333333,4,2,11,100,0,0
175894,-50,4,2,10,100,0,1
176256,-111.111111111111,4,2,10,5,0,1
176308,-50,4,2,11,100,0,0
176360,-133.333333333333,4,2,11,100,0,0
181325,-133.333333333333,4,2,11,5,0,0
181377,-133.333333333333,4,2,11,100,0,0
182670,-133.333333333333,4,2,11,5,0,0
182722,-100,4,2,11,60,0,0
182877,-133.333333333333,4,2,11,5,0,0
182928,-66.6666666666667,4,2,11,100,0,0
182980,-133.333333333333,4,2,11,5,0,0
183135,-133.333333333333,4,2,11,100,0,0
183239,-133.333333333333,4,2,11,5,0,0
183342,-133.333333333333,4,2,11,100,0,0
183860,-133.333333333333,4,2,11,5,0,0
183963,-133.333333333333,4,2,11,100,0,0
184066,-133.333333333333,4,2,11,5,0,0
184170,-133.333333333333,4,2,11,100,0,0
184325,-133.333333333333,4,2,11,5,0,0
184377,-133.333333333333,4,2,11,100,0,0
184687,-133.333333333333,4,2,11,5,0,0
184739,-133.333333333333,4,2,11,5,0,0
184791,-133.333333333333,4,2,11,100,0,0
184997,-133.333333333333,4,2,11,100,0,0
185153,-133.333333333333,4,2,11,5,0,0
185204,-133.333333333333,4,2,11,100,0,0
185308,-133.333333333333,4,2,11,5,0,0
185411,-133.333333333333,4,2,11,100,0,0
185463,-133.333333333333,4,2,11,5,0,0
185618,-133.333333333333,4,2,11,100,0,0
185928,-133.333333333333,4,2,11,5,0,0
186032,-133.333333333333,4,2,11,100,0,0
186394,-133.333333333333,4,2,11,5,0,0
186446,-133.333333333333,4,2,11,100,0,0
187222,-133.333333333333,4,2,11,5,0,0
187273,-133.333333333333,4,2,11,100,0,0
187635,-133.333333333333,4,2,11,5,0,0
187687,-133.333333333333,4,2,11,100,0,0
187842,-133.333333333333,4,2,11,5,0,0
187894,-133.333333333333,4,2,11,100,0,0
188049,-133.333333333333,4,2,11,5,0,0
188101,-133.333333333333,4,2,11,100,0,0
188256,-133.333333333333,4,2,11,5,0,0
188308,-133.333333333333,4,2,11,100,0,0
188360,-133.333333333333,4,2,11,5,0,0
188515,-133.333333333333,4,2,11,100,0,0
188618,-133.333333333333,4,2,11,5,0,0
188722,-133.333333333333,4,2,11,100,0,0
188877,-133.333333333333,4,2,11,5,0,0
188928,-66.6666666666667,4,2,11,60,0,0
189135,-133.333333333333,4,2,11,100,0,0
189549,-45.4545454545455,4,1,11,90,0,0
189756,-90.9090909090909,4,1,11,90,0,0
191204,-83.3333333333333,4,1,11,90,0,0
192860,-76.9230769230769,4,1,11,90,0,0
194515,-71.4285714285714,4,1,11,90,0,0
196170,-33.3333333333333,4,1,11,90,0,0
196222,-66.6666666666667,4,1,11,90,0,0
197825,-31.25,4,1,11,90,0,0
197877,-62.5,4,1,11,90,0,0
199273,-62.5,4,1,11,90,0,0
199480,-27.7777777777778,4,1,11,90,0,0
199532,-55.5555555555556,4,1,11,90,0,0
200722,-55.5555555555556,4,1,2,90,0,0
200877,-55.5555555555556,4,1,11,5,0,0
200928,-200,4,2,11,100,0,0
201135,-200,4,3,11,100,0,0
201342,-50,4,1,11,90,0,0
202377,-50,4,2,21,100,0,0
202739,-111.111111111111,4,2,11,5,0,0
202791,-50,4,1,11,100,0,1
215618,-50,4,1,11,100,0,0
215722,-50,4,2,11,100,0,0
215825,-50,4,1,11,100,0,0
216032,-50,4,1,11,100,0,1
217273,-51.2820512820513,4,1,11,100,0,1
217480,-50,4,1,11,100,0,1
221618,-50,4,1,2,100,0,1
221825,-50,4,1,11,100,0,1
225963,-400,4,1,11,100,0,1
226377,-25,4,1,21,100,0,1
226428,-50,4,1,11,100,0,1
229273,-50,4,1,11,75,0,0
229325,-100,4,1,11,75,0,0
232144,-100,4,1,11,5,0,0
232170,-100,4,1,11,75,0,0
235894,-50,4,1,31,75,0,0
235946,-100,4,1,11,75,0,0
241894,-50,4,1,11,75,0,0
242101,-100,4,1,11,75,0,0
242204,-100,4,1,11,5,0,0
242308,-100,4,1,11,75,0,0
242411,-100,4,1,11,5,0,0
242515,-50,4,1,11,75,0,0
242618,-100,4,1,11,75,0,0
245825,-50,4,1,11,75,0,0
245928,-100,4,1,11,75,0,0
248722,-500,4,2,2,100,0,0
248877,-500,4,2,2,5,0,0
248929,-500,4,2,2,100,0,0
249135,-50,4,1,11,75,0,0
249238,-100,4,1,11,75,0,0
255549,-111.111111111111,4,2,11,100,0,0
255756,-66.6666666666667,4,2,11,100,0,0
255808,-133.333333333333,4,2,11,5,0,0
255963,-133.333333333333,4,2,11,100,0,0
256066,-133.333333333333,4,2,11,5,0,0
256170,-133.333333333333,4,2,11,100,0,0
256480,-133.333333333333,4,2,11,5,0,0
256584,-133.333333333333,4,2,11,100,0,0
256687,-133.333333333333,4,2,11,5,0,0
256791,-133.333333333333,4,2,11,100,0,0
256842,-133.333333333333,4,2,11,5,0,0
256997,-133.333333333333,4,2,11,100,0,0
257049,-133.333333333333,4,2,11,5,0,0
257204,-133.333333333333,4,2,11,100,0,0
257308,-133.333333333333,4,2,11,5,0,0
257411,-133.333333333333,4,2,11,100,0,0
257566,-133.333333333333,4,2,11,5,0,0
257618,-133.333333333333,4,2,11,100,0,0
257722,-133.333333333333,4,2,11,5,0,0
257825,-133.333333333333,4,2,11,100,0,0
258239,-133.333333333333,4,2,11,60,0,0
258291,-133.333333333333,4,2,11,5,0,0
258446,-133.333333333333,4,2,11,100,0,0
258653,-133.333333333333,4,2,11,80,0,0
258756,-133.333333333333,4,2,11,5,0,0
258860,-133.333333333333,4,2,11,100,0,0
259118,-133.333333333333,4,2,11,5,0,0
259273,-133.333333333333,4,2,11,100,0,0
259842,-133.333333333333,4,2,11,5,0,0
259894,-133.333333333333,4,2,11,100,0,0
259946,-133.333333333333,4,2,11,5,0,0
260101,-133.333333333333,4,2,11,100,0,0
260360,-133.333333333333,4,2,11,5,0,0
260515,-133.333333333333,4,2,11,100,0,0
260773,-133.333333333333,4,2,11,5,0,0
260928,-133.333333333333,4,2,11,100,0,0
261084,-133.333333333333,4,2,11,5,0,0
261135,-133.333333333333,4,2,11,100,0,0
261187,-133.333333333333,4,2,11,5,0,0
261342,-133.333333333333,4,2,11,100,0,0
261704,-133.333333333333,4,2,11,5,0,0
261756,-133.333333333333,4,2,11,100,0,0
261860,-133.333333333333,4,2,11,5,0,0
261963,-133.333333333333,4,2,11,100,0,0
262118,-133.333333333333,4,2,11,5,0,0
262170,-133.333333333333,4,2,11,100,0,0
262428,-133.333333333333,4,2,11,5,0,0
262584,-133.333333333333,4,2,11,100,0,0
263049,-133.333333333333,4,2,11,5,0,0
263204,-133.333333333333,4,2,11,100,0,0
263722,-133.333333333333,4,2,11,5,0,0
263825,-133.333333333333,4,2,11,100,0,0
264342,-133.333333333333,4,2,11,5,0,0
264446,-133.333333333333,4,2,11,100,0,0
264860,-133.333333333333,4,2,11,60,0,0
264963,-133.333333333333,4,2,11,5,0,0
265066,-133.333333333333,4,2,11,100,0,0
265118,-133.333333333333,4,2,11,5,0,0
265273,-133.333333333333,4,2,11,80,0,0
265377,-133.333333333333,4,2,11,5,0,0
265480,-133.333333333333,4,2,11,100,0,0
265635,-133.333333333333,4,2,11,5,0,0
265687,-133.333333333333,4,2,11,100,0,0
265842,-133.333333333333,4,2,11,5,0,0
265894,-133.333333333333,4,2,11,100,0,0
266463,-133.333333333333,4,2,11,5,0,0
266515,-133.333333333333,4,2,11,100,0,0
266566,-133.333333333333,4,2,11,5,0,0
266722,-133.333333333333,4,2,11,100,0,0
267084,-133.333333333333,4,2,11,5,0,0
267135,-111.111111111111,4,2,11,100,0,0
267704,-111.111111111111,4,2,11,5,0,0
267756,-111.111111111111,4,2,11,100,0,0
267808,-111.111111111111,4,2,11,5,0,0
267963,-111.111111111111,4,2,11,100,0,0
268170,-100,4,2,11,100,0,0
268791,-50,4,2,11,100,0,0
268997,-200,4,2,21,100,0,0
269049,-200,4,2,11,100,0,0
269204,-200,4,2,11,100,0,0
270653,-200,4,2,11,5,0,0

[Colours]
Combo1 : 170,170,170
Combo2 : 128,0,255
Combo3 : 186,117,255
Combo4 : 255,128,255
Combo5 : 0,255,255
Combo6 : 255,0,0
Combo7 : 255,128,64
Combo8 : 255,255,0

[HitObjects]
152,168,1480,118,0,L|196:162,1,45
272,152,2101,6,2,L|283:126,12,18
244,224,2515,54,2,L|252:280,1,54.0000020599366,6|0,0:0|0:0,0:0:0:0:
280,352,2722,69,0,0:0:0:0:
328,288,2928,2,0,B|344:297|352:312|352:312|392:304|432:320,1,108.000004119873
488,360,3342,5,2,0:0:0:0:
496,280,3549,1,0,0:0:0:0:
464,208,3756,2,0,B|448:168|448:128|464:88,1,108.000004119873
304,80,4170,6,2,P|336:88|360:88,1,54.0000020599366,2|0,0:0|0:0,0:0:0:0:
192,176,4377,2,0,P|215:198|236:210,1,54.0000020599366
47,203,4584,2,0,P|56:234|120:296,1,108.000004119873
304,328,4997,70,2,P|280:322|216:340,1,81.0000030899049,2|0,0:3|0:3,0:3:0:0:
200,352,5204,1,0,0:0:0:0:
256,224,5411,6,2,P|225:233|162:297,1,108.000004119873,2|8,0:3|0:0,0:3:0:0:
344,248,5825,5,2,0:0:0:0:
416,240,6032,1,0,0:0:0:0:
480,208,6239,2,0,P|456:144|464:96,1,108.000004119873
416,240,6653,5,2,0:0:0:0:
392,176,6860,1,0,0:0:0:0:
392,104,7066,2,0,P|320:104|280:120,1,108.000004119873
120,80,7480,70,2,L|64:72,1,54.0000020599366,2|0,0:0|0:0,0:0:0:0:
184,216,7687,2,0,L|240:208,1,54.0000020599366
286,116,7894,2,0,P|234:131|180:128,1,108.000004119873
8,64,8308,6,2,L|92:76,1,81.0000030899049,2|0,0:3|0:3,0:3:0:0:
120,80,8515,1,0,0:0:0:0:
0,144,8722,6,2,L|66:196,1,81.0000030899049,2|0,0:3|0:3,0:3:0:0:
87,215,8928,54,0,P|96:224|120:312,1,108,12|0,0:0|0:0,0:0:0:0:
119,312,9135,86,0,P|120:344|132:380,1,54.0000020599366,4|0,0:0|0:0,0:0:0:0:
208,328,9342,101,0,0:0:0:0:
280,352,9549,2,0,L|392:344,1,108.000004119873
376,216,9963,69,2,0:0:0:0:
304,184,10170,1,0,0:0:0:0:
232,208,10377,2,0,L|120:200,1,108.000004119873
208,40,10791,6,2,L|271:35,1,54.0000020599366,2|0,0:0|0:0,0:0:0:0:
356,60,10997,2,0,L|293:65,1,54.0000020599366
264,176,11204,2,0,L|376:168,1,108.000004119873
320,312,11618,6,2,L|404:306,1,81.0000030899049,2|0,0:3|0:3,0:3:0:0:
432,304,11825,1,0,0:0:0:0:
371,168,12032,6,2,L|290:174,1,81.0000030899049,2|0,0:3|0:0,0:3:0:0:
260,176,12239,1,8,0:0:0:0:
144,72,12446,69,2,0:0:0:0:
112,144,12653,1,0,0:0:0:0:
120,224,12860,2,0,P|144:272|192:312,1,108.000004119873
327,307,13273,5,2,0:0:0:0:
382,250,13480,1,0,0:0:0:0:
400,172,13687,2,0,P|400:144|367:71,1,108.000004119873
144,72,14101,6,10,L|200:64,1,54.0000020599366,10|0,0:0|0:0,0:0:0:0:
120,224,14308,2,0,L|176:216,1,54.0000020599366
136,64,14515,6,10,L|192:56,1,54.0000020599366,10|0,0:0|0:0,0:0:0:0:
112,232,14722,2,2,L|168:224,1,54.0000020599366,10|0,0:0|0:0,0:0:0:0:
128,56,14928,38,10,B|204:44|204:44|192:72,1,108,10|0,0:1|0:0,0:0:0:0:
184,88,15135,86,10,B|156:117|156:117|258:134,1,144,6|0,0:0|0:0,0:0:0:0:
258,134,15549,53,2,0:0:0:0:
224,128,15618,5,2,0:0:0:0:
190,123,15687,5,2,0:0:0:0:
156,116,15756,22,4,L|80:104,1,72,4|0,0:0|2:0,0:0:0:0:
64,256,15963,102,0,L|140:268,1,72,0|0,0:0|2:0,0:0:0:0:
216,204,16170,2,0,L|64:180,1,144,8|0,0:0|1:0,0:0:0:0:
288,184,16584,70,0,B|295:220|295:220|276:252,1,72,0|0,0:0|2:0,0:0:0:0:
432,280,16791,2,0,B|425:244|425:244|444:212,1,72,0|0,0:0|2:0,0:0:0:0:
385,90,16997,2,0,L|360:232,1,144,8|0,1:0|1:0,1:0:0:0:
360,231,17411,6,0,P|346:268|288:312,1,108,0|0,0:2|2:0,0:0:0:0:
218,310,17618,2,0,P|174:279|152:231,1,108,0|0,1:2|2:0,0:0:0:0:
224,212,17825,6,10,P|256:248|288:212,1,108,10|0,0:0|2:0,0:0:0:0:
256,152,18032,1,0,0:0:0:0:
96,80,18239,6,2,B|36:40|36:40|56:256,1,288,2|8,0:0|0:0,0:0:0:0:
55,254,18860,1,0,0:0:0:0:
232,288,19066,70,0,P|224:328|208:360,1,72,0|0,0:0|2:0,0:0:0:0:
320,160,19273,2,0,P|350:186|370:216,1,72,0|0,0:0|2:0,0:0:0:0:
308,364,19480,2,8,P|301:292|277:224,1,144,8|0,0:0|1:0,0:0:0:0:
301,28,19894,6,0,P|286:60|280:96,1,72,0|0,0:0|2:0,0:0:0:0:
136,70,20101,2,0,P|157:99|184:123,1,72,0|0,0:0|2:0,0:0:0:0:
256,176,20308,2,0,P|262:247|286:315,1,144,8|0,0:0|1:0,0:0:0:0:
286,315,20722,6,0,P|281:261|291:208,1,108,0|0,0:0|2:0,0:0:0:0:
320,144,20928,2,0,P|337:194|369:238,1,108,0|0,0:0|2:0,0:0:0:0:
432,280,21135,6,10,P|441:226|464:177,1,108,10|0,0:0|2:0,0:0:0:0:
512,120,21342,1,0,0:0:0:0:
308,61,21549,70,2,B|332:36|332:36|313:86|319:143,1,144,2|0,0:0|1:0,0:0:0:0:
144,120,21963,102,0,L|169:123,1,21.6,8|0,0:2|0:0,0:0:0:0:
165,122,22170,21,8,0:0:0:0:
127,295,22377,38,4,B|114:262|114:262|112:227,1,72,4|0,0:0|2:0,0:0:0:0:
288,270,22584,86,0,B|286:234|286:234|273:201,1,72,0|0,0:0|2:0,0:0:0:0:
176,105,22791,2,8,L|200:248,1,144,8|0,0:0|0:0,0:0:0:0:
385,295,23204,6,0,B|398:262|398:262|400:227,1,72,0|0,0:0|2:0,0:0:0:0:
224,270,23411,2,0,B|226:234|226:234|239:201,1,72,0|0,0:0|2:0,0:0:0:0:
336,105,23618,2,8,L|312:248,1,144,8|0,0:0|0:0,0:0:0:0:
312,247,24032,70,0,L|301:139,1,108,0|0,0:0|2:0,0:0:0:0:
292,68,24239,2,0,L|247:166,1,108,0|0,0:0|2:0,0:0:0:0:
216,232,24446,6,10,L|178:130,1,108,10|0,0:0|2:0,0:0:0:0:
152,64,24653,1,0,0:0:0:0:
80,248,24860,6,10,L|66:103,1,144,2|0,0:0|1:0,0:0:0:0:
56,96,25273,5,8,0:0:0:0:
88,256,25480,1,8,0:0:0:0:
96,264,25687,70,0,P|120:280|168:288,1,72,0|0,0:0|2:0,0:0:0:0:
256,288,25894,2,0,P|280:272|328:264,1,72,0|0,0:0|2:0,0:0:0:0:
109,177,26101,2,8,B|137:186|152:208|152:208|186:207|212:226|212:226|226:215|241:207,1,144,8|0,0:0|0:0,0:0:0:0:
320,368,26515,6,0,P|355:362|385:343,1,72,0|0,0:0|2:0,0:0:0:0:
464,304,26722,2,0,P|429:310|399:329,1,72,0|0,0:0|2:0,0:0:0:0:
304,224,26928,2,0,B|335:242|375:228|375:228|415:214|450:234,1,151.199995385742,8|0,0:0|0:0,0:0:0:0:
449,234,27342,6,0,B|434:209|405:203|405:203|375:197|362:175,1,108,0|0,0:0|2:0,0:0:0:0:
420,136,27549,2,0,B|405:111|376:105|376:105|346:99|333:77,1,108,0|0,0:0|2:0,0:0:0:0:
392,36,27756,6,10,P|299:16|275:37,1,108,10|0,0:0|2:0,0:0:0:0:
264,80,27963,1,0,0:0:0:0:
112,168,28170,70,10,P|157:195|209:185,1,108,2|0,0:0|2:0,0:0:0:0:
172,120,28377,70,0,L|178:85,6,36,4|0|0|0|0|0|0,2:0|2:0|2:0|2:0|2:0|2:0|2:0,2:0:0:0:
172,120,28584,102,4,P|136:96|80:96,1,72,4|0,3:0|0:0,0:0:0:0:
208,320,28997,69,4,0:0:0:0:
280,328,29204,1,0,0:0:0:0:
344,360,29411,2,0,P|392:352|424:296,1,108.000004119873
352,288,29825,1,0,0:0:0:0:
304,224,30032,1,0,0:0:0:0:
232,206,30239,2,0,P|260:162|312:152,1,108.000004119873
306,56,30653,6,0,P|330:102|312:152,1,108.000004119873
398,194,31066,2,0,P|345:191|311:151,1,108.000004119873
166,161,31480,6,0,P|235:124|310:150,1,162.00000617981
296,216,31894,2,0,P|227:253|152:227,1,162.00000617981
96,184,32308,70,2,P|72:208|56:272,1,81.0000030899049,2|0,0:0|0:0,0:0:0:0:
56,280,32515,1,0,0:0:0:0:
234,308,32722,2,2,L|139:257,1,108.000004119873,2|0,0:0|0:0,0:0:0:0:
278,382,33135,6,2,P|302:358|318:294,1,81.0000030899049,2|0,0:0|0:0,0:0:0:0:
318,286,33342,1,0,0:0:0:0:
456,384,33549,2,2,P|464:351|446:287,1,81.0000030899049,2|0,0:0|0:0,0:0:0:0:
442,280,33756,1,0,0:0:0:0:
376,144,33963,6,2,P|378:103|397:68,1,81.0000030899049,2|0,0:0|0:0,0:0:0:0:
424,48,34170,2,0,P|418:92|464:128,1,108.000004119873
288,160,34584,5,8,0:0:0:0:
464,128,34791,1,8,0:0:0:0:
376,144,34997,1,0,0:0:0:0:
216,328,35204,22,2,L|232:325,12,13.5000005149841
88,352,35618,102,0,B|64:296|120:264|96:208,1,144,4|0,0:0|0:0,0:0:0:0:
40,160,36032,53,0,0:0:0:0:
24,237,36239,1,0,0:0:0:0:
168,168,36446,1,8,0:0:0:0:
172,246,36653,1,0,0:0:0:0:
97,212,36860,1,0,0:0:0:0:
97,212,37066,1,0,0:0:0:0:
243,202,37273,6,2,L|360:192,1,108.000004119873,2|0,0:0|0:0,0:0:0:0:
384,56,37687,2,2,L|277:6,1,108.000004119873,2|0,0:0|0:0,0:0:0:0:
248,208,38101,6,2,L|335:200,1,81.0000030899049,10|0,0:0|0:0,0:0:0:0:
357,198,38308,1,0,0:0:0:0:
376,64,38515,2,2,L|296:26,1,81.0000030899049,2|0,0:0|0:0,0:0:0:0:
276,18,38722,1,0,0:0:0:0:
256,216,38928,6,2,L|373:206,1,108.000004119873,2|0,0:0|0:0,0:0:0:0:
363,206,39342,1,0,0:0:0:0:
440,200,39549,1,0,0:0:0:0:
344,352,39756,70,2,L|264:337,1,81.0000030899049,10|0,0:1|0:1,0:1:0:0:
232,328,39963,1,0,0:0:0:0:
332,189,40170,6,2,L|255:216,1,81.0000030899049,2|0,0:1|0:1,0:1:0:0:
224,228,40377,1,0,0:0:0:0:
56,288,40584,6,2,L|164:279,2,108.000004119873,2|0|0,2:1|0:1|0:1,0:0:0:0:
56,288,41204,1,0,0:0:0:0:
160,176,41411,5,8,0:0:0:0:
32,96,41618,1,8,0:0:0:0:
96,136,41825,1,0,0:0:0:0:
56,288,42032,70,2,L|168:296,1,108,2|0,0:0|2:0,0:0:0:0:
216,344,42239,2,2,L|328:352,1,108,2|0,0:0|2:0,0:0:0:0:
392,360,42446,5,4,0:0:0:0:
216,344,42653,1,8,0:0:0:0:
456,328,42860,6,10,P|472:280|456:224,1,108,10|0,0:0|2:0,0:0:0:0:
408,160,43066,2,10,P|393:108|409:58,1,108,10|0,0:0|2:0,0:0:0:0:
464,16,43273,5,4,0:3:0:0:
408,160,43480,1,8,0:0:0:0:
248,200,43687,70,2,P|209:162|197:111,1,108,2|0,0:0|2:0,0:0:0:0:
120,112,43894,2,2,P|106:164|68:200,1,108,2|0,0:0|2:0,0:0:0:0:
0,224,44101,5,8,0:0:0:0:
120,112,44308,1,4,0:0:0:0:
210,267,44515,6,10,P|159:252|108:267,1,108,10|0,0:0|2:0,0:0:0:0:
104,336,44722,2,10,P|155:351|206:336,1,108,10|0,0:0|2:0,0:0:0:0:
272,304,44928,5,8,0:0:0:0:
104,336,45135,1,4,0:0:0:0:
337,272,45342,70,10,P|388:257|440:272,1,108,10|0,0:0|2:0,0:0:0:0:
432,344,45549,54,4,P|396:343|366:361,1,72,4|0,0:0|2:0,0:0:0:0:
448,192,45756,70,0,P|417:173|382:173,1,72,2|0,0:2|2:0,0:0:0:0:
312,256,45963,2,8,P|280:216|296:104,1,144,8|2,0:0|0:2,0:0:0:0:
80,96,46377,6,0,L|152:88,1,72,0|0,0:0|2:0,0:0:0:0:
208,192,46584,2,0,L|136:184,1,72,2|0,0:2|2:0,0:0:0:0:
72,288,46791,2,8,B|128:280|128:280|160:288|160:288|216:280,1,144,8|2,0:0|1:2,0:0:0:0:
328,328,47101,1,2,1:2:0:0:
328,328,47204,6,2,P|384:328|440:304,1,108,2|0,0:0|2:0,0:0:0:0:
480,264,47411,1,2,0:2:0:0:
320,256,47618,2,10,P|392:256|432:208,1,108,10|0,0:0|2:0,0:0:0:0:
435,170,47825,1,2,0:2:0:0:
435,170,48032,70,2,P|392:256|283:218,1,216,2|2,0:0|2:2,0:0:0:0:
224,96,48446,6,10,P|163:63|110:81,1,108,10|0,0:0|2:0,0:0:0:0:
160,144,48653,6,10,P|123:211|143:269,1,118.800003625488,2|0,0:0|2:0,0:0:0:0:
176,320,48860,2,10,P|213:253|193:195,1,118.800003625488,2|0,0:0|2:0,0:0:0:0:
160,144,49066,5,4,0:0:0:0:
176,320,49273,1,8,0:0:0:0:
352,240,49480,70,10,P|389:173|369:115,1,118.800003625488,10|0,0:0|2:0,0:0:0:0:
336,64,49687,2,10,P|299:131|319:189,1,118.800003625488,10|0,0:0|2:0,0:0:0:0:
352,240,49893,5,4,0:0:0:0:
336,64,50100,1,8,0:0:0:0:
168,56,50308,6,2,B|128:72|128:72|91:59|56:80,1,118.800003625488,2|0,0:0|2:0,0:0:0:0:
100,148,50515,2,2,B|140:132|140:132|177:145|212:124,1,118.800003625488,2|0,0:0|2:0,0:0:0:0:
240,56,50722,5,4,0:0:0:0:
55,80,50928,1,8,0:0:0:0:
224,192,51135,70,10,B|184:208|144:200|144:200|88:224,1,118.800003625488,10|0,0:0|2:0,0:0:0:0:
48,248,51342,2,10,B|88:264|128:256|128:256|184:280,1,118.800003625488,10|0,0:0|2:0,0:0:0:0:
224,312,51549,5,4,0:0:0:0:
48,248,51756,1,8,0:0:0:0:
224,192,51963,6,10,B|264:176|304:184|304:184|360:160,1,118.800003625488,10|0,0:0|2:0,0:0:0:0:
296,112,52170,6,0,B|328:96|348:96|364:100|384:116,1,72,0|0,0:0|2:0,0:0:0:0:
448,96,52377,2,0,B|445:131|435:149|424:160|400:170,1,72,0|0,0:0|2:0,0:0:0:0:
384,272,52584,70,10,B|390:238|390:238|344:215|338:170|338:170|296:192|248:184|224:128,1,237.600007250977,10|0,0:0|2:0,0:0:0:0:
124,144,52997,86,10,P|182:119|236:150,1,129.599996044922,10|0,0:0|2:0,0:0:0:0:
178,190,53204,37,0,0:0:0:0:
152,208,53308,1,0,0:0:0:0:
96,248,53411,2,0,P|64:232|32:200,1,72,0|0,0:0|2:0,0:0:0:0:
240,304,53618,2,0,P|224:336|192:368,1,72,0|0,0:0|2:0,0:0:0:0:
312,136,53825,54,10,B|360:152|384:192|384:192|376:132|444:112|496:168|448:216,1,270,10|0,0:0|2:0,0:0:0:0:
312,232,54239,102,10,B|292:192|304:152|312:136|312:136|336:88|384:56|440:64|440:64|376:40,1,324.00001235962,10|0,0:0|2:0,0:0:0:0:
224,48,54653,85,2,0:0:0:0:
224,48,54756,1,0,0:0:0:0:
152,64,54860,5,2,0:3:0:0:
152,64,54963,1,2,0:0:0:0:
80,80,55066,22,2,L|64:84,12,16.1999995056152,14|2|2|2|2|2|2|2|2|2|2|2|2,0:0|0:0|0:0|0:0|0:0|0:0|0:0|0:0|0:0|0:0|0:0|0:0|0:0,0:0:0:0:
40,224,55480,38,4,L|144:200,1,90,4|0,0:0|2:0,0:0:0:0:
200,280,55687,2,0,L|168:382,1,90,2|0,0:2|2:0,0:0:0:0:
48,352,55894,2,4,L|204:206,1,180,8|2,0:0|1:2,0:0:0:0:
338,366,56308,6,0,L|312:280,1,90,0|0,0:0|2:0,0:0:0:0:
368,208,56515,2,0,L|394:294,1,90,2|0,0:2|2:0,0:0:0:0:
480,312,56722,2,0,L|428:140,1,180,8|2,0:0|1:2,0:0:0:0:
480,312,57135,6,0,B|394:294|394:294|378:241,1,135,0|0,0:0|2:0,0:0:0:0:
360,176,57342,2,0,B|346:130|346:130|260:112,1,135,2|0,0:2|2:0,0:0:0:0:
248,184,57549,6,10,B|288:192|288:192|318:292|318:292|288:328,1,180,10|2,0:0|0:2,0:0:0:0:
168,360,57860,1,2,2:0:0:0:
168,360,57963,2,10,B|128:352|128:352|98:252|98:252|128:216,1,180,2|0,0:0|0:0,0:0:0:0:
120,225,58377,70,8,L|88:120,1,90,8|0,0:0|2:0,0:0:0:0:
232,96,58584,2,8,L|264:201,1,90,0|0,0:0|2:0,0:0:0:0:
216,288,58791,2,0,L|151:77,1,180,4|2,0:2|1:2,0:0:0:0:
163,115,59204,6,0,B|232:96|232:96|272:56|331:57,1,180,8|2,0:0|0:2,0:0:0:0:
328,192,59515,1,2,2:2:0:0:
328,192,59618,2,0,B|385:192|425:152|425:152|494:133,1,180,0|2,0:0|0:2,0:0:0:0:
494,132,60032,6,8,P|456:208|408:240,1,135,8|0,0:0|2:0,2:0:0:0:
344,256,60239,2,8,P|260:238|217:200,1,135,2|0,0:2|2:0,2:0:0:0:
180,260,60446,6,8,P|252:311|340:324,1,180,0|2,0:1|1:2,2:0:0:0:
344,192,60756,1,2,2:0:0:0:
344,192,60860,2,10,P|268:160|280:56,1,180,10|2,0:0|0:2,0:0:0:0:
266,72,61273,70,2,B|200:56|200:56|180:96|188:136,1,135,2|0,0:0|2:0,0:0:0:0:
204,192,61480,6,0,P|216:208|240:232,1,45,8|0,0:0|2:0,0:0:0:0:
72,112,61687,2,0,P|64:130|55:163,1,45,8|0,0:0|2:0,0:0:0:0:
56,160,61894,1,0,0:0:0:0:
160,288,62101,6,4,B|116:280|116:280|72:296,1,90,4|0,0:0|2:0,0:0:0:0:
144,136,62308,2,0,B|188:144|188:144|232:128,1,90,2|0,0:2|2:0,0:0:0:0:
280,212,62515,2,0,B|236:204|236:204|192:220|192:220|148:212|148:212|104:204,1,180,8|2,0:1|1:2,1:1:0:0:
288,288,62928,6,0,B|244:280|244:280|200:296,1,90,0|0,0:0|2:0,0:0:0:0:
272,136,63135,2,0,B|316:144|316:144|360:128,1,90,2|0,0:2|2:0,0:0:0:0:
408,212,63342,2,0,B|364:204|364:204|320:220|320:220|276:212|276:212|232:204,1,180,8|2,0:1|1:2,1:1:0:0:
416,288,63756,70,0,B|372:280|372:280|328:296|328:296|288:288,1,132.840002026978,0|0,0:0|2:0,0:0:0:0:
240,216,63963,2,0,B|268:181|268:181|277:135|277:135|304:105,1,132.840002026978,2|0,0:2|2:0,0:0:0:0:
376,80,64170,6,10,B|396:137|396:137|445:178|445:178|463:230,1,180,10|2,0:0|1:2,0:0:0:0:
344,312,64480,1,2,2:0:0:0:
344,312,64584,2,10,B|326:260|326:260|277:219|277:219|257:162,1,180,2|0,0:0|1:0,0:0:0:0:
256,161,64997,6,8,P|240:120|200:96,1,90,8|0,0:0|2:0,0:0:0:0:
148,32,65204,2,0,P|164:73|204:97,1,90,0|0,0:0|2:0,0:0:0:0:
256,161,65411,2,0,B|226:120|176:131|176:131|128:144|97:103,1,180,4|2,0:2|0:2,0:0:0:0:
196,200,65722,1,2,2:0:0:0:
196,200,65825,6,8,P|136:204|104:196,1,90,8|0,0:0|2:0,0:0:0:0:
256,336,66032,2,0,P|206:369|174:378,1,90,2|0,0:2|2:0,0:0:0:0:
96,288,66239,2,0,P|185:280|268:247,1,180,4|2,0:2|1:2,0:0:0:0:
384,152,66549,1,2,2:2:0:0:
384,152,66653,70,0,B|424:128|470:131|470:131|480:176,1,135,8|0,0:0|2:2,0:0:0:0:
496,256,66860,2,0,B|456:280|410:277|410:277|400:232,1,135,2|0,0:2|2:2,0:0:0:0:
384,152,67066,6,0,B|368:64|368:64|320:56|280:80,1,180,4|2,0:2|1:2,0:0:0:0:
280,79,67480,6,0,P|240:120|224:152,1,90,8|0,0:0|2:0,0:0:0:0:
137,136,67687,2,0,P|192:150|228:147,1,90,0|0,0:0|2:0,0:0:0:0:
274,271,67894,6,2,P|250:188|221:143,1,135,2|0,0:0|2:0,0:0:0:0:
168,96,68101,2,0,P|144:80|104:64,1,45,8|0,0:0|2:0,0:0:0:0:
168,96,68308,70,2,P|108:157|83:205,1,135,10|0,0:0|2:0,0:0:0:0:
69,275,68515,6,2,P|151:296|205:294,1,135,2|0,0:0|2:0,0:0:0:0:
274,271,68722,6,0,P|257:229|248:185,1,90,4|0,0:0|2:0,0:0:0:0:
376,144,68928,2,0,P|393:186|402:230,1,90,2|0,0:2|2:0,0:0:0:0:
299,312,69135,2,8,P|259:235|246:137,1,180,8|2,0:0|0:2,0:0:0:0:
432,128,69549,6,0,P|449:170|458:214,1,90,0|0,0:0|2:0,0:0:0:0:
330,255,69756,2,0,P|313:213|304:169,1,90,2|0,0:2|2:0,0:0:0:0:
407,87,69963,2,8,P|447:164|460:262,1,180,8|2,0:0|0:2,0:0:0:0:
407,87,70377,70,0,P|344:88|296:40,1,135,0|0,0:0|2:0,0:0:0:0:
216,39,70584,2,0,P|170:86|104:86,1,135,2|0,0:2|2:0,0:0:0:0:
88,160,70791,6,10,B|120:172|160:168|160:168|120:208|128:272,1,180,10|2,0:0|1:2,0:0:0:0:
256,256,71101,1,2,2:2:0:0:
256,256,71204,2,10,B|263:313|223:353|223:353|263:349|295:361,1,180,2|2,0:0|1:2,0:0:0:0:
295,361,71618,6,8,P|342:370|422:354,1,90,8|0,0:0|2:0,0:0:0:0:
464,336,71825,2,8,P|448:290|394:229,1,90,0|0,0:0|2:0,0:0:0:0:
357,202,72032,6,8,P|325:238|295:361,1,177.120002702637,4|2,0:2|1:2,0:0:0:0:
196,274,72342,1,2,2:0:0:0:
196,274,72446,2,8,P|181:228|90:141,1,177.120002702637,8|2,0:0|1:2,0:0:0:0:
214,99,72756,1,2,2:0:0:0:
214,99,72860,2,8,P|261:109|382:73,1,177.120002702637,0|2,0:0|1:2,0:0:0:0:
381,73,73273,70,8,P|371:120|384:200,1,90,8|0,0:0|2:2,0:0:0:0:
504,176,73480,2,8,P|514:129|501:49,1,90,2|0,0:2|2:2,0:0:0:0:
372,161,73687,2,8,P|373:205|332:305,1,135,0|0,1:0|2:2,0:0:0:0:
264,272,73894,2,8,P|263:228|304:128,1,135,2|0,1:2|2:2,0:0:0:0:
371,160,74101,6,10,B|417:237|417:237|343:289,1,180,10|0,1:0|1:2,0:0:0:0:
216,304,74411,1,0,0:0:0:0:
216,304,74515,2,10,B|181:246|181:246|237:207,1,135,2|0,1:0|2:2,0:0:0:0:
200,152,74722,2,8,B|176:113,1,45,8|0,1:0|2:2,0:0:0:0:
48,248,74928,6,8,L|127:374,1,135,8|0,0:0|2:0,0:0:0:0:
192,328,75135,2,8,L|148:185,1,135,0|0,0:0|2:0,0:0:0:0:
224,160,75342,22,8,L|289:221,1,90,4|0,0:0|2:0,0:0:0:0:
352,280,75549,102,0,L|349:190,1,90,2|0,0:2|2:0,0:0:0:0:
344,104,75756,2,0,L|502:188,1,180,8|2,0:1|1:2,0:0:0:0:
256,208,76170,70,0,L|430:248,1,180,4|2,0:1|1:2,0:0:0:0:
198,332,76584,6,0,L|376:325,1,135,8|0,0:1|2:2,0:0:0:0:
412,324,76791,2,0,L|316:173,1,135,2|0,0:2|2:2,0:0:0:0:
298,142,76997,6,0,L|215:300,1,135,8|0,0:1|2:2,0:0:0:0:
198,332,77204,2,0,L|170:384,1,45,8|0,0:1|2:2,0:0:0:0:
184,128,77411,6,2,L|144:302,1,135,2|0,0:1|2:2,0:0:0:0:
75,277,77618,2,2,L|70:143,1,135,2|0,0:1|2:2,0:0:0:0:
64,64,77825,70,2,L|198:59,1,135,10|0,0:1|2:2,0:0:0:0:
280,56,78032,2,0,L|324:54,1,45,8|0,0:1|2:2,0:0:0:0:
448,192,78239,6,2,L|264:198,1,180,2|2,0:1|1:1,0:0:0:0:
392,344,78653,86,10,L|336:345,1,54,6|0,0:0|2:0,0:0:0:0:
338,344,79066,70,2,L|263:345,8,72,14|2|2|2|2|2|2|2|2,1:0|2:0|2:0|2:0|2:0|2:0|2:0|2:0|2:0,2:0:0:0:
338,344,79480,86,0,L|252:312,1,90,0|0,0:0|2:0,0:0:0:0:
176,280,79687,2,0,L|262:248,1,90,0|0,0:0|2:0,0:0:0:0:
338,216,79894,2,0,L|252:184,1,90,8|0,0:0|2:0,0:0:0:0:
176,152,80101,2,0,L|262:120,1,90,0|0,0:0|2:0,0:0:0:0:
338,88,80308,6,10,L|210:40,1,135,10|0,0:0|2:0,0:0:0:0:
136,80,80515,2,0,L|68:55,1,45,8|0,0:0|2:0,0:0:0:0:
303,200,80722,70,10,B|176:152|176:152|160:192|160:192|264:232,1,270,2|0,0:0|2:0,0:0:0:0:
300,343,81135,6,10,L|174:296,1,135,10|0,0:0|2:0,0:0:0:0:
152,216,81342,2,0,L|84:191,1,45,8|0,0:0|2:0,0:0:0:0:
344,216,81549,6,10,B|471:264|471:264,1,135,2|0,0:0|2:0,0:0:0:0:
440,336,81756,38,2,L|432:360,7,22.5,2|2|2|2|2|2|2|2,2:0|2:0|2:0|2:0|2:0|2:0|2:0|2:0,2:0:0:0:
440,336,81963,102,2,P|408:328|296:344,1,144,6|0,0:0|2:0,0:0:0:0:
256,192,82092,12,0,83618,0:0:0:0:
144,272,85273,54,0,P|192:264|216:248,1,72,0|0,0:0|2:0,0:0:0:0:
128,112,85480,2,0,P|80:120|56:136,1,72,0|0,0:0|2:0,0:0:0:0:
77,291,85687,2,8,B|104:268|144:272|144:272|188:275|216:248,1,144,8|0,0:0|0:0,0:0:0:0:
368,112,86101,6,0,B|404:104|404:104|436:120,1,72,0|0,0:0|2:0,0:0:0:0:
424,256,86308,2,0,B|388:264|388:264|356:248,1,72,0|0,0:0|2:0,0:0:0:0:
332,120,86515,2,0,B|404:104|404:104|468:136,1,144,8|0,0:0|1:0,0:0:0:0:
436,288,86928,6,0,B|382:300|382:300|334:276,1,108,0|0,0:0|2:0,0:0:0:0:
272,240,87135,2,0,B|224:216|224:216|170:228,1,108,0|0,0:0|2:0,0:0:0:0:
216,288,87342,6,10,B|162:300|162:300|114:276,1,108,10|0,0:0|2:0,0:0:0:0:
48,240,87549,1,0,0:0:0:0:
216,192,87756,70,2,L|104:192,1,108,2|0,0:0|2:0,0:0:0:0:
32,192,87963,1,0,0:0:0:0:
216,96,88170,6,10,B|162:84|162:84|48:144|48:144|104:160,1,226.799993078614,10|0,0:0|2:0,0:0:0:0:
216,96,88584,38,10,B|297:114|297:114,1,72,14|0,0:0|2:0,0:0:0:0:
368,48,88791,102,0,B|311:109|311:109,1,72,0|0,0:0|2:0,0:0:0:0:
333,203,88997,2,0,B|312:136|312:136|368:80,1,144,8|0,0:0|1:0,0:0:0:0:
296,288,89411,70,0,B|215:270|215:270,1,72,0|0,0:0|2:0,0:0:0:0:
144,336,89618,2,0,B|201:275|201:275,1,72,0|0,0:0|2:0,0:0:0:0:
179,181,89825,2,0,B|200:248|200:248|144:304,1,144,8|0,0:0|1:0,0:0:0:0:
24,136,90239,6,0,B|8:85|8:85|50:43,1,108,0|0,0:0|2:0,0:0:0:0:
92,108,90446,2,0,L|200:136,1,108,0|0,0:0|2:0,0:0:0:0:
241,196,90653,6,10,B|280:158|280:158|264:107,1,108,10|0,0:0|2:0,0:0:0:0:
240,40,90860,1,0,0:0:0:0:
320,216,91066,6,2,B|359:178|359:178|343:127,1,108,2|0,0:0|2:0,0:0:0:0:
319,60,91273,1,0,0:0:0:0:
400,232,91480,70,2,B|439:194|439:194|399:76|399:76|344:128,1,226.799993078614,10|8,0:0|0:1,0:0:0:0:
400,232,91894,6,0,B|426:310,1,72,4|0,0:2|2:0,0:0:0:0:
241,196,92101,2,0,B|186:257,1,72,0|0,0:0|2:0,0:0:0:0:
291,357,92308,2,8,B|319:215,1,144,8|0,0:0|1:0,0:0:0:0:
213,119,92722,6,8,B|144:140,1,72,0|0,0:0|2:0,0:0:0:0:
88,224,92928,2,8,B|149:185,1,72,0|0,0:0|2:0,0:0:0:0:
241,196,93135,2,8,B|145:304,1,144,8|0,0:0|1:0,0:0:0:0:
299,119,93549,6,8,B|402:150,1,108,0|0,0:0|2:0,0:0:0:0:
424,224,93755,2,8,B|315:219,1,108,0|0,0:0|2:0,0:0:0:0:
338,293,93963,70,2,B|441:324,1,108,10|0,0:0|2:0,0:0:0:0:
512,344,94170,1,0,0:0:0:0:
272,272,94377,6,2,B|168:240|168:240|208:232,1,144,2|0,0:0|1:0,0:0:0:0:
338,293,94791,38,0,B|441:324,1,72,4|2,0:3|0:0,0:0:0:0:
338,293,94894,6,2,L|320:288,8,18
376,144,95204,102,0,P|384:120|376:80,1,54.0000020599366,4|0,0:0|0:0,0:0:0:0:
304,112,95411,85,0,0:0:0:0:
224,104,95618,2,0,P|168:104|112:80,1,108.000004119873
80,152,96032,1,0,0:0:0:0:
96,224,96239,1,0,0:0:0:0:
64,288,96446,2,0,B|96:304|128:288|128:288|168:312,1,108.000004119873
240,256,96860,6,0,B|224:288|240:320|240:320|216:360,1,108.000004119873
404,308,97273,2,0,B|372:292|340:308|340:308|300:284,1,108.000004119873
272,128,97687,70,0,B|288:96|272:64|272:64|292:28|292:28|352:32,1,162.00000617981
416,32,98101,2,0,B|470:28|470:28|490:64|490:64|474:96|490:128,1,162.00000617981
436,192,98515,6,2,B|344:192,1,81.0000030899049,2|0,0:0|0:0,0:0:0:0:
320,192,98722,1,0,0:0:0:0:
436,264,98928,6,2,B|324:264,1,108.000004119873,2|0,0:0|0:0,0:0:0:0:
184,264,99342,6,2,B|96:264,1,81.0000030899049,2|0,0:0|0:0,0:0:0:0:
64,264,99549,1,0,0:0:0:0:
184,192,99756,2,2,B|96:192,1,81.0000030899049,2|0,0:0|0:0,0:0:0:0:
64,192,99963,1,0,0:0:0:0:
184,120,100170,70,2,B|96:120,1,81.0000030899049,2|0,0:0|0:0,0:0:0:0:
64,120,100377,1,0,0:0:0:0:
64,48,100584,1,0,0:0:0:0:
256,48,100791,5,8,0:0:0:0:
448,48,100997,1,8,0:0:0:0:
352,48,101204,1,0,0:0:0:0:
256,192,101411,54,2,L|232:192,12,13.5000005149841
328,120,101825,102,0,B|472:120,1,144,4|0,0:0|0:0,0:0:0:0:
472,120,102239,85,0,0:0:0:0:
456,192,102446,1,0,0:0:0:0:
424,336,102653,1,8,0:0:0:0:
440,264,102860,1,0,0:0:0:0:
384,216,103066,1,0,0:0:0:0:
312,200,103273,1,0,0:0:0:0:
352,56,103480,6,2,L|288:160,1,122.400002334595,2|0,0:0|0:0,0:0:0:0:
156,58,103894,2,2,P|215:88|236:151,1,136.799996347046,2|0,0:0|0:0,0:0:0:0:
97,245,104308,70,2,P|141:188|210:198,1,113.399996539307,10|0,0:0|0:0,0:0:0:0:
210,198,104515,1,0,0:0:0:0:
257,359,104722,6,2,P|207:295|247:237,1,124.200002368927,2|0,0:0|0:0,0:0:0:0:
247,237,104929,1,0,0:0:0:0:
415,242,105135,6,2,P|340:281|296:214,1,180,2|0,0:0|0:0,0:0:0:0:
368,184,105549,1,0,0:0:0:0:
384,112,105756,1,0,0:0:0:0:
256,24,105963,6,2,L|256:112,1,81.0000030899049,10|0,0:1|0:1,0:1:0:0:
256,144,106170,1,0,0:0:0:0:
120,72,106377,70,2,L|140:164,1,81.0000030899049,2|0,0:1|0:1,0:1:0:0:
144,184,106584,1,0,0:0:0:0:
88,331,106791,86,2,P|177:337|256:296,1,180,2|0,2:1|2:1,2:1:0:0:
256,88,107204,2,2,P|334:46|423:52,1,180,2|0,2:1|2:1,2:1:0:0:
368,200,107618,37,8,0:0:0:0:
400,344,107825,1,8,0:0:0:0:
384,272,108032,1,0,0:0:0:0:
224,176,108239,6,10,L|200:64,1,108,2|0,0:0|2:0,0:0:0:0:
128,56,108446,2,10,L|152:168,1,108,2|0,0:0|2:0,0:0:0:0:
104,216,108653,85,4,0:0:0:0:
8,96,108860,1,8,0:0:0:0:
201,70,109066,6,10,L|225:182,1,108,10|0,0:0|2:0,0:0:0:0:
297,190,109273,2,10,L|273:78,1,108,10|0,0:0|2:0,0:0:0:0:
321,30,109480,85,4,0:0:0:0:
417,150,109687,1,8,0:0:0:0:
201,70,109894,6,10,L|225:182,1,108,2|0,0:0|2:0,0:0:0:0:
288,208,110101,2,10,L|311:314,1,108,2|0,0:0|2:0,0:0:0:0:
328,384,110308,5,8,0:0:0:0:
360,192,110515,1,4,0:0:0:0:
311,70,110722,6,10,L|287:182,1,108,10|0,0:0|2:0,0:0:0:0:
224,208,110929,2,10,L|201:314,1,108,10|0,0:0|2:0,0:0:0:0:
184,384,111136,5,8,0:0:0:0:
152,192,111343,1,4,0:0:0:0:
112,352,111549,70,10,L|96:240,1,108,10|0,0:0|2:0,0:0:0:0:
32,272,111756,54,0,L|48:384,1,72,4|0,0:0|2:0,0:0:0:0:
64,56,112170,70,8,L|74:127,1,72,8|0,0:0|2:0,0:0:0:0:
192,168,112377,2,10,L|142:116,1,72,2|0,0:2|2:2,0:2:0:0:
22,152,112584,2,8,L|92:164,1,72,0|0,0:2|2:2,0:2:0:0:
169,67,112791,2,10,L|104:98,1,72,2|0,0:2|2:2,0:2:0:0:
102,223,112997,2,8,B|136:160|136:160|204:128,1,144,8|2,0:1|1:2,0:2:0:0:
310,129,113308,1,2,0:2:0:0:
310,129,113411,6,10,B|376:160|376:160|400:204,1,108,2|0,0:1|2:2,0:2:0:0:
424,256,113618,1,2,0:2:0:0:
262,204,113825,2,10,B|334:197|334:197|377:223,1,108,10|0,0:1|2:2,0:2:0:0:
424,256,114032,1,2,0:2:0:0:
424,256,114239,6,2,B|400:284|372:292|344:288|316:268|316:268|276:272,1,144,2|2,0:0|1:2,0:0:0:0:
176,272,114549,1,2,2:2:0:0:
168,264,114653,70,2,L|55:226,1,108,10|0,0:0|2:0,0:0:0:0:
104,160,114860,6,2,L|232:168,1,118.800003625488,2|0,0:0|2:0,0:0:0:0:
289,216,115066,2,2,L|408:224,1,118.800003625488,2|0,0:0|2:0,0:0:0:0:
480,232,115273,5,4,0:0:0:0:
384,360,115480,1,8,0:0:0:0:
224,344,115687,6,2,L|232:216,1,118.800003625488,10|0,0:0|2:0,0:0:0:0:
280,159,115893,2,2,L|288:40,1,118.800003625488,10|0,0:0|2:0,0:0:0:0:
360,48,116101,69,4,0:0:0:0:
512,104,116308,1,8,0:0:0:0:
408,224,116515,6,2,L|280:216,1,118.800003625488,2|0,0:0|2:0,0:0:0:0:
223,168,116721,2,2,L|104:160,1,118.800003625488,2|0,0:0|2:0,0:0:0:0:
32,152,116928,5,8,0:0:0:0:
128,24,117135,1,4,0:0:0:0:
288,40,117342,6,2,L|280:168,1,118.800003625488,10|0,0:0|2:0,0:0:0:0:
232,225,117548,2,2,L|224:344,1,118.800003625488,10|0,0:0|2:0,0:0:0:0:
152,336,117756,69,8,0:0:0:0:
0,280,117963,1,4,0:0:0:0:
104,160,118170,6,2,L|223:168,1,118.800003625488,10|0,0:0|2:0,0:0:0:0:
289,215,118377,6,0,L|368:221,1,72,0|0,0:0|2:0,0:0:0:0:
376,88,118584,2,0,L|331:153,1,72,0|0,0:0|2:0,0:0:0:0:
442,226,118791,6,10,B|376:88|376:88|331:153,1,224.639998628906,10|0,0:0|2:0,0:0:0:0:
274,236,119204,38,10,L|341:137,1,108,10|0,0:0|2:0,0:0:0:0:
272,104,119411,21,0,0:0:0:0:
252,132,119515,1,0,0:0:0:0:
212,188,119618,2,0,L|161:262,1,72,0|0,0:0|2:0,0:0:0:0:
48,164,119825,2,0,L|122:214,1,72,0|0,0:0|2:0,0:0:0:0:
24,328,120032,70,10,B|68:268|68:268|188:352|188:352|216:312,1,270,10|0,0:0|2:0,0:0:0:0:
288,200,120446,102,10,P|400:168|496:328,1,324.00001235962,10|0,0:0|2:0,0:0:0:0:
376,288,120860,69,2,0:0:0:0:
376,288,120963,1,2,0:0:0:0:
296,296,121066,5,2,0:3:0:0:
296,296,121170,1,2,0:0:0:0:
216,311,121273,38,2,L|228:292,12,16.1999995056152,14|2|2|2|2|2|2|2|2|2|2|2|2,0:0|0:0|0:0|0:0|0:0|0:0|0:0|0:0|0:0|0:0|0:0|0:0|0:0,0:0:0:0:
88,280,121687,86,4,P|88:226|72:184,1,90,4|0,0:0|2:0,0:0:0:0:
8,128,121894,2,0,P|54:155|99:162,1,90,2|0,0:2|2:0,0:0:0:0:
179,134,122101,2,0,P|225:107|312:108,1,135,8|0,0:0|2:0,0:0:0:0:
368,136,122308,1,2,0:2:0:0:
368,136,122515,70,0,P|414:163|459:170,1,90,0|0,0:0|2:0,0:0:0:0:
296,288,122722,2,0,P|296:234|279:192,1,90,2|0,0:2|2:0,0:0:0:0:
464,248,122928,2,0,P|393:288|352:342,1,135,8|0,0:0|2:0,0:0:0:0:
296,288,123135,1,2,0:2:0:0:
296,288,123342,6,0,P|214:287|152:313,1,135,0|0,0:0|2:0,0:0:0:0:
130,238,123549,2,0,P|59:196|-7:187,1,135,2|0,0:2|2:0,0:0:0:0:
0,112,123756,6,10,P|89:108|174:135,1,180,10|2,0:1|1:2,0:0:0:0:
288,200,124066,1,2,2:0:0:0:
288,200,124170,2,10,P|373:227|463:224,1,180,2|2,0:1|1:2,0:0:0:0:
462,224,124584,6,8,P|463:179|454:113,1,90,8|0,0:0|2:0,0:0:0:0:
384,72,124791,2,8,P|383:117|392:183,1,90,0|0,0:0|2:0,0:0:0:0:
288,200,124997,2,8,P|289:155|256:24,1,180,4|2,0:2|1:2,0:0:0:0:
160,120,125308,1,2,2:2:0:0:
160,120,125411,70,8,P|120:141|23:235,1,180,8|2,0:0|1:2,0:0:0:0:
154,270,125722,1,2,2:2:0:0:
154,270,125825,2,8,P|192:294|322:331,1,180,0|2,0:0|1:2,0:0:0:0:
320,330,126239,6,8,L|416:336,1,90,8|0,0:0|2:0,0:0:0:0:
472,256,126446,2,8,L|376:262,1,90,2|0,0:2|2:0,0:0:0:0:
312,184,126653,6,8,L|456:193,1,135,0|0,0:2|2:0,0:0:0:0:
464,120,126860,1,2,0:2:0:0:
432,116,126963,1,2,2:2:0:0:
368,112,127066,6,10,B|276:108|276:108|216:176,1,180,10|2,0:1|1:2,0:0:0:0:
120,80,127377,1,2,2:2:0:0:
120,80,127480,70,10,B|76:129|76:129|6:126,1,135,2|0,0:1|2:0,0:0:0:0:
0,52,127687,6,0,B|44:53,1,45,8|0,0:0|2:0,0:0:0:0:
12,200,127894,2,0,B|56:201,1,45,8|0,0:0|2:0,0:0:0:0:
61,202,128101,1,0,0:0:0:0:
168,352,128308,6,4,P|168:292|184:260,1,90,4|0,0:0|2:0,0:0:0:0:
344,288,128515,2,4,P|344:348|328:380,1,90,2|0,1:2|2:0,0:0:0:0:
284,116,128722,2,8,L|266:249,1,135,8|0,0:0|2:0,0:0:0:0:
256,320,128928,1,2,0:2:0:0:
256,320,129135,6,0,L|344:331,1,90,0|0,0:0|2:0,0:0:0:0:
364,172,129342,2,0,L|276:184,1,90,2|0,0:2|2:0,0:0:0:0:
479,314,129549,2,0,L|345:330,1,135,8|0,0:0|2:0,0:0:0:0:
272,340,129756,1,2,0:2:0:0:
272,340,129963,70,0,P|304:280|296:216,1,135,0|0,0:0|2:0,0:0:0:0:
240,168,130170,2,0,P|208:108|216:44,1,135,2|0,0:2|2:0,0:0:0:0:
152,8,130377,6,10,P|98:78|96:167,1,180,10|2,0:1|1:2,0:0:0:0:
240,168,130687,1,2,2:2:0:0:
240,168,130791,2,10,P|169:221|144:307,1,180,2|2,0:1|1:2,0:0:0:0:
143,305,131204,6,8,P|192:288|224:256,1,90,8|0,0:0|2:0,0:0:0:0:
320,308,131411,2,0,P|329:257|318:213,1,90,0|0,0:2|2:0,0:0:0:0:
143,305,131618,2,8,P|201:355|267:373,1,135,4|0,0:2|2:0,0:0:0:0:
328,368,131825,1,2,1:2:0:0:
332,372,131928,1,2,2:2:0:0:
336,376,132032,6,8,P|345:325|333:281,1,90,8|0,0:1|2:0,0:0:0:0:
336,200,132239,2,8,P|327:251|339:295,1,90,2|0,0:2|2:0,0:0:0:0:
466,288,132446,2,8,P|389:274|323:292,1,135,4|0,0:2|2:0,0:0:0:0:
272,320,132653,1,2,0:2:0:0:
240,328,132756,1,2,2:2:0:0:
176,320,132860,70,8,P|115:269|50:251,1,135,8|0,0:1|2:0,0:0:0:0:
64,176,133066,2,8,P|137:148|185:100,1,135,2|0,0:2|2:0,0:0:0:0:
256,128,133273,6,0,P|237:232|260:319,1,180,4|2,0:2|0:2,0:0:0:0:
252,303,133687,6,0,P|295:272|318:234,1,90,8|0,0:0|2:0,0:0:0:0:
316,153,133894,2,0,P|323:197|315:240,1,90,0|0,0:0|2:0,0:0:0:0:
437,298,134101,6,2,L|314:241,1,135,2|0,0:0|2:0,0:0:0:0:
248,208,134308,2,0,L|186:179,1,45,8|0,0:0|2:0,0:0:0:0:
248,208,134515,70,10,L|305:84,1,135,10|0,0:0|2:0,0:0:0:0:
337,19,134722,6,10,L|460:76,1,135,2|0,0:0|2:0,0:0:0:0:
428,144,134928,6,4,L|390:226,1,90,4|0,0:0|2:0,0:0:0:0:
432,304,135135,2,0,L|470:222,1,90,2|0,1:2|2:0,0:0:0:0:
304,240,135342,2,0,B|342:158|342:158|272:164,1,135,8|0,0:0|2:0,0:0:0:0:
224,168,135549,1,2,0:2:0:0:
224,168,135756,6,0,P|232:128|296:88,1,90,0|0,0:0|2:0,0:0:0:0:
144,16,135963,2,0,P|136:56|72:96,1,90,2|0,0:2|2:0,0:0:0:0:
116,208,136170,2,0,L|201:61,1,135,8|0,0:0|2:0,0:0:0:0:
216,28,136377,1,2,0:2:0:0:
216,28,136584,70,0,L|300:175,1,135,0|0,0:0|2:0,0:0:0:0:
321,204,136791,2,0,L|151:203,1,135,2|0,0:2|2:0,0:0:0:0:
116,208,136997,6,10,L|289:255,1,180,10|2,0:0|1:2,0:0:0:0:
224,368,137308,1,2,2:0:0:0:
224,368,137411,2,10,L|397:322,1,180,2|2,0:0|1:2,0:0:0:0:
397,321,137825,6,8,L|420:234,1,90,8|0,0:0|2:2,0:0:0:0:
304,184,138032,2,8,L|327:271,1,90,0|0,0:0|2:2,0:0:0:0:
416,328,138239,6,8,L|462:154,1,180,4|2,0:2|1:2,0:0:0:0:
344,104,138549,1,2,2:0:0:0:
344,104,138653,2,8,L|254:260,1,180,8|2,0:1|1:2,0:0:0:0:
128,224,138963,1,2,2:0:0:0:
128,224,139067,2,8,L|127:43,1,180,0|2,0:1|1:2,0:0:0:0:
224,128,139377,1,2,2:0:0:0:
224,128,139480,70,8,L|201:215,1,90,8|0,0:1|2:2,0:0:0:0:
328,256,139687,2,8,L|351:169,1,90,2|0,0:2|2:2,0:0:0:0:
208,112,139894,6,8,L|208:246,1,135,0|0,0:1|2:2,0:0:0:0:
252,308,140101,1,2,0:2:0:0:
286,314,140204,1,2,2:2:0:0:
344,272,140308,6,10,L|344:138,1,135,10|0,0:1|2:2,0:0:0:0:
344,64,140515,1,0,0:0:0:0:
304,64,140618,1,0,0:0:0:0:
232,64,140722,2,2,L|97:64,1,135,2|0,0:1|2:2,0:0:0:0:
96,136,140928,2,8,L|152:136,1,45,8|0,0:0|2:0,0:0:0:0:
141,296,141135,6,8,B|96:296|96:296|96:200,1,135,8|0,0:0|2:0,0:0:0:0:
96,136,141342,2,0,L|256:136,1,135,0|0,0:0|2:0,0:0:0:0:
304,136,141549,6,0,L|400:136,1,90,4|0,0:0|2:0,0:0:0:0:
448,216,141756,54,0,L|352:216,1,90,2|0,0:2|2:2,0:0:0:0:
304,296,141963,2,0,B|396:296|396:296|448:216,1,180,8|2,0:0|1:2,0:0:0:0:
208,296,142377,6,0,B|116:296|116:296|64:216,1,180,4|2,0:0|1:2,0:0:0:0:
195,80,142791,6,0,B|255:47|255:47|318:82,1,135,8|0,0:0|2:2,0:0:0:0:
313,151,142997,2,0,B|253:184|253:184|190:149,1,135,2|0,0:2|2:2,0:0:0:0:
132,116,143204,6,0,P|128:180|192:224,1,135,8|0,0:0|2:0,0:0:0:0:
208,288,143411,2,0,L|232:336,1,45,8|0,0:0|2:0,0:0:0:0:
333,161,143618,70,2,P|383:203|380:268,1,135,2|0,0:0|2:0,0:0:0:0:
456,240,143825,2,2,P|444:172|404:120,1,135,2|0,0:0|2:0,0:0:0:0:
344,88,144032,6,2,P|275:88|217:118,1,135,10|0,0:0|2:0,0:0:0:0:
174,171,144239,2,8,P|165:199|161:223,1,45,8|0,0:0|2:0,0:0:0:0:
294,266,144446,6,2,P|234:296|168:296,1,135,2|0,0:0|2:0,0:0:0:0:
107,263,144653,6,2,P|67:209|56:144,1,135,2|0,0:0|2:0,0:0:0:0:
77,78,144860,54,6,P|101:47|115:35,1,54,6|0,0:0|2:0,0:0:0:0:
112,37,145273,70,2,P|101:71|97:107,8,72,14|2|2|2|2|2|2|2|2,1:0|2:0|2:0|2:0|2:0|2:0|2:0|2:0|2:0,2:0:0:0:
256,32,145687,54,0,P|265:75|283:116,1,90,0|0,0:0|2:0,0:0:0:0:
424,64,145894,2,0,P|410:105|405:150,1,90,0|0,0:0|2:0,0:0:0:0:
256,32,146101,2,0,P|247:75|229:116,1,90,8|0,0:0|2:0,0:0:0:0:
296,200,146308,2,0,P|282:241|277:286,1,90,0|0,0:0|2:0,0:0:0:0:
384,352,146515,6,10,P|405:290|412:221,1,135,10|0,0:0|2:0,0:0:0:0:
404,151,146722,2,0,P|391:111|379:85,1,45,8|0,0:0|2:0,0:0:0:0:
312,336,146928,6,2,B|352:248|328:160|328:160|232:96,1,270,2|0,0:0|2:0,0:0:0:0:
128,32,147342,6,10,P|107:94|100:163,1,135,10|0,0:0|2:0,0:0:0:0:
108,233,147549,2,0,P|121:273|133:299,1,45,8|0,0:0|2:0,0:0:0:0:
200,48,147756,70,2,B|160:112|176:184,1,135,2|0,0:0|2:0,0:0:0:0:
240,136,147963,70,2,P|241:124|244:113,7,22.5,2|2|2|2|2|2|2|2,2:0|2:0|2:0|2:0|2:0|2:0|2:0|2:0,2:0:0:0:
240,136,148170,54,0,P|240:144|248:192,1,36,8|0,0:0|2:0,0:0:0:0:
264,288,148377,2,0,P|264:280|256:232,1,36,8|0,0:0|2:0,0:0:0:0:
312,200,148584,6,0,L|419:191,1,108.000004119873,0|0,0:0|2:0,0:0:0:0:
496,184,148997,5,0,0:0:0:0:
464,256,149204,1,0,0:0:0:0:
373,124,149411,70,2,L|293:131,1,81.0000030899049,2|0,0:1|2:1,0:1:0:0:
224,112,149618,5,10,0:0:0:0:
189,115,149721,1,8,0:0:0:0:
120,95,149825,6,0,L|54:101,1,36,8|0,0:0|2:0,0:0:0:0:
96,240,150032,2,0,L|162:234,1,36,8|0,0:0|2:0,0:0:0:0:
200,256,150239,5,0,0:0:0:0:
248,312,150446,1,0,0:0:0:0:
256,384,150653,1,0,0:0:0:0:
328,376,150860,1,0,0:0:0:0:
456,312,151066,70,2,L|472:224,1,81.0000030899049,2|0,0:1|0:1,0:1:0:0:
432,176,151273,2,2,L|448:88,1,81.0000030899049,2|0,0:1|0:1,0:1:0:0:
408,40,151480,6,0,L|416:-4,1,36,8|0,0:0|2:0,0:0:0:0:
328,168,151687,2,0,L|320:212,1,36,8|0,0:0|2:0,0:0:0:0:
368,104,151894,6,0,B|288:72|288:136|208:96,1,162.00000617981
152,56,152308,6,0,P|144:72|139:102,1,27.0000010299683
160,152,152515,2,0,P|153:177|152:204,1,54.0000020599366
188,268,152722,2,0,P|199:306|217:342,1,81.0000030899049
152,376,152928,69,8,0:0:0:0:
136,344,153032,1,8,0:0:0:0:
112,280,153135,6,2,P|105:226|109:172,1,108,2|0,0:0|2:0,0:0:0:0:
128,104,153342,1,2,0:2:0:0:
264,264,153549,2,10,P|231:196|187:141,1,144,10|2,0:0|0:2,0:0:0:0:
336,256,153963,6,10,P|340:199|332:147,1,108,2|0,0:0|2:0,0:0:0:0:
304,88,154170,1,2,0:2:0:0:
408,272,154377,54,10,B|468:200|492:112|492:112|404:100,1,270,10|2,0:0|2:2,0:0:0:0:
304,88,154791,70,0,L|368:96,1,39.6000012084961,6|0,0:0|2:0,0:0:0:0:
144,64,154997,2,0,L|208:72,1,39.6000012084961,2|0,0:0|2:0,0:0:0:0:
304,88,155204,70,0,L|294:161,1,72,8|0,0:0|2:0,0:0:0:0:
360,240,155411,2,0,L|287:230,1,72,0|0,0:0|2:0,0:0:0:0:
208,296,155618,2,0,L|218:223,1,72,0|0,0:0|2:0,0:0:0:0:
152,144,155825,2,0,L|225:154,1,72,0|0,0:0|2:0,0:0:0:0:
268,56,156032,6,2,L|283:165,1,108,10|0,0:0|2:0,0:0:0:0:
229,221,156239,2,2,L|244:328,1,108,2|0,0:0|2:0,0:0:0:0:
168,352,156446,6,0,L|135:309,1,39.6000012084961,2|0,0:0|2:0,0:0:0:0:
48,248,156653,2,0,L|-1:227,1,39.6000012084961,2|0,0:0|2:0,0:0:0:0:
152,152,156860,6,8,L|236:217,1,72,8|0,0:0|2:0,0:0:0:0:
296,88,157066,2,8,L|231:172,1,72,0|0,0:0|2:0,0:0:0:0:
360,232,157273,2,8,L|276:167,1,72,0|0,0:0|2:0,0:0:0:0:
216,296,157480,2,8,L|281:212,1,72,0|0,0:0|2:0,0:0:0:0:
152,152,157687,70,10,P|200:132|255:146,1,108,10|0,0:0|2:0,0:0:0:0:
312,192,157894,2,10,P|363:204|412:184,1,108,2|0,0:0|2:0,0:0:0:0:
448,119,158101,6,4,L|453:205,1,79.2000024169923,4|0,0:0|2:0,0:0:0:0:
458,272,158308,1,0,0:0:0:0:
376,112,158515,2,8,L|337:300,1,158.400004833985,8|0,0:0|1:0,0:0:0:0:
308,86,158928,6,4,L|269:162,1,79.2000024169923,4|0,0:0|2:0,0:0:0:0:
240,223,159135,1,0,0:0:0:0:
249,43,159342,2,8,L|121:186,1,158.400004833985,8|0,0:0|1:0,0:0:0:0:
263,341,159756,6,10,L|359:233,1,118.800003625488,6|0,0:0|2:0,0:0:0:0:
388,196,159963,1,0,0:0:0:0:
204,298,160170,70,10,L|268:169,1,118.800003625488,10|0,0:0|2:0,0:0:0:0:
288,126,160377,1,0,0:0:0:0:
136,272,160584,6,10,L|164:130,1,118.800003625488,6|0,0:0|2:0,0:0:0:0:
173,85,160791,1,4,0:3:0:0:
204,104,160894,1,4,0:3:0:0:
272,120,160997,86,10,P|280:120|328:104,1,54,10|0,0:0|2:0,0:0:0:0:
416,64,161411,70,10,P|406:64|346:84,1,72,6|0,0:0|2:0,0:0:0:0:
480,208,161618,86,8,P|485:198|499:130,1,79.2000024169923,2|0,0:2|2:0,0:0:0:0:
304,144,161825,2,8,P|315:163|419:255,1,158.400004833985,8|2,0:0|1:2,0:0:0:0:
288,328,162239,6,8,P|281:318|229:272,1,79.2000024169923,0|0,0:0|2:0,0:0:0:0:
136,288,162446,2,8,P|147:287|213:265,1,79.2000024169923,2|0,0:2|2:0,0:0:0:0:
246,175,162653,2,8,B|236:196|232:213|232:213|228:232|228:251|228:251|231:273|231:273|263:291|288:328,1,158.400004833985,8|2,0:0|1:2,0:0:0:0:
432,304,163066,70,8,P|430:291|408:226,1,79.2000024169923,0|0,0:0|2:0,0:0:0:0:
488,160,163273,2,8,P|485:171|490:240,1,79.2000024169923,2|0,0:2|2:0,0:0:0:0:
368,72,163480,2,8,P|308:172|300:211,1,158.400004833985,8|2,0:0|1:2,0:0:0:0:
144,72,163894,6,8,P|177:113|204:172,1,118.800003625488,0|0,0:0|2:0,0:0:0:0:
208,244,164101,2,8,P|155:252|91:245,1,118.800003625488,8|0,0:0|2:0,0:0:0:0:
27,213,164308,2,8,P|46:163|83:111,1,118.800003625488,8|0,0:0|2:0,0:0:0:0:
144,72,164515,1,2,0:2:0:0:
176,64,164618,1,2,2:2:0:0:
248,64,164722,6,4,B|312:80|328:128|384:160|472:120,1,237.600007250977,4|0,0:0|2:0,0:0:0:0:
464,260,165135,2,8,B|384:224|328:256|312:304|248:320,1,237.600007250977,8|0,0:0|2:0,0:0:0:0:
144,312,165549,6,4,P|104:288|80:256,1,79.2000024169923,4|0,0:0|2:0,0:0:0:0:
56,184,165756,2,4,P|96:161|136:156,1,79.2000024169923,0|0,0:0|2:0,0:0:0:0:
210,171,165963,2,4,B|215:195|209:217|208:272|144:312|144:312|104:299|80:256,1,244.080000744873,8|0,0:0|2:0,0:0:0:0:
128,155,166377,70,4,P|89:163|56:184,1,79.2000024169923,0|0,0:0|2:0,0:0:0:0:
383,229,166791,6,4,P|423:221|464:56,1,237.600007250977,8|0,0:0|2:0,0:0:0:0:
384,124,167204,6,6,P|364:128|343:210,1,118.800003625488,2|0,0:0|2:0,0:0:0:0:
408,256,167411,2,0,L|448:280,1,39.6000012084961,8|0,0:0|2:0,0:0:0:0:
256,344,167618,6,10,L|256:216,1,118.800003625488,10|0,0:0|2:0,0:0:0:0:
256,152,167825,1,0,0:0:0:0:
104,256,168032,38,2,B|68:276|68:276|80:120|80:120|112:144,1,237.600007250977,14|0,0:0|2:0,0:0:0:0:
216,208,168446,22,0,L|328:215,1,79.2000024169923,8|0,0:0|2:0,0:0:0:0:
264,56,168653,2,0,L|376:63,1,79.2000024169923,0|0,0:0|2:0,0:0:0:0:
295,212,168859,2,0,L|407:219,1,79.2000024169923,0|0,0:0|2:0,0:0:0:0:
343,60,169066,2,0,L|455:67,1,79.2000024169923,0|0,0:0|2:0,0:0:0:0:
471,223,169273,86,2,B|372:216|372:216|336:304|336:304,1,194.400000741577,10|0,0:0|1:0,0:0:0:0:
140,216,169687,38,2,B|40:224|40:224|40:176|40:176|128:168,1,237.600007250977,14|0,0:0|2:0,0:0:0:0:
248,160,170101,6,0,L|334:152,1,79.2000024169923,8|0,0:0|2:0,0:0:0:0:
400,94,170308,2,0,L|335:151,1,79.2000024169923,0|0,0:0|2:0,0:0:0:0:
315,236,170515,2,0,L|333:151,1,79.2000024169923,0|0,0:0|2:0,0:0:0:0:
299,71,170722,2,0,L|333:150,1,79.2000024169923,0|0,0:0|2:0,0:0:0:0:
464,228,170928,54,10,L|338:154,1,145.800000556183,10|0,0:0|2:0,0:0:0:0:
272,192,171135,2,10,L|270:338,1,145.800000556183,2|0,0:0|2:0,0:0:0:0:
340,336,171342,70,6,B|340:234|340:234|428:285|428:285|371:318,1,237.600007250977,14|0,0:0|2:0,0:0:0:0:
304,360,171756,70,8,L|304:272,1,79.2000024169923,8|0,0:0|2:0,0:0:0:0:
256,200,171963,2,8,L|233:285,1,79.2000024169923,0|0,0:0|2:0,0:0:0:0:
136,312,172170,2,8,L|180:235,1,79.2000024169923,0|0,0:0|2:0,0:0:0:0:
175,149,172377,2,8,L|112:211,1,79.2000024169923,0|0,0:0|2:0,0:0:0:0:
15,185,172584,6,8,L|129:117,1,118.800003625488,8|0,0:0|2:0,0:0:0:0:
184,144,172791,2,8,L|316:142,1,118.800003625488,0|0,0:0|2:0,0:0:0:0:
352,192,172997,70,10,B|328:152|352:112|352:112|424:184|424:184|448:144|424:104,1,270,10|0,0:0|2:0,0:0:0:0:
424,256,173411,102,10,B|352:256|352:256|352:304|352:304|384:312|384:312|352:320|352:320|352:368|352:368|424:368,1,302.399990771485,10|0,0:0|2:0,0:0:0:0:
280,368,173825,6,10,B|280:256|280:256|224:256,1,162.00000617981,10|0,0:0|2:0,0:0:0:0:
152,256,174032,102,10,B|102:256|102:256|102:144,1,162.00000617981,2|0,0:0|2:0,0:0:0:0:
176,144,174239,102,10,B|176:0|176:0|248:-8|264:40|248:88|176:80,1,288,14|4,0:0|0:0,0:0:0:0:
288,216,174653,85,0,0:0:0:0:
344,176,174791,6,0,L|408:208,1,72.0000027465821
472,168,175066,21,0,0:0:0:0:
479,182,175134,1,0,0:0:0:0:
483,198,175203,1,0,0:0:0:0:
483,214,175272,1,0,0:0:0:0:
480,230,175341,1,0,0:0:0:0:
473,245,175410,1,0,0:0:0:0:
464,259,175479,1,0,0:0:0:0:
452,269,175548,1,0,0:0:0:0:
437,277,175618,6,2,L|447:305,1,18.0000006866455
421,282,175687,2,2,L|423:302,1,18.0000006866455
405,283,175756,2,2,L|403:304,1,18.0000006866455
389,281,175825,2,2,L|384:304,1,18.0000006866455
368,272,175894,102,8,P|340:240|332:208,1,72,8|0,0:3|0:3,0:3:0:0:
332,212,176308,102,0,P|304:248|208:248,1,144,4|0,0:0|0:0,0:0:0:0:
248,192,181273,102,0,B|248:184|256:176|264:184|264:192,1,27.0000010299683,14|0,0:0|0:0,0:0:0:0:
256,192,181377,12,0,182696,0:0:0:0:
112,176,182722,38,4,L|232:184,1,108,4|0,0:0|0:0,0:0:0:0:
219,183,182928,86,0,L|224:240,1,54.0000020599366,4|0,3:2|0:0,0:0:0:0:
296,188,183135,53,0,0:0:0:0:
376,72,183342,1,0,0:0:0:0:
360,144,183549,1,0,0:0:0:0:
264,80,183756,5,8,0:0:0:0:
219,183,183963,1,0,0:0:0:0:
248,296,184170,2,0,P|304:352|336:368,1,108.000004119873
336,224,184584,6,0,P|364:252|380:260,1,54.0000020599366,0|0,3:0|0:0,0:0:0:0:
404,184,184791,1,0,0:0:0:0:
292,260,184997,6,2,P|334:302|358:314,1,81.0000030899049,2|0,0:0|0:0,0:0:0:0:
384,320,185204,1,0,0:0:0:0:
276,234,185411,70,2,P|266:181|272:148,1,81.0000030899049,10|0,0:0|0:0,0:0:0:0:
282,125,185618,1,0,0:0:0:0:
393,48,185825,6,2,P|335:63|313:78,1,81.0000030899049,2|0,0:0|0:0,0:0:0:0:
296,98,186032,1,0,0:0:0:0:
119,48,186239,6,2,P|177:63|199:78,1,81.0000030899049,6|0,3:2|0:0,0:0:0:0:
216,98,186446,1,0,0:0:0:0:
80,120,186653,2,0,P|144:120|176:152,1,108.000004119873,8|0,0:0|0:0,0:0:0:0:
140,284,187066,6,2,P|106:243|104:200,1,81.0000030899049,2|0,0:0|2:0,0:0:0:0:
112,184,187273,1,0,0:0:0:0:
248,192,187480,1,8,0:0:0:0:
176,220,187687,1,0,0:0:0:0:
284,128,187894,70,2,P|318:169|320:212,1,81.0000030899049,2|0,3:2|2:0,0:0:0:0:
312,228,188101,1,0,0:0:0:0:
176,220,188308,1,8,0:0:0:0:
248,192,188515,1,0,0:0:0:0:
136,288,188722,5,0,0:0:0:0:
288,328,188928,38,0,B|320:336|352:324|352:324|360:356|360:356|392:344|424:352,1,162.00000617981,4|0,0:0|0:0,0:0:0:0:
432,360,189135,85,8,0:0:0:0:
280,320,189342,1,8,0:0:0:0:
223,160,189549,22,0,B|239:124|239:124|234:85,1,79.2000024169923,4|0,1:1|2:0,0:0:0:0:
96,64,189756,102,0,B|80:100|80:100|85:139,1,79.2000024169923,0|0,1:1|2:0,0:0:0:0:
212,235,189963,2,0,B|228:199|228:199|223:160,1,79.2000024169923,8|0,0:3|2:0,0:0:0:0:
85,139,190170,2,0,B|69:175|69:175|74:214,1,79.2000024169923,0|0,0:0|2:0,0:0:0:0:
201,310,190377,2,0,B|217:274|217:274|212:235,1,79.2000024169923,8|0,0:3|2:0,0:0:0:0:
74,214,190584,70,0,B|58:250|58:250|63:289,1,79.2000024169923,0|0,0:0|2:0,0:0:0:0:
140,264,190791,2,8,B|148:196|148:196|156:188|156:188|143:187|143:187|151:178|151:178|160:112,1,158.400004833985,8|0,0:3|0:3,0:3:0:0:
354,124,191204,6,8,L|408:192,1,86.3999973632813,8|0,0:3|2:0,0:0:0:0:
493,178,191411,2,8,L|407:190,1,86.3999973632813,0|0,0:3|2:0,0:0:0:0:
368,296,191618,2,8,L|399:215,1,86.3999973632813,8|0,0:3|2:0,0:0:0:0:
344,148,191825,2,8,L|398:215,1,86.3999973632813,0|0,0:3|2:0,0:0:0:0:
504,224,192032,2,8,B|419:239|419:239|388:320,1,172.799994726563,8|0,0:3|0:3,0:3:0:0:
388,140,192446,6,8,B|345:147|345:147|330:188,1,86.3999973632813,8|0,0:3|2:3,0:3:0:0:
272,32,192653,6,8,B|250:35|250:35|243:56,1,43.1999986816407,8|0,0:1|2:3,0:3:0:0:
330,187,192860,70,8,B|313:230|313:230|267:238,1,93.5999957153322,8|0,0:3|2:3,0:3:0:0:
176,200,193066,2,8,B|147:163|147:163|163:119,1,93.5999957153322,0|0,0:3|2:3,0:3:0:0:
241,60,193273,2,8,B|286:53|286:53|316:89,1,93.5999957153322,8|0,0:3|2:3,0:3:0:0:
256,238,193480,2,8,B|210:244|210:244|180:209,1,93.5999957153322,0|0,0:3|2:3,0:3:0:0:
168,111,193687,2,8,B|185:67|185:67|231:59,1,93.5999957153322,8|0,0:3|2:3,0:3:0:0:
322,97,193893,2,8,B|350:133|350:133|334:177,1,93.5999957153322,0|0,0:3|2:3,0:3:0:0:
288,272,194101,6,10,B|193:285|193:285|130:214|130:214|40:224,1,280.799987145997,2|0,0:3|2:3,0:3:0:0:
32,88,194515,70,10,B|131:99|131:99,1,100.799996923828,10|0,0:3|2:3,0:3:0:0:
130,214,194722,2,0,B|229:203|229:203,1,100.799996923828,0|0,0:0|2:0,0:0:0:0:
200,68,194928,2,8,B|299:79|299:79,1,100.799996923828,8|0,0:3|2:3,0:3:0:0:
298,194,195135,2,0,B|397:183|397:183,1,100.799996923828,0|0,0:0|2:0,0:0:0:0:
368,48,195342,54,8,B|467:59|467:59,1,100.799996923828,8|0,0:3|2:3,0:3:0:0:
464,176,195549,2,0,B|414:181|414:181,1,50.3999984619141,8|0,0:0|2:0,0:0:0:0:
360,40,195756,6,8,B|459:51|459:51,1,100.799996923828,8|0,0:3|2:3,0:3:0:0:
472,184,195963,2,0,B|422:189|422:189,1,50.3999984619141,8|0,0:0|2:0,0:0:0:0:
360,328,196170,6,10,B|466:316|466:316,1,108.000004119873,6|0,0:0|2:3,0:3:0:0:
467,316,196377,53,0,0:0:0:0:
496,160,196584,70,0,B|283:128,1,216.000008239746,8|0,0:3|0:0,0:0:0:0:
252,340,196997,2,0,B|466:315,1,216.000008239746,8|0,0:3|0:0,0:0:0:0:
454,153,197411,2,0,B|347:137,1,108.000004119873,8|0,0:3|2:0,0:0:0:0:
282,127,197618,1,0,0:0:0:0:
168,268,197825,102,6,B|240:177,1,115.2,6|0,1:1|2:0,1:0:0:0:
239,178,198032,69,0,0:0:0:0:
80,272,198239,54,0,B|171:58,1,230.4,8|0,1:3|1:0,1:0:0:0:
368,216,198653,2,0,B|183:353,1,230.4,8|0,1:3|1:0,1:0:0:0:
24,216,199066,2,0,B|69:109,1,115.2,8|0,1:3|2:0,1:0:0:0:
96,48,199273,70,0,B|149:70,1,57.6,8|0,1:1|2:0,1:0:0:0:
268,119,199480,22,6,B|146:68,1,129.599996044922,6|0,1:1|2:0,1:0:0:0:
148,69,199687,101,0,0:0:0:0:
272,136,199894,6,0,B|400:136|368:248|496:248,1,259.199992089844,8|0,0:3|0:0,0:0:0:0:
313,48,200308,22,2,P|392:80|472:151,1,194.399994067383,2|0,3:1|2:0,0:0:0:0:
472,152,200515,102,2,B|376:176|392:208|296:232,1,194.399994067383,2|0,0:0|2:0,0:0:0:0:
297,232,200722,102,2,P|367:297|456:335,1,194.399994067383,10|0,3:1|2:0,0:0:0:0:
457,335,200928,54,0,P|424:344|384:344,1,72,4|0,0:0|0:0,0:0:0:0:
256,116,201342,70,2,B|400:128|400:128|392:200,1,216,2|0,0:0|2:0,0:0:0:0:
392,200,201549,102,2,B|248:188|248:188|248:260,1,216,2|0,0:0|2:0,0:0:0:0:
248,260,201756,6,2,B|392:272|392:272|384:344,1,216,2|0,0:0|2:0,0:0:0:0:
384,344,201963,102,2,L|208:328,1,144,2|0,0:0|2:0,0:0:0:0:
240,330,202377,6,2,L|188:324,12,36,14|2|2|2|2|2|2|2|2|2|2|2|2,0:0|0:0|0:0|0:0|0:0|0:0|0:0|0:0|0:0|0:0|0:0|0:0|0:0,0:0:0:0:
104,312,202791,102,0,L|120:168,1,144,4|0,0:0|2:0,0:0:0:0:
220,182,202997,2,0,L|204:326,1,144,2|0,0:2|2:0,0:0:0:0:
104,312,203204,2,0,P|17:211|120:168,1,288,8|2,0:0|1:2,0:0:0:0:
312,208,203618,6,0,P|384:208|464:176,1,144,0|0,0:0|2:0,0:0:0:0:
432,88,203825,2,0,P|360:88|280:120,1,144,2|0,0:2|2:0,0:0:0:0:
312,208,204032,2,8,B|403:320|403:320|451:183,1,288,8|2,0:0|1:2,0:0:0:0:
450,184,204446,102,8,B|367:115|367:115|312:208,1,216,0|0,0:0|2:0,0:0:0:0:
312,208,204653,2,8,B|257:301|257:301|174:232,1,216,2|0,0:2|2:0,0:0:0:0:
240,184,204860,6,10,B|288:120|256:48|256:48|184:64|160:144,1,288,10|2,0:0|1:2,0:0:0:0:
72,240,205170,1,2,2:2:0:0:
72,240,205273,2,10,B|96:320|168:336|168:336|200:264|152:200,1,288,2|2,0:0|1:2,0:0:0:0:
151,199,205687,102,8,P|179:102|216:64,1,144,8|0,0:0|2:0,0:0:0:0:
305,71,205894,2,8,P|348:129|360:199,1,144,0|0,0:0|2:0,0:0:0:0:
312,252,206101,2,4,B|288:224|288:224|296:152|256:128|256:128|216:152|224:224|224:224|200:252,1,288,4|2,0:2|1:2,0:2:0:0:
120,360,206411,1,2,2:2:0:0:
120,360,206515,6,8,B|168:336|216:352|216:352|256:328|256:328|296:352|296:352|344:336|392:360,1,288,8|2,0:0|0:2,0:0:0:0:
448,240,206825,1,2,2:2:0:0:
448,240,206928,2,0,B|376:208|312:252|312:252|344:176|296:112,1,288,0|2,0:0|1:2,0:0:0:0:
298,114,207342,102,8,P|240:72|104:96,1,216,8|0,0:0|2:0,0:0:0:0:
105,95,207549,2,8,P|66:155|97:289,1,216,2|0,0:2|2:0,0:0:0:0:
95,287,207756,6,8,P|156:322|324:212,1,288,0|2,0:0|1:2,0:0:0:0:
192,196,208066,1,2,2:0:0:0:
192,196,208170,2,10,P|256:112|424:144,1,288,10|2,0:0|1:2,0:0:0:0:
419,139,208584,102,2,P|448:216|384:336,1,216,2|0,0:0|2:0,0:0:0:0:
392,330,208791,6,8,P|352:352|304:360,1,72,8|0,0:0|2:0,0:0:0:0:
288,200,208997,2,8,P|327:223|357:261,1,72,8|0,0:0|2:0,0:0:0:0:
352,252,209204,1,0,0:0:0:0:
228,356,209411,102,8,B|223:321|238:285|238:285|194:261|186:205,1,144,4|0,0:0|2:0,0:0:0:0:
114,189,209618,2,0,B|119:224|104:260|104:260|148:284|156:340,1,144,2|0,0:2|2:0,0:0:0:0:
228,356,209825,2,0,B|218:286|248:214|248:214|160:166|144:54,1,288,8|2,0:0|1:2,0:0:0:0:
284,28,210239,6,8,B|289:63|274:99|274:99|318:123|326:179,1,144,0|0,0:0|2:0,0:0:0:0:
398,195,210446,2,0,B|393:160|408:124|408:124|364:100|356:44,1,144,2|0,0:2|2:0,0:0:0:0:
284,28,210653,2,0,B|294:98|264:170|264:170|352:218|368:330,1,288,8|2,0:0|1:2,0:0:0:0:
354,276,211066,102,0,B|310:235|246:235|246:235|214:227|186:191|198:155,1,216,0|0,0:0|2:0,0:0:0:0:
196,161,211273,2,0,B|227:158|254:195|254:228|254:228|237:289|265:343,1,216,2|0,0:2|2:0,0:0:0:0:
190,379,211480,6,10,B|158:299|174:235|174:235|118:219|102:155|134:115,1,288,10|2,0:0|0:2,0:0:0:0:
222,35,211791,1,2,2:0:0:0:
222,35,211894,2,2,B|222:67|202:95|202:95|214:127|196:161|196:161|246:171|254:227|254:227|270:187|254:155,1,288,2|0,0:0|0:2,0:0:0:0:
259,167,212308,102,8,P|262:91|318:43,1,144,8|0,0:0|2:0,0:0:0:0:
388,48,212515,2,8,P|437:98|437:168,1,144,0|0,0:0|2:0,0:0:0:0:
404,256,212722,2,0,B|368:240|352:208|352:208|348:136|348:136|344:208|344:208|328:240|292:256,1,288,4|2,0:2|1:2,0:0:0:0:
176,304,213032,1,2,2:2:0:0:
176,304,213135,6,8,B|140:312|108:288|108:288|72:304|32:292,1,144,8|0,0:0|2:0,0:0:0:0:
48,192,213342,2,8,B|84:184|116:208|116:208|152:192|192:204,1,144,2|0,0:2|2:0,0:0:0:0:
192,104,213549,2,0,B|152:136|48:152|64:80|40:16|144:8|192:40,1,288,4|2,1:2|0:2,0:0:0:0:
312,56,213860,1,2,2:0:0:0:
312,56,213963,102,8,P|400:48|504:136,1,216,8|0,0:0|2:0,0:0:0:0:
497,121,214170,2,8,P|424:171|290:147,1,216,2|0,0:2|2:0,0:0:0:0:
280,224,214377,6,0,B|352:264|440:256|496:216|496:216|456:264,1,288,4|2,1:2|0:2,0:0:0:0:
457,262,214791,102,8,B|416:312|416:312|384:320|336:312,1,144,8|0,0:0|2:0,0:0:0:0:
280,224,214997,2,8,B|321:174|321:174|353:166|401:174,1,144,0|0,0:0|2:0,0:0:0:0:
464,272,215204,6,10,B|423:322|423:322|391:330|344:320|344:320|304:348|248:336,1,216,2|0,0:0|2:0,0:0:0:0:
208,320,215411,2,8,P|176:288|160:240,1,72,8|0,0:0|2:0,0:0:0:0:
208,320,215618,102,10,P|175:217|179:110,1,216,10|0,0:0|2:0,0:0:0:0:
112,96,215825,6,10,P|54:187|31:291,1,216,2|0,0:0|2:0,0:0:0:0:
30,291,216032,102,4,L|208:320,1,144,4|0,0:0|2:0,0:0:0:0:
172,192,216239,2,4,L|-6:221,1,144,2|0,0:2|2:0,0:0:0:0:
30,93,216446,2,4,B|172:116|172:116|256:128|256:216|224:240,1,288,8|2,0:0|1:2,0:0:0:0:
424,80,216860,6,0,P|424:176|456:240,1,144,0|0,0:0|2:0,0:0:0:0:
336,240,217066,2,0,P|336:144|304:80,1,144,2|0,0:2|2:0,0:0:0:0:
424,80,217273,102,8,B|464:144|442:218|442:218|430:257|414:261|392:201|382:203|378:264|362:268|336:240,1,280.800001071167,8|2,0:0|0:2,0:0:0:0:
336,240,217687,6,0,B|310:221|284:231|286:281|255:282|249:228|224:231|198:259|198:259|171:279|141:256,1,216,0|0,0:0|2:0,0:0:0:0:
142,256,217894,2,0,B|175:242|171:208|171:208|160:172|170:149|220:170|234:143|190:120|194:92|224:79,1,216,2|0,0:2|2:0,0:0:0:0:
256,16,218101,102,10,B|251:60|281:83|336:48|358:82|301:125|321:152|369:163|369:163|411:181|405:229,1,288,10|2,1:1|1:2,0:0:0:0:
296,312,218411,1,2,2:0:0:0:
296,312,218515,2,10,B|301:268|271:245|216:280|194:246|251:203|231:176|183:165|183:165|141:147|147:99,1,288,2|2,1:1|1:2,0:0:0:0:
146,99,218928,6,8,P|104:152|32:104,1,144,8|0,0:0|2:0,0:0:0:0:
24,208,219135,2,8,P|90:217|85:304,1,144,0|0,0:0|2:0,0:0:0:0:
164,316,219342,102,8,P|267:229|217:104,1,288,4|2,1:2|1:2,0:0:0:0:
344,64,219653,1,2,2:2:0:0:
344,64,219756,2,8,B|408:152|384:272|384:272|320:304,1,288,8|2,0:0|1:2,0:0:0:0:
190,303,220066,1,2,2:2:0:0:
190,303,220170,2,8,B|128:272|128:272|104:152|168:64,1,288,0|2,0:0|1:2,0:0:0:0:
168,64,220584,6,8,L|312:48,1,144,8|0,0:0|2:0,0:0:0:0:
344,112,220791,2,8,L|200:128,1,144,0|0,0:0|2:0,0:0:0:0:
168,200,220997,2,8,B|312:184|312:184|344:248,1,216,0|0,0:0|2:0,0:0:0:0:
344,248,221204,2,8,B|200:264|200:264|168:200,1,216,0|0,0:0|2:0,0:0:0:0:
136,136,221411,102,10,B|280:120|280:120|344:248,1,288,10|0,0:0|1:0,0:0:0:0:
268,328,221722,1,0,0:0:0:0:
268,328,221825,2,10,B|160:340|160:340|112:244,1,216,2|0,0:0|2:0,0:0:0:0:
80,176,222032,2,0,B|-28:164,1,72,8|0,0:0|2:0,0:0:0:0:
80,176,222239,6,8,B|188:164|188:164|236:260,1,216,8|0,0:0|2:0,0:0:0:0:
235,259,222446,2,8,B|187:163|187:163|261:84,1,216,0|0,0:0|2:0,0:0:0:0:
292,148,222653,102,8,B|267:174|267:174|283:206,1,72,4|0,0:0|2:0,0:0:0:0:
416,240,222860,2,8,B|368:186|368:186|403:123,1,144,2|0,0:2|2:0,0:0:0:0:
312,56,223066,2,8,B|188:130|188:130|217:271,1,288,8|2,0:0|1:2,0:0:0:0:
312,56,223480,6,8,P|199:137|217:271,1,288,4|2,0:0|1:2,0:0:0:0:
312,56,223894,102,8,P|256:64|96:40,1,216,8|0,0:0|2:0,0:0:0:0:
99,41,224101,2,8,P|178:113|275:160,1,216,2|0,0:2|2:0,0:0:0:0:
275,160,224308,6,8,P|186:220|83:253,1,216,8|0,0:0|2:0,0:0:0:0:
83,253,224515,2,0,P|47:256|11:255,1,72,8|0,0:0|2:0,0:0:0:0:
288,304,224722,102,10,P|180:311|11:254,1,288,2|2,0:0|1:0,0:0:0:0:
237,224,225135,6,10,P|326:164|429:131,1,216,10|0,0:0|2:0,0:0:0:0:
429,131,225342,2,0,P|465:128|501:129,1,72,8|0,0:0|2:0,0:0:0:0:
224,80,225549,102,10,P|331:72|436:95,1,216,2|0,0:0|2:0,0:0:0:0:
500,128,225756,2,10,P|426:207|379:304,1,216,2|0,0:0|2:0,0:0:0:0:
320,343,225963,38,10,P|312:304|307:286,1,54,6|0,0:0|2:0,0:0:0:0:
308,290,226377,54,2,P|288:239|262:194,8,72,14|2|2|2|2|2|2|2|2,1:0|2:0|2:0|2:0|2:0|2:0|2:0|2:0|2:0,2:0:0:0:
136,352,226791,22,0,P|160:246|161:196,1,144,0|0,0:0|2:0,0:0:0:0:
56,192,226997,2,0,P|31:297|30:347,1,144,0|0,0:0|2:0,0:0:0:0:
170,321,227204,2,0,P|138:217|114:173,1,144,8|0,0:0|2:0,0:0:0:0:
21,222,227411,2,0,P|52:326|76:369,1,144,0|0,0:0|2:0,0:0:0:0:
183,276,227618,102,10,B|139:222|76:184|76:184|112:184|144:160,1,216,10|0,0:0|2:0,0:0:0:0:
143,160,227825,2,0,B|175:136|211:136|211:136,1,72,8|0,0:0|2:0,0:0:0:0:
304,144,228032,6,2,P|400:96|272:80,1,288,2|0,0:0|1:0,0:0:0:0:
280,256,228446,102,10,P|376:264|480:192,1,216,10|0,0:0|2:0,0:0:0:0:
473,201,228653,2,8,P|457:236|448:277,1,72,8|0,0:0|2:0,0:0:0:0:
280,256,228860,6,10,P|184:248|80:320,1,216,2|0,0:0|2:0,0:0:0:0:
87,311,229067,102,2,P|90:292|89:271,7,36,2|2|2|2|2|2|2|2,2:0|2:0|2:0|2:0|2:0|2:0|2:0|2:0,2:0:0:0:
87,311,229273,102,10,P|79:234|54:154,1,144,6|0,0:0|2:0,0:0:0:0:
256,192,229403,12,0,232144,0:0:0:0:
120,104,232170,69,8,0:0:0:0:
135,247,232377,1,0,0:0:0:0:
120,104,232584,6,0,L|128:176,1,72,0|0,0:2|2:0,0:0:0:0:
135,247,232791,2,0,L|127:175,1,72,0|0,0:0|2:0,0:0:0:0:
48,104,232997,2,0,L|26:247,1,144,8|0,0:0|1:0,0:0:0:0:
241,220,233411,6,0,L|214:152,1,72,0|0,0:0|2:0,0:0:0:0:
190,86,233618,2,0,L|216:153,1,72,0|0,0:0|2:0,0:0:0:0:
336,166,233825,2,0,L|250:49,1,144,8|0,0:0|1:0,0:0:0:0:
176,217,234239,6,0,L|240:305,1,108,0|0,0:0|2:0,0:0:0:0:
280,364,234446,2,0,L|367:299,1,108,0|0,0:0|2:0,0:0:0:0:
427,260,234653,70,10,L|362:173,1,108,10|0,0:0|2:0,0:0:0:0:
323,113,234860,1,0,0:0:0:0:
512,168,235066,6,2,L|426:100,1,108,2|0,0:0|2:0,0:0:0:0:
373,52,235273,1,0,0:0:0:0:
259,158,235480,6,10,B|323:328|323:328|279:296,1,216,10|0,0:0|2:0,0:0:0:0:
259,158,235894,22,14,B|227:73|227:73,1,72,14|0,0:0|2:0,0:0:0:0:
104,136,236101,102,0,B|161:65|161:65,1,72,0|0,0:0|2:0,0:0:0:0:
244,228,236308,2,0,B|73:201|73:201,1,144,8|0,0:0|1:0,0:0:0:0:
268,348,236722,70,0,B|353:334|353:334,1,72,0|0,0:0|2:0,0:0:0:0:
410,324,236928,2,0,B|325:338|325:338,1,72,0|0,0:0|2:0,0:0:0:0:
315,193,237135,2,0,B|343:363|343:363,1,144,8|0,0:0|1:0,0:0:0:0:
453,191,237549,6,0,B|432:63|432:63,1,108,0|0,0:0|2:0,0:0:0:0:
364,64,237756,2,0,B|385:192|385:192,1,108,0|0,0:0|2:0,0:0:0:0:
315,193,237963,6,10,B|294:65|294:65,1,108,10|0,0:0|2:0,0:0:0:0:
284,16,238170,1,0,0:0:0:0:
197,193,238377,6,10,B|218:65|218:65,1,108,2|0,0:0|2:0,0:0:0:0:
228,16,238584,1,0,0:0:0:0:
130,170,238791,70,10,B|127:192|148:64|148:64|120:112|72:128,1,216,10|8,0:0|1:0,0:0:0:0:
112,248,239204,6,8,B|94:350,1,72,4|0,0:2|2:0,0:0:0:0:
264,304,239411,2,0,B|228:206,1,72,0|0,0:0|2:0,0:0:0:0:
168,144,239618,2,0,B|180:287,1,144,8|0,0:0|1:0,0:0:0:0:
343,240,240032,6,0,B|337:168,1,72,0|0,0:0|2:0,0:0:0:0:
332,97,240239,2,0,B|403:91,1,72,0|0,0:0|2:0,0:0:0:0:
474,85,240446,2,0,B|486:227,1,144,8|0,0:0|1:0,0:0:0:0:
332,97,240860,6,0,B|296:100|296:100|264:84|264:84|228:88,1,108,0|0,0:0|2:0,0:0:0:0:
176,136,241066,2,0,B|211:141|211:141|238:165|238:165|274:171,1,108,0|0,0:0|2:0,0:0:0:0:
328,216,241273,70,10,B|298:236|298:236|262:238|262:238|233:260,1,108,10|0,0:0|2:0,0:0:0:0:
192,320,241480,1,0,0:0:0:0:
56,216,241687,6,10,B|86:236|86:236|122:238|122:238|151:260,1,108,2|0,0:0|2:0,0:0:0:0:
192,320,241894,54,0,L|192:360,6,36,4|0|0|0|0|0|0,2:0|2:0|2:0|2:0|2:0|2:0|2:0,2:0:0:0:
192,320,242101,70,8,L|192:176,1,144,8|0,0:0|0:0,0:0:0:0:
320,320,242515,22,8,L|320:248,1,72,4|0,0:0|2:0,0:0:0:0:
264,32,244584,102,2,L|384:48,1,108,10|0,0:0|2:0,0:0:0:0:
440,56,244791,1,0,0:0:0:0:
264,152,244997,70,2,L|384:136,1,108,2|0,0:0|2:0,0:0:0:0:
440,129,245204,1,0,0:0:0:0:
295,267,245411,6,2,L|406:220,1,108,10|0,0:0|2:0,0:0:0:0:
459,200,245618,1,0,0:0:0:0:
353,370,245825,38,2,L|417:320,1,72,6|0,0:0|2:0,0:0:0:0:
394,224,246032,86,0,L|320:256,1,72,0|0,0:0|2:0,0:0:0:0:
283,353,246239,2,0,B|353:370|353:370|409:325,1,144,8|0,0:0|1:0,0:0:0:0:
184,252,246653,86,0,L|118:223,1,72,0|0,0:0|2:0,0:0:0:0:
107,121,246860,2,0,L|178:130,1,72,0|0,0:0|2:0,0:0:0:0:
247,218,247066,2,0,B|183:252|183:252|118:223,1,144,8|0,0:0|1:0,0:0:0:0:
334,130,247480,6,0,L|440:116,1,108,0|0,0:0|2:0,0:0:0:0:
460,44,247687,2,0,L|353:29,1,108,0|0,0:0|2:0,0:0:0:0:
280,40,247894,2,10,L|179:80,1,108,10|0,0:0|2:0,0:0:0:0:
112,108,248101,1,0,0:0:0:0:
334,130,248308,6,2,L|226:144,1,108,2|0,0:0|2:0,0:0:0:0:
152,156,248515,1,0,0:0:0:0:
304,232,248722,70,0,L|281:228,1,21.6,8|0,0:2|0:0,0:0:0:0:
278,227,248928,53,8,0:0:0:0:
72,248,249135,6,4,B|85:281|85:281|86:317,1,72,4|0,0:0|2:0,0:0:0:0:
216,200,249342,54,4,B|180:194|180:194|148:177,1,72,0|0,0:0|2:0,0:0:0:0:
144,360,249549,2,8,B|190:303|190:303|251:265,1,144,8|0,0:0|1:0,0:0:0:0:
440,248,249963,6,4,B|427:281|427:281|426:317,1,72,0|0,0:0|2:0,0:0:0:0:
296,200,250170,2,4,B|332:194|332:194|364:177,1,72,0|0,0:0|2:0,0:0:0:0:
368,360,250377,2,8,B|322:303|322:303|261:265,1,144,8|0,0:0|1:0,0:0:0:0:
72,136,250791,6,6,B|85:103|85:103|88:68|88:68|112:40|112:40,1,108,2|0,0:3|2:0,0:2:0:0:
152,96,250997,38,4,L|180:108,6,18,8|0|8|0|8|0|8,0:3|2:3|0:3|2:3|0:3|2:3|0:3,0:3:0:0:
208,159,251204,86,10,B|232:131|232:131|235:96|235:96|260:68,1,108,10|0,0:0|2:0,0:0:0:0:
312,16,251411,1,0,0:0:0:0:
294,192,251618,70,10,B|300:155|300:155|285:123|285:123|293:87,1,108,2|0,0:0|2:0,0:0:0:0:
312,16,251825,1,0,0:0:0:0:
385,178,252032,6,10,B|372:143|372:143|343:123|343:123|332:87,1,108,10|0,0:0|2:0,0:0:0:0:
312,16,252239,1,0,0:0:0:0:
455,120,252446,6,10,B|427:96|427:96|392:93|392:93|364:67,1,108,6|0,0:0|2:0,0:0:0:0:
312,16,252653,2,0,P|276:44|264:100,1,72,0|0,0:0|2:0,0:0:0:0:
460,152,252860,2,8,B|422:120|422:120|376:116|376:116|338:81,1,144,8|0,0:0|1:0,0:0:0:0:
455,264,253273,6,10,B|427:288|427:288|392:291|392:291|364:317,1,108,2|0,0:0|2:0,0:0:0:0:
312,368,253480,2,0,P|276:340|264:284,1,72,0|0,0:0|2:0,0:0:0:0:
460,232,253687,2,8,B|422:264|422:264|376:268|376:268|338:303,1,144,8|0,0:0|1:0,0:0:0:0:
340,300,254101,70,10,B|305:287|305:287|285:258|285:258|248:247,1,108,2|0,0:0|2:0,0:0:0:0:
192,200,254308,2,0,B|219:176|219:176|255:173|255:173|283:147,1,108,0|0,0:0|2:0,0:0:0:0:
352,121,254515,6,10,B|358:157|358:157|343:189|343:189|352:226,1,108,10|0,0:0|2:0,0:0:0:0:
340,300,254722,1,0,0:0:0:0:
160,263,254928,6,10,B|154:227|154:227|169:195|169:195|160:158,1,108,2|0,0:0|2:0,0:0:0:0:
159,159,255135,2,8,B|149:124|149:124|120:104|120:104|108:70,1,108,0|0,1:0|2:0,1:0:0:0:
107,69,255342,2,0,B|143:63|143:63|175:78|175:78|212:69,1,108,0|0,0:0|2:0,0:0:0:0:
212,72,255549,21,2,0:0:0:0:
216,76,255601,5,2,0:0:0:0:
220,80,255653,101,2,0:0:0:0:
224,84,255704,5,2,0:0:0:0:
228,88,255756,102,4,P|232:120|256:152,1,54.0000020599366,4|0,0:0|0:0,0:0:0:0:
304,96,255963,102,0,P|376:80|416:72,1,108.000004119873
282,144,256377,70,0,P|290:113|314:86,1,54.0000020599366
355,147,256584,2,0,P|428:150|469:152,1,108.000004119873
322,188,256997,6,0,P|337:160|367:140,1,54.0000020599366
391,209,257204,2,0,P|460:230|499:243,1,108.000004119873
349,241,257618,6,0,P|370:217|404:206,1,54.0000020599366
410,279,257825,2,0,P|471:317|505:339,1,108.000004119873
349,241,258239,6,2,P|309:237|274:256,1,81.0000030899049,2|0,0:0|0:0,0:0:0:0:
256,288,258446,1,0,0:0:0:0:
163,241,258653,70,2,P|203:237|238:256,1,81.0000030899049,2|0,0:0|0:0,0:0:0:0:
256,288,258860,1,0,0:0:0:0:
163,241,259066,6,2,P|123:245|88:226,1,81.0000030899049,2|0,0:0|0:0,0:0:0:0:
70,194,259273,1,0,0:0:0:0:
72,120,259480,1,0,0:0:0:0:
208,212,259687,6,2,P|168:205|139:178,1,81.0000030899049,2|0,0:0|0:0,0:0:0:0:
130,142,259894,1,0,0:0:0:0:
151,71,260101,1,0,0:0:0:0:
258,195,260308,6,2,P|221:178|200:144,1,81.0000030899049,2|0,0:0|0:0,0:0:0:0:
201,107,260515,1,0,0:0:0:0:
239,44,260722,1,0,0:0:0:0:
311,192,260928,70,2,P|279:166|268:128,1,81.0000030899049,2|0,0:0|0:0,0:0:0:0:
278,92,261135,1,0,0:0:0:0:
331,41,261342,1,0,0:0:0:0:
312,192,261549,6,2,L|300:292,1,81.0000030899049,2|0,0:0|0:0,0:0:0:0:
292,344,261756,1,0,0:0:0:0:
200,192,261963,6,2,L|212:292,1,81.0000030899049,2|0,0:0|0:0,0:0:0:0:
220,344,262170,1,0,0:0:0:0:
256,168,262377,6,4,P|256:120|248:104,1,54.0000020599366,4|0,0:0|0:0,0:0:0:0:
184,144,262584,2,0,B|168:100|196:68|196:68|172:80,1,108.000004119873
56,168,262997,70,0,P|76:136|100:120,1,54.0000020599366
128,192,263204,1,0,0:0:0:0:
200,216,263411,1,0,0:0:0:0:
87,317,263618,6,0,P|69:283|67:254,1,54.0000020599366
142,266,263825,2,0,B|196:269|196:269|200:216,1,108.000004119873
370,266,264239,6,0,P|348:284|320:292,1,54.0000020599366
312,216,264446,1,0,0:0:0:0:
384,190,264653,1,0,0:0:0:0:
340,352,264860,6,2,P|378:339|409:313,1,81.0000030899049,2|0,0:0|2:0,0:0:0:0:
424,284,265066,1,0,0:0:0:0:
312,216,265273,70,2,P|338:185|352:147,1,81.0000030899049,2|0,0:0|2:0,0:0:0:0:
350,115,265479,1,0,0:0:0:0:
224,24,265687,6,2,P|216:63|223:103,1,81.0000030899049,2|0,0:0|2:0,0:0:0:0:
241,130,265893,1,0,0:0:0:0:
168,160,266101,1,0,0:0:0:0:
304,216,266308,6,2,P|265:208|225:215,1,81.0000030899049,2|0,0:0|2:0,0:0:0:0:
198,233,266514,1,0,0:0:0:0:
168,160,266722,1,0,0:0:0:0:
112,296,266928,6,2,P|120:257|113:217,1,81.0000030899049,2|0,0:0|2:0,0:0:0:0:
95,190,267134,1,0,0:0:0:0:
168,160,267342,1,0,0:0:0:0:
32,104,267549,70,2,P|80:128|136:96,1,97.1999970336915,2|0,0:0|2:0,0:0:0:0:
138,87,267756,1,0,0:0:0:0:
168,160,267963,1,0,0:0:0:0:
120,296,268170,5,2,0:0:0:0:
155,292,268273,1,0,0:0:0:0:
200,232,268377,2,0,L|236:228,2,36
312,152,268584,53,2,0:0:0:0:
312,152,268635,101,0,0:0:0:0:
312,152,268687,5,0,0:0:0:0:
312,152,268739,101,0,0:0:0:0:
312,152,268791,6,2,L|276:156,8,36,2|2|2|2|2|2|2|2|6,0:0|0:0|0:0|0:0|0:0|0:0|0:0|0:0|0:0,0:0:0:0:
