osu file format v14

[General]
AudioFilename: Neptune Sagashite.mp3
AudioLeadIn: 0
PreviewTime: 121584
Countdown: 0
SampleSet: Soft
StackLeniency: 0.7
Mode: 0
LetterboxInBreaks: 0
WidescreenStoryboard: 1

[Editor]
Bookmarks: 1273,2515,15135,15549,15618,15687,15756,22377,28997,35204,35618,42032,42239,48653,48860,52170,54653,55066,55480,68722,81963,94791,95204,108239,108446,114860,115066,121687,134928,148170,154791,158101,158308,158515,158722,158928,159135,159342,159549,159756,159963,160170,160377,160584,160791,160894,160997,161411,166377,168032,174239,174446,174653,174791,174928,175066,175135,175204,175273,175342,175411,175480,175549,175618,175653,175687,175722,175756,175791,175825,175860,175894,176308,189549,192653,195549,195963,196170,199273,201342,201549,201756,201963,202377,202791,216032,229273,242515,245825,255549,255618,255687,255756,259066,259687,260308,260928,261549,261963,262377,262997,263618,264239,264860,265273,265687,266308,266928,267135,267342,267756,267963,268170,268273,268377,268480,268584,268635,268687,268739,268791,268842,268894,268946,268997
DistanceSpacing: 1
BeatDivisor: 4
GridSize: 8
TimelineZoom: 1.5

[Metadata]
Title:Neptune*Sagashite
TitleUnicode:ネプテューヌ☆サガして
Artist:Afilia Saga
ArtistUnicode:アフィリア・サーガ
Creator:PortableFreak
Version:Hard
Source:超次元ゲイム ネプテューヌ
Tags:Hyperdimension Neptunia Choujigen Game Neptune Max 60000 NepFreak
BeatmapID:1216823
BeatmapSetID:572781

[Difficulty]
HPDrainRate:5
CircleSize:4
OverallDifficulty:6.2
ApproachRate:7.2
SliderMultiplier:1.6
SliderTickRate:2

[Events]
//Background and Video events
0,0,"Hyperdimension-neptunia-re-birth-1.jpg",0,0
//Break Periods
2,95404,99300
2,176508,181852
//Storyboard Layer 0 (Background)
//Storyboard Layer 1 (Fail)
//Storyboard Layer 2 (Pass)
//Storyboard Layer 3 (Foreground)
//Storyboard Sound Samples

[TimingPoints]
860,413.793103448276,4,2,0,100,1,0
2101,-100,4,2,0,50,0,0
2308,-100,4,2,0,5,0,0
2489,-200,4,2,0,5,0,0
2515,-133.333333333333,4,2,0,100,0,0
4894,-133.333333333333,4,2,0,5,0,0
4997,-133.333333333333,4,2,0,100,0,0
8204,-133.333333333333,4,2,0,5,0,0
8308,-133.333333333333,4,2,0,100,0,0
8928,-133.333333333333,4,2,0,60,0,0
9135,-133.333333333333,4,2,0,100,0,0
12342,-133.333333333333,4,2,0,5,0,0
12446,-133.333333333333,4,2,0,100,0,0
15135,-111.111111111111,4,2,0,100,0,0
15446,-111.111111111111,4,2,0,5,0,0
15549,-111.111111111111,4,1,0,100,0,0
15584,-111.111111111111,4,2,0,100,0,0
15618,-111.111111111111,4,1,0,100,0,0
15653,-111.111111111111,4,2,0,100,0,0
15687,-111.111111111111,4,1,0,100,0,0
15722,-111.111111111111,4,2,0,100,0,0
15756,-100,4,1,0,75,0,0
28584,-111.111111111111,4,2,0,100,0,0
28894,-111.111111111111,4,2,0,5,0,0
28997,-133.333333333333,4,2,0,100,0,0
35515,-133.333333333333,4,2,0,5,0,0
35618,-133.333333333333,4,2,0,100,0,0
42032,-100,4,1,0,75,0,0
42446,-100,4,1,0,90,0,0
42860,-100,4,1,0,75,0,0
43273,-100,4,1,0,90,0,0
43687,-100,4,1,0,75,0,0
44101,-100,4,1,0,90,0,0
44515,-100,4,1,0,75,0,0
44928,-100,4,1,0,90,0,0
45342,-100,4,1,0,75,0,0
45549,-100,4,1,0,100,0,0
48653,-100,4,1,0,75,0,0
49066,-100,4,1,0,90,0,0
49480,-100,4,1,0,75,0,0
49894,-100,4,1,0,90,0,0
50308,-100,4,1,0,75,0,0
50722,-100,4,1,0,90,0,0
51135,-100,4,1,0,75,0,0
51549,-100,4,1,0,90,0,0
51963,-100,4,1,0,75,0,0
54653,-111.111111111111,4,2,0,100,0,0
55066,-111.111111111111,4,2,0,100,0,0
55377,-111.111111111111,4,2,0,5,0,0
55480,-90.9090909090909,4,1,0,100,0,1
68308,-90.9090909090909,4,1,0,100,0,0
68722,-90.9090909090909,4,1,0,100,0,1
81963,-100,4,1,0,75,0,0
94377,-93.4579439252336,4,1,0,75,0,0
94791,-111.111111111111,4,2,0,100,0,0
95101,-111.111111111111,4,2,0,5,0,0
95204,-133.333333333333,4,2,0,100,0,0
101722,-133.333333333333,4,2,0,5,0,0
101825,-133.333333333333,4,2,0,100,0,0
108239,-100,4,1,0,75,0,0
108653,-100,4,1,0,90,0,0
109066,-100,4,1,0,75,0,0
109480,-100,4,1,0,90,0,0
109894,-100,4,1,0,75,0,0
110308,-100,4,1,0,90,0,0
110722,-100,4,1,0,75,0,0
111135,-100,4,1,0,90,0,0
111549,-100,4,1,0,75,0,0
111756,-100,4,1,0,100,0,0
114860,-100,4,1,0,75,0,0
115273,-100,4,1,0,90,0,0
115687,-100,4,1,0,75,0,0
116101,-100,4,1,0,90,0,0
116515,-100,4,1,0,75,0,0
116928,-100,4,1,0,90,0,0
117342,-100,4,1,0,75,0,0
117756,-100,4,1,0,90,0,0
118170,-100,4,1,0,75,0,0
120860,-111.111111111111,4,2,0,100,0,0
121273,-111.111111111111,4,2,0,100,0,0
121584,-111.111111111111,4,2,0,5,0,0
121687,-90.9090909090909,4,1,0,100,0,1
134515,-90.9090909090909,4,1,0,100,0,0
134928,-90.9090909090909,4,1,0,100,0,1
147756,-90.9090909090909,4,1,0,100,0,1
148170,-111.111111111111,4,1,0,75,0,0
148584,-111.111111111111,4,2,0,100,0,0
148894,-111.111111111111,4,2,0,5,0,0
148997,-111.111111111111,4,2,0,100,0,0
149618,-111.111111111111,4,3,0,100,0,0
149825,-111.111111111111,4,1,0,75,0,0
150239,-111.111111111111,4,2,0,100,0,0
151480,-111.111111111111,4,1,0,75,0,0
151894,-111.111111111111,4,2,0,100,0,0
152928,-111.111111111111,4,3,0,100,0,0
153135,-100,4,1,0,75,0,0
154791,-100,4,1,0,90,0,0
155204,-100,4,1,0,75,0,0
156446,-100,4,1,0,90,0,0
156859,-100,4,1,0,75,0,0
158101,-95.2380952380952,4,1,0,90,0,0
161411,-95.2380952380952,4,1,0,75,0,0
168032,-88.4955752212389,4,1,0,75,0,0
168653,-95.2380952380952,4,1,0,75,0,0
169273,-95.2380952380952,4,1,0,75,0,0
174342,-133.333333333333,4,2,0,5,0,0
174446,-133.333333333333,4,2,0,100,0,0
174549,-133.333333333333,4,2,0,5,0,0
174653,-133.333333333333,4,1,10,64,0,0
174722,-133.333333333333,4,2,10,64,0,0
174791,-133.333333333333,4,1,10,64,0,0
174860,-133.333333333333,4,2,10,64,0,0
174928,-133.333333333333,4,1,10,64,0,0
174997,-133.333333333333,4,2,10,64,0,0
175066,-133.333333333333,4,1,10,64,0,0
175101,-133.333333333333,4,2,10,64,0,0
175135,-133.333333333333,4,1,10,64,0,0
175170,-133.333333333333,4,2,10,64,0,0
175204,-133.333333333333,4,1,10,64,0,0
175239,-133.333333333333,4,2,10,64,0,0
175273,-133.333333333333,4,1,10,64,0,0
175308,-133.333333333333,4,2,10,64,0,0
175342,-133.333333333333,4,1,10,64,0,0
175377,-133.333333333333,4,2,10,64,0,0
175411,-133.333333333333,4,1,10,64,0,0
175446,-133.333333333333,4,2,10,64,0,0
175480,-133.333333333333,4,1,10,64,0,0
175515,-133.333333333333,4,2,10,64,0,0
175549,-133.333333333333,4,1,10,64,0,0
175584,-133.333333333333,4,2,10,64,0,0
175618,-133.333333333333,4,1,10,64,0,0
175635,-133.333333333333,4,2,10,64,0,0
175653,-133.333333333333,4,1,10,64,0,0
175670,-133.333333333333,4,2,10,64,0,0
175687,-133.333333333333,4,1,10,64,0,0
175704,-133.333333333333,4,2,10,64,0,0
175722,-133.333333333333,4,1,10,64,0,0
175739,-133.333333333333,4,2,10,64,0,0
175756,-133.333333333333,4,1,10,64,0,0
175773,-133.333333333333,4,2,10,64,0,0
175791,-133.333333333333,4,1,10,64,0,0
175808,-133.333333333333,4,2,10,64,0,0
175825,-133.333333333333,4,1,10,64,0,0
175842,-133.333333333333,4,2,10,64,0,0
175860,-133.333333333333,4,1,10,64,0,0
175877,-133.333333333333,4,2,10,64,0,0
175894,-111.111111111111,4,1,10,64,0,0
176204,-111.111111111111,4,2,10,64,0,0
176308,-133.333333333333,4,2,0,100,0,0
182722,-133.333333333333,4,2,0,60,0,0
182928,-133.333333333333,4,2,0,100,0,0
188928,-133.333333333333,4,2,0,60,0,0
189135,-133.333333333333,4,2,0,100,0,0
189549,-95.2380952380952,4,1,0,90,0,0
200722,-95.2380952380952,4,3,0,90,0,0
200825,-95.2380952380952,4,1,0,90,0,0
200928,-111.111111111111,4,2,0,100,0,0
201239,-111.111111111111,4,2,0,5,0,0
201342,-95.2380952380952,4,1,0,90,0,0
202377,-111.111111111111,4,2,0,100,0,0
202687,-111.111111111111,4,2,0,5,0,0
202791,-90.9090909090909,4,1,0,100,0,1
215618,-90.9090909090909,4,1,0,100,0,0
216032,-90.9090909090909,4,1,0,100,0,1
229273,-100,4,1,0,75,0,0
255342,-100,4,2,0,75,0,0
255549,-111.111111111111,4,1,0,100,0,0
255584,-111.111111111111,4,2,0,100,0,0
255618,-111.111111111111,4,1,0,100,0,0
255653,-111.111111111111,4,2,0,100,0,0
255687,-111.111111111111,4,1,0,100,0,0
255722,-111.111111111111,4,2,0,100,0,0
255756,-133.333333333333,4,2,0,100,0,0
266928,-133.333333333333,4,2,0,100,0,0
267135,-111.111111111111,4,2,0,100,0,0
267549,-111.111111111111,4,2,0,100,0,0
267653,-111.111111111111,4,2,0,5,0,0
267756,-111.111111111111,4,2,0,100,0,0
267860,-111.111111111111,4,2,0,5,0,0
267963,-111.111111111111,4,2,0,100,0,0
268067,-111.111111111111,4,2,0,5,0,0
268170,-100,4,1,0,100,0,0
268222,-100,4,2,0,100,0,0
268273,-100,4,1,0,100,0,0
268325,-100,4,2,0,100,0,0
268377,-100,4,1,0,100,0,0
268428,-100,4,2,0,100,0,0
268480,-100,4,1,0,100,0,0
268532,-100,4,2,0,100,0,0
268584,-100,4,1,0,100,0,0
268610,-100,4,2,0,100,0,0
268635,-100,4,1,0,100,0,0
268661,-100,4,2,0,100,0,0
268687,-100,4,1,0,100,0,0
268713,-100,4,2,0,100,0,0
268739,-100,4,1,0,100,0,0
268765,-100,4,2,0,100,0,0
268791,-100,4,1,0,100,0,0
268816,-100,4,2,0,100,0,0
268842,-100,4,1,0,100,0,0
268868,-100,4,2,0,100,0,0
268894,-100,4,1,0,100,0,0
268920,-100,4,2,0,100,0,0
268946,-100,4,2,0,5,0,0
268972,-100,4,2,0,100,0,0
268997,-200,4,2,0,100,0,0
269101,-200,4,2,0,100,0,0
269204,-200,4,2,0,100,0,0
270653,-200,4,2,0,5,0,0

[Colours]
Combo1 : 159,80,0
Combo2 : 128,0,255
Combo3 : 186,117,255
Combo4 : 255,128,255
Combo5 : 0,255,255
Combo6 : 255,183,111
Combo7 : 191,0,0
Combo8 : 47,1,231

[HitObjects]
256,192,1273,12,2,2101,0:0:0:0:
136,144,2515,6,0,L|216:128,1,60.0000022888184,2|0,0:0|0:0,0:0:0:0:
200,72,2928,2,0,L|280:88,1,60.0000022888184
320,96,3342,1,2,0:0:0:0:
360,136,3549,1,0,0:0:0:0:
376,192,3756,2,0,P|376:240|368:264,1,60.0000022888184
264,216,4170,5,2,0:0:0:0:
208,232,4377,1,0,0:0:0:0:
168,272,4584,1,0,0:0:0:0:
48,248,4997,1,0,0:0:0:0:
48,248,5411,1,0,0:0:0:0:
72,128,5825,5,2,0:0:0:0:
128,136,6032,1,0,0:0:0:0:
176,104,6239,2,0,P|208:88|240:88,1,60.0000022888184
288,104,6653,5,2,0:0:0:0:
280,160,6860,1,0,0:0:0:0:
296,216,7066,2,0,P|312:256|312:280,1,60.0000022888184
368,304,7480,6,0,P|408:288|432:288,1,60.0000022888184,2|0,0:0|0:0,0:0:0:0:
424,287,7894,1,0,0:0:0:0:
416,168,8308,2,0,P|356:175|303:201,1,120.000004577637
256,240,8928,1,4,0:0:0:0:
160,224,9135,6,0,P|160:264|184:304,1,60.0000022888184,6|0,0:0|0:0,0:0:0:0:
216,168,9549,2,0,P|181:148|134:148,1,60.0000022888184
104,152,9963,1,2,0:0:0:0:
48,152,10170,1,0,0:0:0:0:
0,112,10377,1,0,0:0:0:0:
16,232,10791,6,0,P|48:240|96:224,1,60.0000022888184,2|0,0:0|0:0,0:0:0:0:
128,216,11204,1,0,0:0:0:0:
184,248,11411,1,0,0:0:0:0:
200,304,11618,2,0,P|248:312|304:360,1,120.000004577637
328,240,12446,5,2,0:0:0:0:
336,184,12653,1,0,0:0:0:0:
344,128,12860,1,0,0:0:0:0:
440,200,13273,5,2,0:0:0:0:
448,144,13480,1,0,0:0:0:0:
456,88,13687,1,0,0:0:0:0:
344,128,14101,5,2,0:0:0:0:
352,184,14308,1,0,0:0:0:0:
360,240,14515,1,0,0:0:0:0:
312,280,14722,1,0,0:0:0:0:
264,320,14928,5,0,0:0:0:0:
248,208,15135,2,6,B|184:168|176:232|112:192|112:192|92:208|92:208|80:188|80:188|60:204,1,215.999993408203,4|4,0:0|0:0,0:0:0:0:
128,296,15963,5,0,0:0:0:0:
128,296,16170,2,0,P|192:296|240:272,1,80,8|0,0:0|0:0,0:0:0:0:
256,232,16584,1,0,0:0:0:0:
336,216,16791,1,0,0:0:0:0:
400,264,16997,2,0,P|416:296|416:344,1,80,8|0,0:0|0:0,0:0:0:0:
448,200,17411,5,0,0:0:0:0:
384,152,17618,1,0,0:0:0:0:
320,104,17825,1,10,0:0:0:0:
320,104,18239,2,2,B|240:128|248:56|168:80,1,160,2|8,0:0|0:0,0:0:0:0:
168,79,18860,1,0,0:0:0:0:
88,104,19066,5,0,0:0:0:0:
88,184,19273,1,0,0:0:0:0:
88,264,19480,2,0,L|168:264,1,80,8|0,0:0|0:0,0:0:0:0:
248,264,19894,5,0,0:0:0:0:
248,184,20101,1,0,0:0:0:0:
248,104,20308,2,0,L|328:104,1,80,8|0,0:0|0:0,0:0:0:0:
408,104,20722,5,0,0:0:0:0:
448,176,20928,1,0,0:0:0:0:
440,256,21135,1,10,0:0:0:0:
440,256,21549,2,2,B|408:248|376:264|376:264|360:240|360:240|328:256|296:248,1,160,2|8,0:0|0:0,0:0:0:0:
224,224,22170,1,0,0:0:0:0:
320,160,22377,5,4,0:0:0:0:
264,104,22584,1,0,0:0:0:0:
184,104,22791,2,0,L|104:104,1,80,8|0,0:0|0:0,0:0:0:0:
24,128,23204,5,0,0:0:0:0:
80,184,23411,1,0,0:0:0:0:
160,184,23618,2,0,L|240:184,1,80,8|0,0:0|0:0,0:0:0:0:
240,264,24032,6,0,L|320:264,1,80
200,344,24446,2,0,L|360:344,1,160,10|2,0:0|0:0,0:0:0:0:
424,296,25066,1,0,0:0:0:0:
440,216,25273,1,8,0:0:0:0:
440,216,25687,6,0,P|456:176|440:120,1,80
388,92,26101,2,0,P|372:132|388:188,1,80,8|0,0:0|0:0,0:0:0:0:
296,192,26515,1,0,0:0:0:0:
216,184,26722,1,0,0:0:0:0:
152,136,26928,1,8,0:0:0:0:
232,288,27342,5,0,0:0:0:0:
156,259,27549,1,0,0:0:0:0:
107,196,27756,2,10,P|80:240|80:280,1,80,10|0,0:0|0:0,0:0:0:0:
104,344,28170,5,2,0:0:0:0:
248,360,28377,1,4,0:2:0:0:
248,360,28584,1,0,0:3:0:0:
360,312,28997,6,0,P|392:304|432:304,1,60.0000022888184,4|0,0:0|0:0,0:0:0:0:
424,240,29411,2,0,P|394:233|364:233,1,60.0000022888184
304,240,29825,1,0,0:0:0:0:
248,232,30032,1,0,0:0:0:0:
200,200,30239,1,0,0:0:0:0:
288,112,30653,6,0,P|344:88|352:88,1,60.0000022888184
400,88,31066,2,0,P|456:112|464:112,1,60.0000022888184
456,176,31480,1,0,0:0:0:0:
456,240,31687,1,0,0:0:0:0:
456,304,31894,1,0,0:0:0:0:
336,320,32308,6,2,L|272:328,1,60.0000022888184,2|0,0:0|0:0,0:0:0:0:
176,256,32722,2,2,L|240:264,1,60.0000022888184,2|0,0:0|0:0,0:0:0:0:
336,192,33135,1,2,0:0:0:0:
280,200,33342,1,0,0:0:0:0:
224,192,33549,1,2,0:0:0:0:
272,80,33963,6,2,P|224:72|136:112,1,120.000004577637,2|0,0:0|0:0,0:0:0:0:
157,93,34584,1,0,0:0:0:0:
112,128,34791,1,0,0:0:0:0:
56,136,34997,1,0,0:0:0:0:
0,112,35204,1,2,0:0:0:0:
56,272,35618,5,4,0:0:0:0:
56,272,36032,2,0,B|112:272|112:272|120:272|120:272|168:304,1,120.000004577637
216,336,36653,1,0,0:0:0:0:
264,368,36860,1,0,0:0:0:0:
248,248,37273,5,0,0:0:0:0:
296,216,37480,1,0,0:0:0:0:
344,184,37687,2,0,L|408:184,1,60.0000022888184,0|0,0:0|0:0,0:0:0:0:
464,184,38101,1,0,0:0:0:0:
408,80,38515,5,2,0:0:0:0:
408,80,38928,2,2,L|288:80,1,120.000004577637,2|0,0:0|0:0,0:0:0:0:
232,104,39549,1,0,0:0:0:0:
176,128,39756,5,2,0:1:0:0:
128,240,40170,1,2,0:1:0:0:
72,216,40377,1,0,0:1:0:0:
16,192,40584,6,2,B|0:240|0:240|12:276|48:288,1,120.000004577637,2|0,0:1|0:1,0:1:0:0:
104,296,41204,1,0,0:0:0:0:
160,296,41411,2,0,P|192:304|216:328,2,60.0000022888184
224,240,42032,5,2,0:0:0:0:
280,296,42239,1,2,0:0:0:0:
352,264,42446,2,0,P|376:280|440:280,1,80
408,208,42860,5,10,0:0:0:0:
352,152,43067,1,10,0:0:0:0:
280,184,43274,2,0,P|256:168|192:168,1,80
224,240,43687,5,2,0:0:0:0:
144,240,43894,1,2,0:0:0:0:
64,240,44101,2,0,L|64:160,1,80
64,80,44515,5,10,0:0:0:0:
136,120,44722,1,10,0:0:0:0:
208,80,44928,2,0,L|288:80,1,80
288,80,45342,1,0,0:0:0:0:
344,208,45549,5,4,0:0:0:0:
424,216,45756,1,0,0:0:0:0:
472,280,45963,2,0,P|496:252|500:192,1,80,8|0,0:0|0:0,0:0:0:0:
392,288,46377,1,0,0:0:0:0:
312,296,46584,1,0,0:0:0:0:
232,304,46791,1,8,0:0:0:0:
232,304,47204,6,2,P|224:272|168:232,1,80,2|0,0:0|0:0,0:0:0:0:
152,312,47618,1,10,0:0:0:0:
112,240,47825,1,0,0:0:0:0:
152,168,48032,2,2,P|96:160|32:232,1,160,2|10,0:0|0:0,0:0:0:0:
112,240,48653,5,2,0:0:0:0:
192,240,48860,1,2,0:0:0:0:
264,264,49066,2,0,P|316:264|356:232,1,80
288,184,49480,5,10,0:0:0:0:
216,160,49687,1,10,0:0:0:0:
136,160,49894,2,0,P|84:160|44:192,1,80
176,88,50308,5,2,0:0:0:0:
256,96,50515,1,2,0:0:0:0:
328,128,50722,2,0,P|364:132|408:172,1,80
336,208,51135,5,10,0:0:0:0:
256,216,51342,1,10,0:0:0:0:
184,248,51549,2,0,P|148:252|104:292,1,80
176,328,51963,1,8,0:0:0:0:
256,352,52170,5,0,0:0:0:0:
336,328,52377,1,0,0:0:0:0:
400,280,52584,1,10,0:0:0:0:
400,104,52997,1,10,0:0:0:0:
344,160,53204,5,0,0:0:0:0:
344,160,53308,1,0,0:0:0:0:
344,160,53411,1,0,0:0:0:0:
288,104,53618,1,0,0:0:0:0:
232,160,53825,1,10,0:0:0:0:
72,160,54239,1,10,0:0:0:0:
152,280,54653,5,0,0:0:0:0:
152,280,54756,1,0,0:0:0:0:
152,280,54860,1,0,0:0:0:0:
152,280,54963,1,0,0:0:0:0:
152,280,55066,1,2,0:0:0:0:
216,112,55480,6,0,L|200:208,1,88.000002685547,4|0,0:0|0:0,0:0:0:0:
296,112,55894,2,0,L|312:208,1,88.000002685547,8|0,0:0|0:0,0:0:0:0:
256,272,56308,1,0,0:0:0:0:
328,320,56515,1,0,0:0:0:0:
416,312,56722,1,8,0:0:0:0:
456,144,57135,5,0,0:0:0:0:
384,96,57342,1,0,0:0:0:0:
296,104,57549,2,10,B|256:120|256:120|208:112,1,88.000002685547,10|0,0:0|0:0,0:0:0:0:
128,96,57963,2,10,B|83:88|83:88|43:104,1,88.000002685547,2|0,0:0|0:0,0:0:0:0:
96,176,58377,5,8,0:0:0:0:
144,256,58584,1,0,0:0:0:0:
112,336,58791,2,0,P|72:304|56:256,1,88.000002685547
200,320,59204,2,0,P|243:323|283:305,1,88.000002685547,8|0,0:0|0:0,0:0:0:0:
228,236,59618,1,0,0:0:0:0:
228,236,60032,5,8,0:0:0:0:
312,220,60239,1,0,0:0:0:0:
368,288,60446,2,0,P|408:312|464:312,1,88.000002685547
476,232,60860,2,10,P|436:208|380:208,1,88.000002685547,10|0,0:0|0:0,0:0:0:0:
312,220,61273,1,2,0:0:0:0:
232,192,61480,1,8,0:0:0:0:
152,160,61687,1,8,0:0:0:0:
200,328,62101,5,4,0:0:0:0:
280,300,62308,1,0,0:0:0:0:
360,272,62515,2,0,P|392:192|360:112,1,176.000005371094,8|0,0:0|0:0,0:0:0:0:
280,84,63135,1,0,0:0:0:0:
200,56,63342,2,0,P|200:116|228:152,1,88.000002685547,8|0,0:0|0:0,0:0:0:0:
176,216,63756,5,0,0:0:0:0:
88,240,63963,1,0,0:0:0:0:
16,192,64170,2,10,P|4:248|32:308,1,88.000002685547,10|0,0:0|0:0,0:0:0:0:
84,328,64584,2,10,P|138:310|176:256,1,88.000002685547,2|0,0:0|0:0,0:0:0:0:
160,288,64997,5,8,0:0:0:0:
240,328,65204,1,0,0:0:0:0:
328,312,65411,2,0,L|340:224,1,88.000002685547
352,136,65825,5,8,0:0:0:0:
272,176,66032,1,0,0:0:0:0:
184,160,66239,1,0,0:0:0:0:
184,160,66653,5,8,0:0:0:0:
96,144,66860,1,0,0:0:0:0:
16,184,67066,2,0,P|44:216|104:232,1,88.000002685547
85,231,67480,5,8,0:0:0:0:
176,240,67687,1,0,0:0:0:0:
248,288,67894,2,2,P|280:320|296:368,1,88.000002685547,2|8,0:0|0:0,0:0:0:0:
296,216,68308,5,10,0:0:0:0:
296,128,68515,1,2,0:0:0:0:
380,244,68722,5,4,0:0:0:0:
432,173,68928,1,0,0:0:0:0:
380,100,69135,2,0,B|296:128|296:128|256:104|248:56,1,176.000005371094,8|0,0:0|0:0,0:0:0:0:
168,88,69756,1,0,0:0:0:0:
168,88,69963,2,0,P|184:128|236:188,1,88.000002685547,8|0,0:0|0:0,0:0:0:0:
136,216,70377,5,0,0:0:0:0:
88,144,70584,1,0,0:0:0:0:
48,224,70791,2,10,P|56:256|128:304,1,88.000002685547,10|0,0:0|0:0,0:0:0:0:
184,296,71204,2,10,P|222:315|246:352,1,88.000002685547,2|0,0:0|0:0,0:0:0:0:
312,296,71618,5,8,0:0:0:0:
392,256,71825,1,0,0:0:0:0:
328,192,72032,2,0,L|232:176,1,88.000002685547
408,152,72446,2,0,L|504:168,1,88.000002685547,8|0,0:0|0:0,0:0:0:0:
344,88,72860,2,0,B|256:72|256:72|168:88,1,176.000005371094,0|8,0:0|0:0,0:0:0:0:
104,152,73480,5,0,0:0:0:0:
184,192,73687,1,0,0:0:0:0:
112,240,73894,1,0,0:0:0:0:
32,208,74101,6,10,P|32:272|64:312,1,88.000002685547,10|0,0:0|0:0,0:0:0:0:
124,324,74515,2,10,P|179:292|198:244,1,88.000002685547,2|8,0:0|0:0,0:0:0:0:
112,240,74928,1,8,0:0:0:0:
184,192,75135,1,0,0:0:0:0:
208,72,75342,5,4,0:0:0:0:
256,144,75549,1,0,0:0:0:0:
304,216,75756,1,8,0:0:0:0:
304,216,76170,2,0,B|392:184|384:264|472:232,1,176.000005371094,4|8,0:0|0:0,0:0:0:0:
436,152,76791,1,0,0:0:0:0:
352,120,76997,6,8,P|296:128|232:160,1,88.000002685547
184,176,77411,1,2,0:0:0:0:
184,176,77618,1,2,0:0:0:0:
96,152,77825,5,10,0:0:0:0:
45,228,78032,1,8,0:0:0:0:
102,299,78239,2,2,L|187:265,1,88.000002685547
336,220,78653,6,2,L|248:224,1,88.000002685547,6|0,0:0|0:0,0:0:0:0:
256,232,79066,2,2,P|264:272|240:328,1,88.000002685547,10|0,0:0|0:0,0:0:0:0:
336,344,79480,1,0,0:0:0:0:
392,280,79687,1,0,0:0:0:0:
400,192,79894,2,0,P|400:144|440:96,1,88.000002685547,8|0,0:0|0:0,0:0:0:0:
480,168,80308,5,10,0:0:0:0:
472,256,80515,1,8,0:0:0:0:
464,344,80722,1,2,0:0:0:0:
376,120,81135,5,10,0:0:0:0:
384,208,81342,1,8,0:0:0:0:
392,296,81549,1,2,0:0:0:0:
272,72,81963,1,6,0:0:0:0:
256,192,81989,12,8,84860,0:0:0:0:
152,224,85273,5,0,0:0:0:0:
232,248,85480,1,0,0:0:0:0:
296,200,85687,2,0,P|336:184|400:208,1,80,8|0,0:0|0:0,0:0:0:0:
344,264,86101,5,0,0:0:0:0:
296,328,86308,1,0,0:0:0:0:
216,336,86515,1,8,0:0:0:0:
216,336,86928,5,0,0:0:0:0:
142,302,87135,1,0,0:0:0:0:
68,333,87342,6,2,P|64:288|100:232,1,80,10|0,0:0|0:0,0:0:0:0:
103,184,87756,2,2,P|78:153|41:138,1,80,2|0,0:0|0:0,0:0:0:0:
152,243,88170,2,2,P|191:235|222:211,1,80,10|0,0:0|0:0,0:0:0:0:
280,112,88584,5,6,0:0:0:0:
200,88,88791,1,0,0:0:0:0:
152,152,88997,1,8,0:0:0:0:
200,304,89411,5,0,0:0:0:0:
280,328,89618,1,0,0:0:0:0:
328,264,89825,2,0,B|368:264|368:264|400:240,1,80,8|0,0:0|0:0,0:0:0:0:
344,184,90239,5,0,0:0:0:0:
264,160,90446,1,0,0:0:0:0:
216,224,90653,2,2,B|176:224|176:224|144:248,1,80,10|0,0:0|0:0,0:0:0:0:
64,240,91066,2,2,B|79:203|79:203|114:183,1,80,2|0,0:0|0:0,0:0:0:0:
96,104,91480,2,2,B|136:100|136:100|171:120,1,80,10|0,0:0|0:0,0:0:0:0:
240,160,91894,5,0,0:0:0:0:
320,144,92101,1,0,0:0:0:0:
392,184,92308,2,0,B|412:144|392:104|392:104|436:96|464:128,1,160,8|0,0:0|0:0,0:0:0:0:
472,208,92928,1,0,0:0:0:0:
472,208,93135,2,0,P|444:252|392:268,1,80,8|0,0:0|0:0,0:0:0:0:
336,264,93549,5,0,0:0:0:0:
256,264,93756,1,0,0:0:0:0:
176,264,93963,1,10,0:0:0:0:
216,112,94377,6,2,B|240:96|272:96|296:112,1,85.5999973876954,2|0,0:0|0:0,0:0:0:0:
256,176,94791,1,0,0:0:0:0:
256,176,95204,5,4,0:0:0:0:
256,192,100170,12,2,101411,0:0:0:0:
144,240,101825,5,4,0:0:0:0:
160,120,102239,1,0,0:0:0:0:
256,192,102653,1,0,0:0:0:0:
312,200,102860,1,0,0:0:0:0:
368,208,103066,1,0,0:0:0:0:
312,312,103480,5,2,0:0:0:0:
256,320,103686,1,0,0:0:0:0:
200,328,103894,2,2,P|144:328|72:288,1,120.000004577637
168,208,104722,1,2,0:0:0:0:
168,208,105135,6,2,P|176:144|136:88,1,120.000004577637,2|0,0:0|0:0,0:0:0:0:
148,98,105756,1,0,0:0:0:0:
256,80,105963,6,2,P|262:108|250:135,1,60.0000022888184,2|0,0:1|0:1,0:1:0:0:
352,112,106377,2,2,P|351:141|332:164,1,60.0000022888184,2|0,0:1|0:1,0:1:0:0:
280,184,106791,6,2,B|248:216|264:264|264:264|296:288,1,120.000004577637,2|0,0:1|0:1,0:1:0:0:
344,320,107411,1,0,0:0:0:0:
344,320,107618,2,0,P|312:344|272:344,2,60.0000022888184
424,312,108239,5,2,0:0:0:0:
416,232,108446,1,2,0:0:0:0:
456,160,108653,2,0,P|472:120|448:56,1,80
392,112,109066,5,10,0:0:0:0:
400,192,109273,1,10,0:0:0:0:
360,264,109480,2,0,P|344:304|368:368,1,80
272,344,109894,5,2,0:0:0:0:
192,344,110101,1,2,0:0:0:0:
112,344,110308,2,0,P|128:296|180:264,1,80
240,272,110722,5,10,0:0:0:0:
320,272,110929,1,10,0:0:0:0:
400,272,111136,2,0,P|384:224|332:192,1,80
363,204,111549,1,0,0:0:0:0:
272,112,111756,5,4,0:0:0:0:
272,112,112170,2,0,B|232:120|192:104|200:88|160:72|120:80,1,160,8|0,0:0|0:0,0:0:0:0:
144,160,112791,1,0,0:0:0:0:
96,224,112997,2,0,P|80:264|104:324,1,80,8|0,0:0|0:0,0:0:0:0:
220,314,113411,6,2,P|196:282|160:268,1,80,2|0,0:0|0:0,0:0:0:0:
208,200,113825,1,10,0:0:0:0:
256,136,114032,1,0,0:0:0:0:
304,72,114239,2,2,B|336:96|336:96|336:136|336:136|368:160|368:160|368:200,1,160,2|10,0:0|0:0,0:0:0:0:
288,200,114860,5,2,0:0:0:0:
240,264,115066,1,2,0:0:0:0:
168,288,115273,2,0,P|168:240|188:208,1,80
183,213,115687,5,10,0:0:0:0:
109,244,115893,1,10,0:0:0:0:
35,229,116101,2,0,P|59:187|92:169,1,80
160,152,116515,5,2,0:0:0:0:
240,136,116722,1,2,0:0:0:0:
320,120,116928,2,0,P|320:148|292:200,1,80
352,256,117342,5,10,0:0:0:0:
272,240,117549,1,10,0:0:0:0:
192,224,117756,2,0,P|192:252|220:304,1,80
288,320,118170,1,8,0:0:0:0:
368,320,118377,5,0,0:0:0:0:
368,240,118584,1,0,0:0:0:0:
368,160,118791,1,10,0:0:0:0:
208,160,119204,1,10,0:0:0:0:
208,80,119411,5,0,0:0:0:0:
208,80,119515,1,0,0:0:0:0:
208,80,119618,1,0,0:0:0:0:
288,80,119825,1,0,0:0:0:0:
368,80,120032,1,10,0:0:0:0:
368,240,120446,1,10,0:0:0:0:
208,240,120860,5,0,0:0:0:0:
208,240,120963,1,0,0:0:0:0:
208,240,121066,1,0,0:0:0:0:
208,240,121170,1,0,0:0:0:0:
208,240,121273,1,2,0:0:0:0:
32,152,121687,6,0,L|120:136,1,88.000002685547,4|0,0:0|0:0,0:0:0:0:
32,232,122101,2,0,L|120:248,1,88.000002685547,8|0,0:0|0:0,0:0:0:0:
184,192,122515,1,0,0:0:0:0:
272,176,122722,1,0,0:0:0:0:
336,120,122928,1,8,0:0:0:0:
336,120,123342,5,0,0:0:0:0:
305,204,123549,1,0,0:0:0:0:
322,287,123756,2,10,P|368:264|388:224,1,88.000002685547,10|0,0:0|0:0,0:0:0:0:
240,264,124170,2,10,P|194:287|174:327,1,88.000002685547,2|0,0:0|0:0,0:0:0:0:
256,344,124584,5,8,0:0:0:0:
322,287,124791,1,0,0:0:0:0:
305,204,124997,2,0,L|288:104,1,88.000002685547
290,117,125411,2,8,P|256:88|184:88,1,88.000002685547,8|0,0:0|0:0,0:0:0:0:
224,160,125825,1,0,0:0:0:0:
224,160,126239,5,8,0:0:0:0:
160,224,126446,1,0,0:0:0:0:
224,288,126653,1,0,0:0:0:0:
160,352,126860,1,0,0:0:0:0:
160,352,127066,2,2,L|72:352,1,88.000002685547,10|0,0:0|0:0,0:0:0:0:
8,288,127480,1,2,0:0:0:0:
72,224,127687,1,8,0:0:0:0:
8,160,127894,1,8,0:0:0:0:
160,72,128308,5,4,0:0:0:0:
240,112,128515,1,0,0:0:0:0:
320,152,128722,2,0,P|352:204|288:312,1,176.000005371094,8|0,0:0|0:0,0:0:0:0:
264,224,129342,1,0,0:0:0:0:
264,224,129549,2,8,P|224:276|224:328,1,88.000002685547,8|0,0:0|0:0,0:0:0:0:
144,248,129963,5,0,0:0:0:0:
192,176,130170,1,0,0:0:0:0:
104,168,130377,2,10,P|128:116|180:88,1,88.000002685547,10|0,0:0|0:0,0:0:0:0:
279,179,130791,2,10,P|269:136|242:103,1,88.000002685547,2|0,0:0|0:0,0:0:0:0:
192,176,131204,5,8,0:0:0:0:
232,256,131411,1,0,0:0:0:0:
320,264,131618,1,0,0:0:0:0:
320,264,132032,5,8,0:0:0:0:
268,336,132239,1,0,0:0:0:0:
179,330,132446,2,0,P|152:300|144:240,1,88.000002685547
141,254,132860,5,8,0:0:0:0:
144,168,133066,1,0,0:0:0:0:
104,88,133273,2,0,B|148:68|192:92|192:92|232:80|232:80|288:88,1,176.000005371094,0|8,0:0|0:0,0:0:0:0:
240,168,133894,5,0,0:0:0:0:
328,160,134101,2,2,P|360:112|360:52,1,88.000002685547,2|8,0:0|0:0,0:0:0:0:
408,192,134515,5,10,0:0:0:0:
472,256,134722,1,2,0:0:0:0:
328,234,134928,5,4,0:0:0:0:
343,324,135135,1,0,0:0:0:0:
432,337,135342,2,0,B|416:252|416:252|328:234,1,176.000005371094,8|0,0:0|0:0,0:0:0:0:
256,192,135963,1,0,0:0:0:0:
184,150,136170,2,0,B|96:132|96:132,1,88.000002685547,8|0,0:0|0:0,0:0:0:0:
32,192,136584,5,0,0:0:0:0:
97,251,136791,1,0,0:0:0:0:
97,251,136997,2,2,B|96:252|184:234,1,88.000002685547,10|0,0:0|0:0,0:0:0:0:
184,352,137411,2,2,B|185:352|97:334,1,88.000002685547,2|0,0:0|0:0,0:0:0:0:
248,292,137825,5,8,0:0:0:0:
328,264,138032,1,0,0:0:0:0:
360,184,138239,2,0,P|408:144|416:80,1,88.000002685547
336,103,138653,2,0,P|277:82|217:107,1,88.000002685547,8|0,0:0|0:0,0:0:0:0:
278,164,139066,1,0,0:0:0:0:
278,164,139480,6,0,P|288:225|340:264,1,88.000002685547,8|0,0:0|0:0,0:0:0:0:
224,272,139894,1,0,0:0:0:0:
200,192,140101,1,0,0:0:0:0:
120,219,140308,6,10,P|143:256|146:300,1,88.000002685547,10|0,0:0|0:0,0:0:0:0:
60,284,140722,2,10,P|36:247|34:203,1,88.000002685547,2|8,0:0|0:0,0:0:0:0:
88,136,141135,1,8,0:0:0:0:
64,56,141342,1,0,0:0:0:0:
176,152,141549,5,4,0:0:0:0:
152,72,141756,1,0,0:0:0:0:
240,88,141963,1,8,0:0:0:0:
288,248,142377,2,0,B|376:216|368:296|456:264,1,176.000005371094,4|8,0:0|0:0,0:0:0:0:
420,184,142997,1,0,0:0:0:0:
336,152,143204,6,8,P|280:160|216:192,1,88.000002685547
176,216,143618,1,2,0:0:0:0:
176,216,143825,1,2,0:0:0:0:
216,296,144032,5,10,0:0:0:0:
136,336,144239,1,8,0:0:0:0:
96,256,144446,2,2,P|88:208|112:152,1,88.000002685547
256,176,144860,6,2,P|264:224|240:280,1,88.000002685547,6|0,0:0|0:0,0:0:0:0:
176,216,145273,2,2,L|179:112,1,88.000002685547,10|0,0:0|0:0,0:0:0:0:
256,88,145687,1,0,0:0:0:0:
328,136,145894,1,0,0:0:0:0:
408,96,146101,2,0,P|416:152|400:192,1,88.000002685547,8|0,0:0|0:0,0:0:0:0:
456,256,146515,5,10,0:0:0:0:
368,272,146722,1,8,0:0:0:0:
320,200,146928,1,2,0:0:0:0:
144,208,147342,5,10,0:0:0:0:
128,120,147549,1,8,0:0:0:0:
200,72,147755,1,2,0:0:0:0:
320,200,148170,5,10,0:0:0:0:
336,272,148377,1,8,0:0:0:0:
280,320,148584,6,0,B|224:360|200:304|144:344,1,143.999995605469
72,328,149204,1,0,0:0:0:0:
32,264,149411,2,2,P|32:224|72:176,1,71.9999978027344,2|10,0:0|0:0,2:0:0:0:
56,184,149722,1,8,0:0:0:0:
64,176,149825,5,8,0:0:0:0:
120,128,150032,1,8,0:0:0:0:
176,80,150239,6,0,P|192:112|180:172,1,71.9999978027344
168,216,150653,2,0,P|137:232|117:263,1,71.9999978027344
240,200,151066,1,2,0:0:0:0:
312,224,151273,1,2,0:0:0:0:
336,336,151480,5,8,0:0:0:0:
264,312,151687,1,8,0:0:0:0:
192,288,151894,6,0,P|116:272|96:188,1,143.999995605469
88,144,152515,1,0,0:0:0:0:
160,144,152722,1,2,0:0:0:0:
168,216,152928,1,10,0:0:0:0:
168,216,153032,1,8,0:0:0:0:
168,216,153135,6,2,P|216:192|232:152,1,80,2|0,0:0|0:0,0:0:0:0:
217,280,153549,2,2,P|252:260|280:232,1,80,10|0,0:0|0:0,0:0:0:0:
328,296,153963,1,2,0:0:0:0:
264,344,154170,1,0,0:0:0:0:
336,376,154377,2,10,P|368:368|400:336,1,80,10|0,0:0|0:0,0:0:0:0:
400,256,154791,5,0,0:0:0:0:
400,176,154997,1,0,0:0:0:0:
400,96,155204,2,8,L|320:96,1,80,8|0,0:0|0:0,0:0:0:0:
184,152,155618,2,8,L|264:152,1,80,0|0,0:0|0:0,0:0:0:0:
320,208,156032,1,10,0:0:0:0:
264,264,156239,1,2,0:0:0:0:
184,264,156446,5,0,0:0:0:0:
104,264,156653,1,0,0:0:0:0:
48,208,156860,6,0,P|24:264|40:312,1,80,8|0,0:0|0:0,0:0:0:0:
104,152,157273,1,0,0:0:0:0:
160,96,157480,1,0,0:0:0:0:
216,152,157687,1,8,0:0:0:0:
272,96,157894,1,0,0:0:0:0:
384,96,158101,6,0,P|400:144|440:176,1,83.9999974365235,4|0,0:0|0:0,0:0:0:0:
496,208,158515,1,8,0:0:0:0:
320,160,158928,5,4,0:0:0:0:
360,232,159135,1,0,0:0:0:0:
432,272,159342,1,8,0:0:0:0:
256,224,159756,5,6,0:0:0:0:
216,296,159963,1,0,0:0:0:0:
144,336,160170,2,2,P|136:284|156:240,1,83.9999974365235,10|0,0:0|0:0,0:0:0:0:
32,216,160584,5,2,0:0:0:0:
108,176,160791,1,0,0:0:0:0:
108,176,160894,1,0,0:0:0:0:
108,176,160997,2,2,P|160:168|204:188,1,83.9999974365235,10|0,0:0|2:0,0:0:0:0:
256,88,161411,5,6,0:0:0:0:
336,96,161618,1,0,0:0:0:0:
323,177,161825,2,0,P|363:167|404:176,1,83.9999974365235,8|0,0:0|0:0,0:0:0:0:
364,256,162239,5,0,0:0:0:0:
280,256,162446,1,0,0:0:0:0:
240,184,162653,2,0,P|208:216|204:288,1,83.9999974365235,8|0,0:0|0:0,0:0:0:0:
200,112,163066,5,0,0:0:0:0:
116,112,163273,1,0,0:0:0:0:
40,152,163480,2,0,B|0:224|88:240|40:312,1,167.999994873047,8|0,0:0|0:0,0:0:0:0:
132,267,164101,1,8,0:0:0:0:
132,267,164308,2,0,P|125:226|108:188,1,83.9999974365235,8|0,0:0|0:0,0:0:0:0:
200,312,164722,6,0,P|241:305|279:288,1,83.9999974365235,4|0,0:0|0:0,0:0:0:0:
344,232,165135,1,8,0:0:0:0:
200,72,165549,6,0,P|241:79|279:96,1,83.9999974365235,4|0,0:0|0:0,0:0:0:0:
344,152,165963,2,0,P|382:169|423:176,1,83.9999974365235,8|0,0:0|0:0,0:0:0:0:
504,168,166377,1,0,0:0:0:0:
408,304,166791,5,10,0:0:0:0:
344,152,167204,1,2,0:0:0:0:
256,152,167411,1,8,0:0:0:0:
168,152,167618,2,10,P|176:192|224:232,1,83.9999974365235,10|0,0:0|0:0,0:0:0:0:
176,368,168032,6,6,B|160:344|160:312|176:288|176:288|248:360|248:360|264:336|264:304|248:280,1,271.200000827637,6|0,0:0|0:0,0:0:0:0:
336,280,168860,1,0,0:0:0:0:
336,360,169066,1,0,0:0:0:0:
424,360,169273,1,8,0:0:0:0:
424,192,169687,6,10,B|360:192|360:192|360:136|360:136|408:128|408:128|360:120|360:120|360:64|360:64|424:64,1,335.999989746094,6|0,1:0|1:0,1:0:0:0:
480,128,170722,1,0,0:0:0:0:
504,208,170928,2,0,P|496:232|440:272,1,83.9999974365235,8|0,0:0|0:0,0:0:0:0:
320,328,171342,6,6,B|320:200|320:200|344:192|400:208|400:272|336:264,1,251.999992309571,6|0,0:0|0:0,0:0:0:0:
240,328,172170,2,0,L|240:244,1,83.9999974365235
240,160,172584,1,8,0:0:0:0:
152,160,172791,1,0,0:0:0:0:
64,160,172997,5,10,0:0:0:0:
256,304,173411,1,10,0:0:0:0:
448,160,173825,1,10,0:0:0:0:
360,160,174031,1,2,0:0:0:0:
272,160,174239,6,10,L|272:72,1,83.9999974365235,10|0,0:0|0:0,0:0:0:0:
272,72,174653,2,2,B|236:88|236:88|196:76|196:76|160:88|160:88|140:80|140:80|124:88|124:88|104:80|104:80|88:88|88:88|68:80|68:80|48:88|48:88|36:104|36:104|48:120|48:120|44:128|44:128|48:136|48:136|44:148|44:148|48:156|48:156|44:164|44:164|48:172|48:172|44:184|44:184|48:192,1,360.000013732911,0|8,2:0|2:3,0:0:0:0:
196,168,176308,5,4,0:0:0:0:
208,128,182722,5,4,0:0:0:0:
264,136,182928,5,4,0:0:0:0:
320,144,183135,1,0,0:0:0:0:
376,152,183342,2,0,P|384:216|384:216,1,60.0000022888184
392,272,183756,5,0,0:0:0:0:
336,280,183963,1,0,0:0:0:0:
280,288,184170,2,0,P|272:352|272:352,1,60.0000022888184
272,347,184584,2,0,P|208:355|208:355,1,60.0000022888184
176,312,184997,6,2,P|112:304|112:304,1,60.0000022888184,2|0,0:0|0:0,0:0:0:0:
120,248,185411,1,2,0:0:0:0:
120,184,185618,1,0,0:0:0:0:
120,120,185825,1,2,0:0:0:0:
120,120,186239,6,2,B|184:104|176:144|240:128,1,120.000004577637,2|0,0:0|0:0,0:0:0:0:
296,112,186860,1,0,0:0:0:0:
352,96,187066,6,2,P|408:120|416:176,1,120.000004577637,2|0,0:0|0:0,0:0:0:0:
392,232,187687,1,0,0:0:0:0:
384,240,187894,5,2,0:0:0:0:
256,192,187920,12,0,188722,0:0:0:0:
224,240,188928,5,4,0:0:0:0:
224,240,189135,2,0,P|192:232|152:232,1,60.0000022888184
80,256,189549,6,0,P|80:208|104:168,1,83.9999974365235,4|0,0:0|0:0,0:0:0:0:
160,128,189963,1,8,0:3:0:0:
232,80,190170,1,0,0:0:0:0:
232,80,190377,2,0,P|280:56|304:8,1,83.9999974365235,8|0,0:3|0:0,0:0:0:0:
272,152,190791,2,0,P|224:176|200:224,1,83.9999974365235,8|0,0:3|0:0,0:0:0:0:
280,232,191204,5,8,0:3:0:0:
360,256,191411,1,0,0:0:0:0:
440,224,191618,1,8,0:3:0:0:
440,224,192032,2,8,B|512:184|416:120|488:80,1,167.999994873047,8|8,0:3|0:3,0:3:0:0:
400,72,192653,1,8,0:0:0:0:
400,72,192860,6,0,P|388:112|396:168,1,83.9999974365235,8|0,0:3|0:0,0:0:0:0:
312,176,193273,2,0,P|288:141|278:100,1,83.9999974365235,8|0,0:3|0:0,0:0:0:0:
186,187,193687,1,8,0:3:0:0:
252,234,193894,1,0,0:0:0:0:
227,311,194101,1,8,0:3:0:0:
145,311,194308,1,0,0:0:0:0:
120,234,194515,6,0,P|88:256|64:320,1,83.9999974365235,8|0,0:3|0:0,0:0:0:0:
136,152,194928,2,0,P|97:155|44:198,1,83.9999974365235,8|0,0:3|0:0,0:0:0:0:
32,96,195342,1,8,0:3:0:0:
112,72,195549,1,8,0:0:0:0:
192,96,195756,1,8,0:3:0:0:
272,72,195963,1,8,0:0:0:0:
192,208,196170,5,6,0:0:0:0:
192,208,196584,2,0,L|272:232,1,83.9999974365235,8|0,0:3|0:0,0:0:0:0:
352,256,196997,1,8,0:3:0:0:
432,280,197204,1,0,0:0:0:0:
432,280,197411,1,8,0:3:0:0:
320,88,197825,5,6,0:0:0:0:
320,88,198239,2,0,L|240:112,1,83.9999974365235,8|0,0:3|0:0,0:0:0:0:
160,136,198652,1,8,0:3:0:0:
160,136,198859,1,0,0:0:0:0:
80,160,199066,1,8,0:3:0:0:
0,184,199273,1,8,0:0:0:0:
104,240,199480,6,2,P|128:280|176:304,1,83.9999974365235,6|0,0:0|0:0,0:0:0:0:
190,214,199894,2,0,P|228:196|270:198,1,83.9999974365235,8|0,0:3|0:0,0:0:0:0:
269,197,200308,1,8,0:3:0:0:
248,280,200515,1,0,0:0:0:0:
328,304,200722,1,8,0:3:0:0:
349,221,200929,1,0,0:0:0:0:
216,96,201342,5,2,0:0:0:0:
144,48,201549,1,2,0:0:0:0:
96,120,201756,1,2,0:0:0:0:
168,168,201963,1,2,0:0:0:0:
168,176,202377,5,8,0:3:0:0:
296,112,202791,6,0,L|312:208,1,88.000002685547,4|0,0:0|0:0,0:0:0:0:
216,112,203205,2,0,L|200:208,1,88.000002685547,8|0,0:0|0:0,0:0:0:0:
256,272,203619,1,0,0:0:0:0:
184,320,203826,1,0,0:0:0:0:
96,312,204033,1,8,0:0:0:0:
56,144,204446,5,0,0:0:0:0:
128,96,204653,1,0,0:0:0:0:
216,104,204860,2,10,B|256:120|256:120|304:112,1,88.000002685547,10|0,0:0|0:0,0:0:0:0:
384,96,205274,2,10,B|429:88|429:88|469:104,1,88.000002685547,2|0,0:0|0:0,0:0:0:0:
416,176,205688,5,8,0:0:0:0:
368,256,205895,1,0,0:0:0:0:
400,336,206102,2,0,P|440:304|456:256,1,88.000002685547
312,320,206515,2,0,P|269:323|229:305,1,88.000002685547,8|0,0:0|0:0,0:0:0:0:
284,236,206929,1,0,0:0:0:0:
284,236,207343,5,8,0:0:0:0:
200,220,207550,1,0,0:0:0:0:
144,288,207757,2,0,P|104:312|48:312,1,88.000002685547
36,232,208171,2,10,P|76:208|132:208,1,88.000002685547,10|0,0:0|0:0,0:0:0:0:
200,220,208584,1,2,0:0:0:0:
280,192,208791,1,8,0:0:0:0:
360,160,208998,1,8,0:0:0:0:
312,328,209412,5,4,0:0:0:0:
232,300,209619,1,0,0:0:0:0:
152,272,209826,2,0,P|120:192|152:112,1,176.000005371094,8|0,0:0|0:0,0:0:0:0:
232,84,210446,1,0,0:0:0:0:
312,56,210653,2,0,P|312:116|284:152,1,88.000002685547,8|0,0:0|0:0,0:0:0:0:
336,216,211067,5,0,0:0:0:0:
424,240,211274,1,0,0:0:0:0:
496,192,211481,2,10,P|508:248|480:308,1,88.000002685547,10|0,0:0|0:0,0:0:0:0:
428,328,211895,2,10,P|374:310|336:256,1,88.000002685547,2|0,0:0|0:0,0:0:0:0:
352,288,212308,5,8,0:0:0:0:
272,328,212515,1,0,0:0:0:0:
184,312,212722,2,0,L|172:224,1,88.000002685547
160,136,213136,5,8,0:0:0:0:
240,176,213343,1,0,0:0:0:0:
328,160,213550,1,0,0:0:0:0:
328,160,213964,5,8,0:0:0:0:
416,144,214171,1,0,0:0:0:0:
496,184,214377,2,0,P|468:216|408:232,1,88.000002685547
427,231,214791,5,8,0:0:0:0:
336,240,214998,1,0,0:0:0:0:
264,288,215205,2,2,P|232:320|216:368,1,88.000002685547,2|8,0:0|0:0,0:0:0:0:
216,216,215619,5,10,0:0:0:0:
216,128,215826,1,2,0:0:0:0:
132,244,216033,5,4,0:0:0:0:
80,173,216239,1,0,0:0:0:0:
132,100,216446,2,0,B|216:128|216:128|256:104|264:56,1,176.000005371094,8|0,0:0|0:0,0:0:0:0:
344,88,217067,1,0,0:0:0:0:
344,88,217274,2,0,P|328:128|276:188,1,88.000002685547,8|0,0:0|0:0,0:0:0:0:
376,216,217688,5,0,0:0:0:0:
424,144,217895,1,0,0:0:0:0:
424,144,218101,2,10,P|456:184|456:248,1,88.000002685547,10|0,0:0|0:0,0:0:0:0:
414,293,218515,2,10,P|363:300|307:268,1,88.000002685547,2|0,0:0|0:0,0:0:0:0:
376,216,218928,5,8,0:0:0:0:
304,168,219135,1,0,0:0:0:0:
232,120,219342,2,0,P|272:88|336:88,1,88.000002685547
176,184,219756,2,8,P|136:216|72:216,1,88.000002685547,8|0,0:0|0:0,0:0:0:0:
104,136,220170,2,0,L|192:304,1,176.000005371094,0|8,0:0|0:0,0:0:0:0:
185,291,220791,5,0,0:0:0:0:
264,248,220997,1,0,0:0:0:0:
224,168,221204,1,0,0:0:0:0:
304,128,221411,6,10,L|344:208,1,88.000002685547,10|0,0:0|0:0,0:0:0:0:
416,256,221825,2,2,B|384:288|384:288|328:296,1,88.000002685547,2|8,0:0|0:0,0:0:0:0:
256,304,222239,1,8,0:0:0:0:
168,312,222446,1,0,0:0:0:0:
72,232,222653,5,4,0:0:0:0:
160,224,222860,1,0,0:0:0:0:
248,216,223066,1,8,0:0:0:0:
248,216,223480,2,8,B|240:168|200:144|200:144|216:48,1,176.000005371094,4|8,0:0|0:0,0:0:0:0:
288,112,224101,1,0,0:0:0:0:
376,120,224308,6,8,P|424:112|488:144,1,88.000002685547
416,200,224722,1,2,0:0:0:0:
408,288,224928,1,2,0:0:0:0:
448,368,225135,6,10,P|400:376|336:344,1,88.000002685547,10|8,0:0|0:0,0:0:0:0:
336,240,225549,1,2,0:0:0:0:
248,232,225756,1,2,0:0:0:0:
208,352,225963,6,10,P|160:360|96:328,1,88.000002685547,6|0,0:0|0:0,0:0:0:0:
168,272,226377,1,10,0:0:0:0:
176,184,226584,1,0,0:0:0:0:
136,104,226791,6,0,P|184:96|248:128,1,88.000002685547
296,152,227204,1,8,0:0:0:0:
296,152,227411,1,0,0:0:0:0:
320,240,227618,5,10,0:0:0:0:
272,312,227825,1,8,0:0:0:0:
184,328,228032,1,2,0:0:0:0:
192,48,228446,5,10,0:0:0:0:
240,120,228653,1,8,0:0:0:0:
328,136,228860,1,2,0:0:0:0:
184,328,229273,5,6,0:0:0:0:
256,192,229300,12,8,232171,0:0:0:0:
360,224,232584,5,0,0:0:0:0:
280,248,232791,1,0,0:0:0:0:
216,200,232998,2,0,P|176:184|112:208,1,80,8|0,0:0|0:0,0:0:0:0:
168,264,233412,5,0,0:0:0:0:
216,328,233619,1,0,0:0:0:0:
296,336,233826,1,8,0:0:0:0:
296,336,234239,5,0,0:0:0:0:
370,302,234446,1,0,0:0:0:0:
444,333,234653,6,2,P|448:288|412:232,1,80,10|0,0:0|0:0,0:0:0:0:
409,184,235067,2,2,P|434:153|471:138,1,80,2|0,0:0|0:0,0:0:0:0:
360,243,235481,2,2,P|321:235|290:211,1,80,10|0,0:0|0:0,0:0:0:0:
232,112,235895,5,6,0:0:0:0:
312,88,236102,1,0,0:0:0:0:
360,152,236308,2,8,L|288:312,1,160,8|0,0:0|0:0,0:0:0:0:
256,368,236928,1,0,0:0:0:0:
256,368,237135,2,0,P|224:336|216:292,1,80,8|0,0:0|0:0,0:0:0:0:
208,224,237549,5,0,0:0:0:0:
128,224,237756,1,0,0:0:0:0:
48,224,237963,2,2,L|48:144,1,80,10|0,0:0|0:0,0:0:0:0:
128,144,238377,1,2,0:1:0:0:
208,144,238584,1,0,0:0:0:0:
288,144,238791,1,10,0:0:0:0:
288,144,239204,5,0,0:0:0:0:
368,168,239411,1,0,0:0:0:0:
408,232,239618,2,0,P|416:288|392:336,1,80,8|0,0:0|0:0,0:0:0:0:
336,272,240032,5,0,0:0:0:0:
256,248,240239,1,0,0:0:0:0:
216,184,240446,2,0,P|208:128|232:80,1,80,8|0,0:0|0:0,0:0:0:0:
288,144,240860,5,0,0:0:0:0:
368,120,241067,1,0,0:0:0:0:
448,96,241273,1,10,0:0:0:0:
368,240,241687,5,2,0:0:0:0:
288,216,241894,1,4,0:2:0:0:
208,192,242101,2,0,P|208:240|232:280,1,80,8|0,0:0|0:0,0:0:0:0:
184,112,242515,5,4,0:0:0:0:
104,88,242722,1,0,0:0:0:0:
40,136,242928,1,8,0:0:0:0:
136,264,243342,5,0,0:0:0:0:
216,288,243549,1,0,0:0:0:0:
280,240,243756,2,0,P|320:248|360:232,1,80,8|0,0:0|0:0,0:0:0:0:
312,168,244170,5,0,0:0:0:0:
232,192,244377,1,0,0:0:0:0:
168,144,244584,2,10,P|128:152|88:136,1,80,10|0,0:0|0:0,0:0:0:0:
44,204,244997,2,10,P|17:173|10:130,1,80,2|0,0:0|0:0,0:0:0:0:
44,288,245411,2,10,P|82:280|112:254,1,80,10|0,0:0|0:0,0:0:0:0:
184,288,245825,5,2,0:0:0:0:
256,320,246032,1,0,0:0:0:0:
328,352,246239,2,0,L|416:352,1,80,8|0,0:0|0:0,0:0:0:0:
408,272,246653,5,0,0:0:0:0:
336,240,246860,1,0,0:0:0:0:
264,208,247067,2,0,L|176:208,1,80,8|0,0:0|0:0,0:0:0:0:
112,176,247480,5,0,0:0:0:0:
40,144,247687,1,0,0:0:0:0:
40,144,247894,2,10,P|68:112|120:96,1,80,10|0,0:0|0:0,0:0:0:0:
175,129,248308,2,10,P|188:169|176:222,1,80,2|0,0:0|0:0,0:0:0:0:
264,216,248722,1,8,0:0:0:0:
128,336,249135,5,4,0:0:0:0:
120,256,249342,1,0,0:0:0:0:
112,176,249549,2,0,L|272:152,1,160,8|0,0:0|0:0,0:0:0:0:
352,168,250170,1,0,0:0:0:0:
424,208,250377,2,0,P|464:224|516:212,1,80,8|0,0:0|0:0,0:0:0:0:
444,72,250791,6,0,P|467:104|472:144,1,80
392,132,251204,2,10,P|369:100|364:60,1,80,10|0,0:0|0:0,0:0:0:0:
280,64,251618,1,0,0:0:0:0:
208,104,251825,1,0,0:0:0:0:
160,168,252032,1,10,0:0:0:0:
160,168,252446,6,2,B|132:144|128:112|128:112|80:96|40:136,1,160,0|8,0:0|0:0,0:0:0:0:
88,200,253066,1,0,0:0:0:0:
32,256,253273,2,2,P|56:272|120:272,1,80,2|0,0:0|0:0,0:0:0:0:
184,256,253687,2,0,P|223:256|257:276,1,80,8|0,0:0|0:0,0:0:0:0:
200,336,254101,6,2,L|248:176,1,160,2|8,0:0|0:0,0:0:0:0:
245,182,254722,1,0,0:0:0:0:
268,108,254928,1,0,0:0:0:0:
345,107,255135,1,0,0:0:0:0:
369,180,255342,6,2,B|448:192|448:192|472:204|472:204|472:232|472:232|496:244,1,160,0|4,1:0|0:0,0:0:0:0:
464,296,255963,5,0,0:0:0:0:
408,312,256170,1,0,0:0:0:0:
352,296,256377,2,0,B|328:320|328:320|312:320|312:320|296:320|288:312,2,60.0000022888184
312,248,256997,5,0,0:0:0:0:
256,232,257204,1,0,0:0:0:0:
200,248,257411,1,0,0:0:0:0:
160,296,257618,2,0,B|184:320|184:320|200:320|200:320|216:320|224:312,2,60.0000022888184
120,256,258239,6,0,B|72:208,1,60.0000022888184
120,128,258653,2,0,B|72:176,1,60.0000022888184
136,192,259066,5,2,0:0:0:0:
200,192,259273,1,0,0:0:0:0:
264,192,259480,1,0,0:0:0:0:
328,192,259687,2,2,L|328:256,1,60.0000022888184,2|0,0:0|0:0,0:0:0:0:
328,312,260101,1,0,0:0:0:0:
384,320,260308,6,2,L|400:258,1,60.0000022888184,2|0,0:0|0:0,0:0:0:0:
415,204,260722,1,0,0:0:0:0:
368,160,260928,2,2,L|322:114,1,60.0000022888184,2|0,0:0|0:0,0:0:0:0:
283,75,261342,1,0,0:0:0:0:
283,75,261549,5,2,0:0:0:0:
229,192,261963,1,2,0:0:0:0:
283,309,262377,5,0,0:0:0:0:
224,312,262584,1,0,0:0:0:0:
160,312,262791,1,0,0:0:0:0:
96,312,262997,2,0,L|96:248,1,60.0000022888184
96,192,263411,1,0,0:0:0:0:
152,192,263618,6,0,L|216:192,1,60.0000022888184
272,192,264032,1,0,0:0:0:0:
208,288,264239,6,0,L|269:271,1,60.0000022888184
323,256,264653,1,0,0:0:0:0:
328,192,264860,6,0,L|389:209,1,60.0000022888184
443,224,265274,1,0,0:0:0:0:
443,224,265687,6,2,L|460:163,1,60.0000022888184,2|0,0:0|0:0,0:0:0:0:
472,112,266101,1,0,0:0:0:0:
416,96,266308,2,2,L|355:79,1,60.0000022888184,2|0,0:0|0:0,0:0:0:0:
304,64,266722,1,0,0:0:0:0:
288,120,266928,6,2,L|271:181,1,60.0000022888184,2|0,0:0|0:0,0:0:0:0:
256,232,267342,1,0,0:0:0:0:
183,232,267549,6,2,L|203:301,1,71.9999978027344,2|0,0:0|0:0,0:0:0:0:
224,368,267963,1,0,0:0:0:0:
224,368,268170,2,2,B|260:352|260:352|300:368|300:368|336:352|336:352|372:368|372:368|384:352|384:352|372:336|372:336|384:320|384:320|372:304|372:304|384:288|384:288|372:272|372:272|384:256|384:256,1,300,2|0,2:0|2:0,0:0:0:0:
