osu file format v14

[General]
AudioFilename: NeptuneSagashite.mp3
AudioLeadIn: 0
PreviewTime: 46807
Countdown: 0
SampleSet: Soft
StackLeniency: 0.7
Mode: 2
LetterboxInBreaks: 0
WidescreenStoryboard: 0

[Editor]
Bookmarks: 7910,21152,34186,47634,74117
DistanceSpacing: 0.7
BeatDivisor: 4
GridSize: 16
TimelineZoom: 2.4

[Metadata]
Title:Neptune*Sagashite
TitleUnicode:ネプテューヌ☆サガして
Artist:Afilia Saga
ArtistUnicode:アフィリア・サーガ
Creator:LordRaika
Version:Salad
Source:Choujigen Game Neptune The Animation
Tags:Hyperdimension Neptunia Ending 超次元ゲイム ネプテューヌ Kosuke Oshima Momoi Haruko East
BeatmapID:547220
BeatmapSetID:236214

[Difficulty]
HPDrainRate:4
CircleSize:3
OverallDifficulty:6.5
ApproachRate:6.5
SliderMultiplier:1.9
SliderTickRate:1

[Events]
//Background and Video events
0,0,"HyperdimensionNeptunia2.jpg",0,0
Video,0,"NeptuneSagashiteZ.avi"
//Break Periods
//Storyboard Layer 0 (Background)
//Storyboard Layer 1 (Fail)
//Storyboard Layer 2 (Pass)
//Storyboard Layer 3 (Foreground)
//Storyboard Sound Samples
Sample,8531,0,"drum-hitfinish.wav",84
Sample,9358,0,"drum-hitfinish.wav",84
Sample,11841,0,"drum-hitfinish.wav",84
Sample,12669,0,"drum-hitfinish.wav",84
Sample,13496,0,"drum-hitfinish.wav",84
Sample,14531,0,"drum-hitwhistle.wav",84
Sample,15152,0,"drum-hitfinish.wav",84
Sample,15979,0,"drum-hitfinish.wav",84
Sample,17634,0,"drum-hitfinish.wav",84
Sample,17841,0,"normal-hitwhistle.wav",42
Sample,18048,0,"drum-hitfinish.wav",84
Sample,18462,0,"drum-hitfinish.wav",84
Sample,18876,0,"drum-hitfinish.wav",84
Sample,19290,0,"drum-hitfinish.wav",50
Sample,33152,0,"soft-hitclap.wav",23
Sample,39152,0,"drum-hitfinish.wav",67
Sample,40393,0,"drum-hitfinish.wav",67
Sample,46910,0,"LR_Kick Low Strong Beat.wav",33
Sample,47117,0,"LR_Kick Low Strong Beat.wav",33
Sample,48255,0,"drum-hitfinish.wav",50
Sample,49083,0,"drum-hitfinish.wav",50
Sample,50324,0,"drum-hitfinish.wav",50
Sample,51979,0,"drum-hitfinish.wav",90
Sample,56531,0,"drum-hitfinish.wav",50
Sample,56945,0,"drum-hitfinish.wav",50
Sample,57772,0,"drum-hitfinish.wav",50
Sample,58600,0,"drum-hitfinish.wav",50
Sample,59427,0,"drum-hitfinish.wav",50
Sample,60876,0,"drum-hitwhistle.wav",90
Sample,61496,0,"drum-hitfinish.wav",50
Sample,62324,0,"drum-hitfinish.wav",50
Sample,63565,0,"drum-hitfinish.wav",90
Sample,65221,0,"drum-hitfinish.wav",90
Sample,67290,0,"drum-hitfinish.wav",90
Sample,67703,0,"drum-hitfinish.wav",90
Sample,68117,0,"drum-hitfinish.wav",90
Sample,69152,0,"drum-hitwhistle.wav",90
Sample,69358,0,"drum-hitwhistle.wav",90
Sample,69979,0,"drum-hitwhistle.wav",90
Sample,70186,0,"drum-hitwhistle.wav",90
Sample,70807,0,"drum-hitwhistle.wav",90
Sample,87152,0,"LR3_FXDSRPF - R.wav",50
Sample,87221,0,"LR3_FXDSRPF - L.wav",50
Sample,87290,0,"LR3_FXDSRPF - R.wav",50
Sample,87358,0,"LR3_FXDSRPF - L.wav",50
Sample,87565,0,"LR3_FXDSRPF - R.wav",50
Sample,87634,0,"LR3_FXDSRPF - L.wav",50
Sample,87703,0,"LR3_FXDSRPF - R.wav",50
Sample,87979,0,"LR3_FXDSRPF - L.wav",50
Sample,88048,0,"LR3_FXDSRPF - R.wav",50
Sample,88117,0,"LR3_FXDSRPF - L.wav",50

[TimingPoints]
1290,413.793103448276,4,2,1,69,1,0
4393,-100,4,3,1,42,0,0
4496,-100,4,3,1,69,0,0
7290,-100,4,2,1,50,0,0
7496,-100,4,2,1,93,0,0
7910,-100,4,3,1,5,0,1
8014,-100,4,3,1,50,0,0
17117,-100,4,3,1,69,0,0
17324,-100,4,3,1,50,0,0
21565,-100,4,2,1,46,0,0
26117,-166.666666666667,4,2,1,46,0,0
27358,-74.0740740740741,4,2,1,93,0,0
27462,-100,4,2,1,46,0,0
33876,-66.2251655629139,4,2,1,93,0,0
34083,-100,4,3,1,98,0,0
47634,-100,4,3,1,50,0,1
60772,-100,4,3,1,50,0,0
60876,-100,4,3,1,50,0,1
70083,-100,4,3,1,45,0,1
70290,-100,4,3,1,50,0,1
70807,-100,4,3,1,50,0,0
71117,-100,4,2,0,45,0,0
72358,-100,4,3,1,50,0,0
72669,-100,4,2,0,42,0,0
74324,-100,4,3,1,50,0,0
80634,-100,4,3,1,25,0,0
84152,-100,4,3,1,50,0,0
87910,-100,4,2,1,5,0,0

[Colours]
Combo1 : 181,181,181
Combo2 : 5,143,245
Combo3 : 255,89,255
Combo4 : 20,236,15

[HitObjects]
112,320,1290,5,8,0:2:0:0:
176,272,1496,1,8,0:2:0:0:
112,224,1703,1,8,0:2:0:0:
400,320,2117,1,8,0:2:0:0:
336,272,2323,1,8,0:2:0:0:
400,224,2530,1,8,0:2:0:0:
96,208,2945,5,8,0:2:0:0:
144,160,3151,1,8,0:2:0:0:
192,104,3358,2,0,L|96:104,1,95,8|2,0:2|0:1,0:0:0:0:
192,32,3772,1,8,0:2:0:0:
384,32,4186,2,0,L|288:32,1,95,2|8,0:1|0:2,0:0:0:0:
160,336,4600,5,8,0:2:0:0:
112,288,4806,1,8,0:2:0:0:
80,240,5013,1,8,0:2:0:0:
288,336,5427,1,8,0:2:0:0:
256,288,5633,1,8,0:2:0:0:
224,240,5840,1,8,0:2:0:0:
434,328,6255,5,8,0:2:0:0:
386,280,6461,1,8,0:2:0:0:
354,232,6669,1,8,0:2:0:0:
174,41,7083,1,8,0:2:0:0:
299,43,7290,2,0,L|299:187,1,142.5,4|4,0:3|0:1,0:0:0:0:
325,226,7703,1,0,0:0:0:99:LR3_FXDSRPF - R.wav
358,268,7772,1,0,0:0:0:99:LR3_FXDSRPF - L.wav
382,305,7841,1,0,0:0:0:99:LR3_FXDSRPF - R.wav
408,336,7910,5,0,0:0:0:80:LR3_Kick WBDS.wav
472,272,8117,1,4,0:0:0:0:
408,208,8324,1,8,0:0:0:0:
214,161,8738,1,2,3:0:0:0:
134,97,8945,1,4,0:0:0:0:
214,33,9152,1,8,0:0:0:0:
416,240,9565,5,2,3:0:0:0:
512,112,9772,1,4,0:0:0:0:
416,48,9979,2,0,L|304:48,1,95,8|4,0:0|0:0,0:0:0:0:
416,144,10393,1,2,0:0:0:0:
512,208,10600,1,4,0:0:0:0:
416,336,10807,1,10,0:0:0:0:
192,320,11221,5,2,0:0:0:0:
80,256,11428,1,4,0:0:0:0:
16,192,11635,1,8,0:0:0:0:
256,320,12049,1,2,3:0:0:0:
368,256,12256,1,4,0:0:0:0:
432,192,12463,1,8,0:0:0:0:
240,192,12876,5,2,3:0:0:0:
128,128,13083,1,4,0:0:0:0:
272,96,13290,1,8,0:0:0:0:
128,32,13703,1,2,0:0:0:0:
32,112,13910,1,4,0:0:0:0:
128,208,14117,1,10,0:0:0:0:
384,336,14531,1,4,2:2:0:38:
320,288,14738,5,4,0:0:0:0:
256,240,14945,1,8,0:0:0:0:
20,335,15358,1,2,0:0:0:0:
84,287,15565,1,4,0:0:0:0:
148,239,15772,1,8,0:0:0:0:
384,208,16186,5,2,0:0:0:0:
320,160,16393,1,4,0:0:0:0:
256,112,16600,2,0,L|160:112,1,95,8|4,0:0|0:0,0:0:0:0:
46,192,17014,2,0,L|158:192,1,95,2|2,0:0|0:1,0:0:0:0:
221,193,17427,1,10,0:0:0:0:
408,352,17841,6,0,L|264:192,1,190,2|8,0:0|0:0,0:0:0:0:
56,352,18669,2,0,L|184:208,1,190,2|8,0:0|0:0,0:0:0:0:
272,320,19496,1,2,0:0:0:0:
336,272,19703,1,4,0:0:0:0:
200,240,19910,1,8,0:0:0:0:
352,160,20324,1,2,0:0:0:0:
136,128,20738,1,0,0:0:0:100:LR3_BassDropSSG.wav
144,208,21565,6,0,P|208:288|304:288,1,190,10|8,0:0|0:0,0:0:0:0:
416,256,22393,1,10,0:2:0:0:
240,64,22807,6,0,P|304:128|400:144,1,190,8|10,0:0|0:0,0:0:0:0:
176,208,23634,2,0,P|240:272|336:288,1,190,8|10,0:0|0:0,0:0:0:0:
499,241,24462,6,0,L|355:113,1,190,8|10,0:0|0:0,0:0:0:0:
176,176,25290,2,0,L|320:304,1,190,8|10,0:0|0:0,0:0:0:0:
256,336,26117,6,0,B|384:296|384:192|240:144,1,284.999991302491,8|0,0:2|0:2,0:2:0:0:
152,320,27358,2,0,L|16:320,1,128.250000489235,8|8,0:1|0:2,0:0:0:0:
112,40,27772,1,0,0:0:0:44:LR3_BassDropSSG.wav
160,64,28186,6,0,L|160:160,1,95,2|8,0:0|0:0,0:0:0:0:
32,160,28600,2,0,L|32:288,1,95,8|8,0:0|0:0,0:0:0:0:
176,256,29014,1,2,0:0:0:0:
368,256,29427,5,8,0:0:0:0:
128,160,29841,1,2,0:0:0:0:
336,160,30255,1,2,0:0:0:0:
112,80,30669,2,0,L|224:64,1,95,2|8,0:0|0:0,0:0:0:0:
320,64,31083,6,0,L|464:240,1,190,2|8,0:0|0:0,0:0:0:0:
276,255,31910,2,0,L|212:175,1,95,2|8,0:0|0:0,0:0:0:0:
84,255,32324,2,0,L|148:175,1,95,2|8,0:0|0:0,0:0:0:0:
274,29,32738,2,0,P|162:125|114:349,1,380,2|8,0:2|0:2,0:0:0:0:
352,336,33979,6,0,L|480:208,1,143.449998358345,8|8,0:1|0:3,0:1:0:0:
272,192,34393,1,8,0:0:0:0:
64,288,35014,5,8,0:0:0:0:
240,240,35221,1,8,0:0:0:0:
448,64,35841,5,8,0:0:0:0:
272,128,36048,1,8,0:0:0:0:
64,64,36669,5,8,0:0:0:0:
240,128,36876,1,8,0:0:0:0:
416,240,37496,5,8,0:0:0:0:
320,160,37703,2,0,L|272:32,1,95,2|4,0:0|0:0,0:0:0:0:
416,160,38117,2,0,L|448:64,1,95,8|4,0:0|0:0,0:0:0:0:
320,240,38531,2,0,L|288:336,1,95,2|4,0:0|0:0,0:0:0:0:
422,247,38945,1,8,0:0:0:0:
144,288,39358,6,0,L|96:192,1,95,2|4,0:0|0:0,0:0:0:0:
224,288,39772,2,0,L|272:192,1,95,8|4,0:0|0:0,0:0:0:0:
128,128,40186,1,2,0:0:0:0:
360,48,40600,1,8,0:0:0:0:
272,112,40807,5,8,0:0:0:0:
448,72,41014,1,8,0:0:0:0:
240,208,41635,5,8,0:0:0:0:
64,272,41842,1,8,0:0:0:0:
272,256,42462,5,8,0:0:0:0:
448,320,42669,1,8,0:0:0:0:
240,144,43290,5,8,0:0:0:0:
64,80,43497,1,8,0:0:0:0:
432,176,44117,5,8,0:0:0:0:
496,112,44324,1,2,0:0:0:0:
432,48,44531,1,2,0:0:0:0:
256,272,44738,1,4,2:2:0:45:
464,336,45152,1,4,2:2:0:45:
192,128,45565,5,2,0:0:0:0:
272,176,45772,1,2,0:0:0:0:
448,256,45979,1,4,2:2:0:45:
256,336,46393,1,4,2:2:0:50:
64,192,46807,5,0,0:0:0:50:LR3_Kick WBDS.wav
160,128,47014,1,2,0:0:0:55:
32,80,47221,1,0,0:0:0:68:LR3_BassDropSSG.wav
136,320,47634,5,2,0:0:0:0:
248,224,47841,1,4,0:0:0:0:
112,192,48048,1,8,0:0:0:0:
376,32,48462,5,2,0:0:0:0:
264,144,48669,1,4,0:0:0:0:
400,176,48876,1,8,0:0:0:0:
136,32,49290,5,2,0:0:0:0:
248,64,49497,1,4,0:0:0:0:
128,160,49703,2,0,L|32:240,2,95,8|4|2,0:0|0:0|0:0,0:0:0:0:
368,224,50531,2,0,L|256:176,1,95,8|4,0:0|0:0,0:0:0:0:
144,224,50945,2,0,L|256:176,1,95,2|4,0:0|0:0,0:0:0:0:
352,48,51358,6,0,L|400:144,1,95,8|4,0:0|0:0,0:0:0:0:
288,128,51772,1,2,0:0:0:0:
112,48,52186,1,8,0:0:0:0:
216,128,52393,1,4,0:0:0:0:
96,160,52600,2,0,L|8:344,2,190,2|8|2,0:0|0:0|0:0,0:0:0:0:
192,160,53634,1,12,0:0:0:0:
288,64,53841,1,8,0:0:0:0:
512,272,54255,1,4,0:2:0:50:
432,208,54462,5,4,0:0:0:0:
352,160,54669,2,0,L|240:112,1,95,8|4,0:0|0:0,0:0:0:0:
416,304,55083,5,2,0:0:0:0:
336,240,55290,1,4,0:0:0:0:
256,176,55497,2,0,L|144:128,1,95,8|4,0:0|0:0,0:0:0:0:
288,320,55910,5,2,0:0:0:0:
208,256,56117,1,4,0:0:0:0:
336,192,56324,1,8,0:0:0:0:
176,48,56738,1,2,0:0:0:0:
448,144,57152,5,8,0:0:0:0:
368,96,57358,1,4,0:0:0:0:
272,48,57565,1,2,0:0:0:0:
80,240,57979,5,8,0:0:0:0:
0,192,58185,1,4,0:0:0:0:
128,144,58392,1,2,0:0:0:0:
448,320,58807,5,8,0:0:0:0:
368,272,59013,1,4,0:0:0:0:
272,224,59220,1,2,0:0:0:0:
112,320,59634,5,8,0:0:0:0:
192,224,59840,1,4,0:0:0:0:
272,128,60048,2,0,L|208:32,3,95,2|12|8|4,0:0|0:0|0:0|0:0,0:0:0:0:
136,64,60876,1,4,0:2:0:50:
248,160,61083,5,4,0:0:0:0:
128,192,61290,1,8,0:0:0:0:
376,352,61704,5,2,0:0:0:0:
264,240,61911,1,4,0:0:0:0:
392,208,62118,1,8,0:0:0:0:
136,32,62532,5,2,0:0:0:0:
248,64,62739,1,4,0:0:0:0:
128,128,62945,2,0,L|128:240,1,95,8|4,0:0|0:0,0:0:0:0:
56,224,63358,1,2,0:0:0:0:
240,224,63772,2,0,L|352:176,1,95,8|4,0:0|0:0,0:0:0:0:
464,224,64186,2,0,L|352:176,1,95,2|4,0:0|0:0,0:0:0:0:
256,48,64600,6,0,L|208:160,1,95,8|4,0:0|0:0,0:0:0:0:
320,128,65014,1,2,0:0:0:0:
128,256,65427,2,4,L|128:352,1,95,8|4,0:0|0:0,0:0:0:0:
216,248,65841,1,2,0:0:0:0:
144,176,66048,1,4,0:0:0:0:
224,160,66255,6,0,L|320:96,2,95,8|4|2,0:0|0:0|0:0,0:0:0:0:
64,64,66876,1,12,0:0:0:0:
64,160,67083,1,8,0:0:0:0:
320,176,67496,5,2,0:0:0:0:
112,96,67910,1,8,0:0:0:0:
352,64,68324,1,4,0:2:0:50:
80,208,68738,6,0,L|176:208,1,95,8|4,0:0|0:0,0:0:0:0:
352,256,69152,1,4,0:2:0:45:
352,336,69358,1,12,0:2:0:45:
32,48,69979,5,4,0:2:0:45:
32,128,70186,1,4,0:2:0:0:
395,320,70807,6,0,L|395:192,1,95,4|4,0:2|0:3,2:2:0:0:
256,192,71221,12,4,72048,2:2:0:0:
208,320,72462,5,2,0:0:0:0:
64,320,72669,1,6,0:0:0:0:
224,208,73290,1,4,0:0:0:0:
32,208,73496,1,4,0:0:0:0:
284,84,74117,1,0,0:0:0:44:LR3_BassDropSSG.wav
144,192,74531,5,8,0:0:0:0:
16,160,74945,1,2,0:0:0:45:
160,288,75359,1,8,0:0:0:0:
304,208,75772,5,2,0:0:0:45:
464,144,76186,1,8,0:0:0:0:
464,288,76600,1,2,0:0:0:0:
224,320,77014,2,0,L|336:256,1,95,2|4,0:1|0:3,0:0:0:0:
416,224,77427,5,2,0:0:0:0:
224,112,77841,1,8,0:0:0:0:
448,128,78255,1,2,0:0:0:45:
256,32,78669,1,8,0:0:0:0:
80,48,79083,5,2,0:0:0:45:
272,112,79496,2,0,L|272:224,1,95,8|4,0:0|0:0,0:0:0:0:
368,160,79910,2,0,L|464:112,1,95,2|4,0:0|0:0,0:0:0:0:
368,272,80324,2,0,L|256:320,1,95,8|4,0:0|0:0,0:0:0:0:
256,192,80738,12,8,83634,3:3:0:45:
464,160,84048,5,2,0:0:0:0:
240,160,84462,1,8,0:0:0:0:
432,224,84875,1,2,0:0:0:48:
224,240,85290,1,8,0:0:0:0:
384,288,85703,1,2,0:0:0:48:
192,320,86117,2,0,L|96:144,1,190,8|2,0:0|0:0,0:0:0:0:
256,24,86738,6,2,L|256:224,1,190,6|8,2:0|2:0,2:0:0:0:
256,240,87221,1,2,2:0:1:8:
256,272,87290,1,2,2:0:1:8:
256,304,87358,1,2,2:0:1:8:
352,192,87565,1,2,2:0:1:8:
352,224,87634,1,2,2:0:1:8:
352,256,87703,1,2,2:0:1:8:
240,144,87979,1,2,2:0:1:8:
240,176,88048,1,2,2:0:1:8:
240,208,88117,1,2,2:0:1:8:
