osu file format v14

[General]
AudioFilename: NeptuneSagashite.mp3
AudioLeadIn: 0
PreviewTime: 46807
Countdown: 0
SampleSet: None
StackLeniency: 0.7
Mode: 2
LetterboxInBreaks: 0
WidescreenStoryboard: 0

[Editor]
Bookmarks: 7910,21152,34186,47634,74117
DistanceSpacing: 1
BeatDivisor: 8
GridSize: 16
TimelineZoom: 2.7

[Metadata]
Title:Neptune*Sagashite
TitleUnicode:ネプテューヌ☆サガして
Artist:Afilia Saga
ArtistUnicode:アフィリア・サーガ
Creator:LordRaika
Version:Rain
Source:Choujigen Game Neptune The Animation
Tags:Hyperdimension Neptunia Ending 超次元ゲイム ネプテューヌ Kosuke Oshima Momoi Haruko East
BeatmapID:547219
BeatmapSetID:236214

[Difficulty]
HPDrainRate:6
CircleSize:4
OverallDifficulty:9
ApproachRate:9
SliderMultiplier:2.5
SliderTickRate:2

[Events]
//Background and Video events
0,0,"HyperdimensionNeptunia4.jpg",0,0
Video,0,"NeptuneSagashiteZ.avi"
//Break Periods
//Storyboard Layer 0 (Background)
//Storyboard Layer 1 (Fail)
//Storyboard Layer 2 (Pass)
//Storyboard Layer 3 (Foreground)
//Storyboard Sound Samples
Sample,14531,0,"drum-hitwhistle.wav",84
Sample,17634,0,"drum-hitfinish.wav",84
Sample,17841,0,"drum-hitwhistle.wav",84
Sample,57772,0,"drum-hitfinish.wav",50
Sample,58600,0,"drum-hitfinish.wav",50
Sample,59427,0,"drum-hitfinish.wav",50
Sample,60876,0,"drum-hitwhistle.wav",90
Sample,69152,0,"drum-hitwhistle.wav",90
Sample,69358,0,"drum-hitwhistle.wav",90
Sample,69979,0,"drum-hitwhistle.wav",90
Sample,70186,0,"drum-hitwhistle.wav",90
Sample,70807,0,"drum-hitwhistle.wav",90
Sample,74117,0,"LR3_BassDropSSG.wav",44
Sample,87152,0,"LR3_FXDSRPF - R.wav",50
Sample,87221,0,"LR3_FXDSRPF - L.wav",50
Sample,87290,0,"LR3_FXDSRPF - R.wav",50
Sample,87358,0,"LR3_FXDSRPF - L.wav",50
Sample,87565,0,"LR3_FXDSRPF - R.wav",50
Sample,87634,0,"LR3_FXDSRPF - L.wav",50
Sample,87703,0,"LR3_FXDSRPF - R.wav",50
Sample,87979,0,"LR3_FXDSRPF - L.wav",50
Sample,88048,0,"LR3_FXDSRPF - R.wav",50
Sample,88117,0,"LR3_FXDSRPF - L.wav",50

[TimingPoints]
1290,413.793103448276,4,2,1,69,1,0
3979,-100,4,3,1,42,0,0
4186,-100,4,3,1,69,0,0
4393,-100,4,3,1,42,0,0
4496,-100,4,3,1,69,0,0
6876,-100,4,3,1,42,0,0
6979,-100,4,3,1,69,0,0
7290,-100,4,2,1,95,0,0
7496,-100,4,2,1,98,0,0
7910,-100,4,3,1,5,0,1
8014,-100,4,3,1,50,0,0
9979,-53.475935828877,4,3,1,50,0,0
10496,-100,4,3,1,50,0,0
13186,-53.475935828877,4,3,1,50,0,0
13807,-100,4,3,1,50,0,0
17117,-100,4,3,1,69,0,0
17324,-100,4,3,1,50,0,0
17738,-100,4,3,1,69,0,0
17945,-100,4,3,1,50,0,0
21152,-100,4,2,1,46,0,0
27255,-100,4,2,1,93,0,0
27462,-100,4,2,1,46,0,0
33876,-55.5555555555556,4,2,1,93,0,0
34083,-100,4,3,1,80,0,0
44738,-68.9655172413793,4,3,1,69,0,0
47634,-100,4,3,1,50,0,1
50221,-68.9655172413793,4,3,1,50,0,1
51255,-100,4,3,1,50,0,1
56324,-68.9655172413793,4,3,1,50,0,1
57048,-100,4,3,1,50,0,1
60772,-100,4,3,1,50,0,0
60876,-100,4,3,1,50,0,1
63772,-68.9655172413793,4,3,1,50,0,1
64496,-100,4,3,1,50,0,1
65014,-68.9655172413793,4,3,1,50,0,1
65738,-100,4,3,1,50,0,1
69048,-100,4,3,1,46,0,1
69462,-100,4,3,1,50,0,1
69876,-100,4,3,1,46,0,1
70290,-100,4,3,1,50,0,1
70807,-100,4,3,1,50,0,0
71117,-100,4,2,0,46,0,0
72255,-100,4,3,1,50,0,0
87910,-100,4,2,1,5,0,0

[Colours]
Combo1 : 181,181,181
Combo2 : 5,143,245
Combo3 : 255,89,255
Combo4 : 20,236,15

[HitObjects]
80,336,1290,5,8,0:2:0:0:
192,288,1496,1,8,0:2:0:0:
304,336,1703,1,8,0:2:0:0:
48,256,2117,1,8,0:2:0:0:
192,208,2323,1,8,0:2:0:0:
336,256,2530,1,8,0:2:0:0:
16,176,2945,5,8,0:2:0:0:
192,128,3151,1,8,0:2:0:0:
368,176,3358,2,0,L|464:80,1,125,8|2,0:2|0:1,0:0:0:0:
368,64,3772,2,0,L|272:160,1,125,8|8,0:2|0:2,0:0:0:0:
0,64,4186,2,0,L|128:128,1,125,2|8,0:1|0:2,0:0:0:0:
272,336,4600,5,8,0:2:0:0:
192,288,4806,1,8,0:2:0:0:
112,240,5013,1,8,0:2:0:0:
336,272,5427,1,8,0:2:0:0:
224,208,5633,1,8,0:2:0:0:
112,160,5840,1,8,0:2:0:0:
400,208,6255,5,8,0:2:0:0:
256,128,6461,1,8,0:2:0:0:
112,48,6669,2,0,L|32:144,1,125,8|8,0:2|0:2,0:0:0:0:
208,272,7083,1,8,0:2:0:0:
512,352,7290,2,0,B|512:272|512:272|416:208,1,187.5,4|4,0:3|0:1,0:0:0:0:
288,160,7703,1,0,0:0:0:99:LR3_FXDSRPF - R.wav
240,160,7772,1,0,0:0:0:99:LR3_FXDSRPF - L.wav
192,160,7841,1,0,0:0:0:99:LR3_FXDSRPF - R.wav
16,176,7910,5,0,0:0:0:80:LR3_Kick WBDS.wav
144,240,8117,1,4,0:0:0:0:
288,336,8324,1,8,0:0:0:0:
208,192,8531,1,4,0:0:0:0:
128,128,8738,1,2,3:0:0:0:
272,240,8945,1,4,0:0:0:0:
416,336,9152,1,8,0:0:0:0:
336,192,9358,5,4,0:0:0:0:
256,128,9565,1,2,3:0:0:0:
400,240,9772,1,4,0:0:0:0:
512,336,9979,1,8,0:0:0:0:
336,336,10186,1,4,0:0:0:0:
40,328,10393,1,2,0:0:0:0:
160,240,10600,1,4,0:0:0:0:
32,160,10807,1,10,0:0:0:0:
512,48,11221,5,2,0:0:0:0:
368,160,11428,1,4,0:0:0:0:
224,256,11635,1,8,0:0:0:0:
304,112,11842,1,4,0:0:0:0:
384,48,12049,1,2,3:0:0:0:
240,168,12256,1,4,0:0:0:0:
96,288,12463,1,8,0:0:0:0:
168,176,12669,5,4,0:0:0:0:
256,104,12876,1,2,3:0:0:0:
112,72,13083,1,4,0:0:0:0:
8,32,13290,1,8,0:0:0:0:
176,32,13496,1,4,0:0:0:0:
496,32,13703,1,2,0:0:0:0:
384,112,13910,1,4,0:0:0:0:
496,192,14117,1,10,0:0:0:0:
16,272,14531,1,4,2:2:0:38:
128,208,14738,5,4,0:0:0:0:
416,208,14945,1,8,0:0:0:0:
512,272,15152,1,4,0:0:0:0:
416,128,15358,1,2,0:0:0:0:
320,80,15565,1,4,0:0:0:0:
48,80,15772,1,8,0:0:0:0:
144,144,15979,5,4,0:0:0:0:
256,192,16186,1,2,0:0:0:0:
384,272,16393,1,4,0:0:0:0:
112,272,16600,2,0,L|-32:368,1,125,8|4,0:0|0:0,0:0:0:0:
288,256,17014,2,0,L|400:176,1,125,2|2,0:0|0:1,0:0:0:0:
48,144,17427,1,10,0:0:0:0:
208,320,17841,6,0,L|304:216,1,125,2|4,0:1|0:0,0:0:0:0:
153,176,18255,1,8,0:0:0:0:
352,272,18462,1,4,0:0:0:0:
456,88,18669,2,0,L|360:192,1,125,2|4,0:0|0:0,0:0:0:0:
464,208,19083,1,8,0:0:0:0:
352,96,19290,1,4,0:0:0:0:
304,352,19496,5,2,0:0:0:0:
384,320,19600,1,0,0:0:0:48:LR3_Hat OCV.wav
432,288,19703,1,0,0:0:0:48:LR3_Hat OCV.wav
416,240,19806,1,0,0:0:0:48:LR3_Hat OCV.wav
272,176,19910,5,10,0:0:0:0:
192,208,20013,1,0,0:0:0:48:LR3_Hat OCV.wav
151,239,20117,1,0,0:0:0:48:LR3_Hat OCV.wav
180,272,20220,1,0,0:0:0:48:LR3_Hat OCV.wav
304,80,20324,5,10,0:0:0:0:
384,112,20427,1,0,0:0:0:48:LR3_Hat OCV.wav
426,143,20531,1,0,0:0:0:48:LR3_Hat OCV.wav
400,176,20634,1,0,0:0:0:48:LR3_Hat OCV.wav
133,200,20738,1,0,0:0:0:100:LR3_BassDropSSG.wav
344,24,21152,5,10,0:2:0:0:
232,40,21358,1,8,0:2:0:0:
376,96,21565,1,8,0:2:0:0:
256,112,21772,1,8,0:2:0:0:
136,144,21979,5,10,0:2:0:0:
264,192,22186,1,8,0:2:0:0:
104,208,22393,1,8,0:2:0:0:
216,256,22599,1,8,0:2:0:0:
344,280,22806,1,10,0:2:0:0:
416,232,23013,1,8,0:2:0:0:
256,344,23220,5,8,0:2:0:0:
304,256,23427,1,8,0:2:0:0:
168,264,23634,1,10,0:2:0:0:
224,192,23841,1,8,0:2:0:0:
80,176,24048,1,8,0:2:0:0:
144,112,24255,1,8,0:2:0:0:
288,144,24462,5,10,0:2:0:0:
224,80,24669,1,8,0:2:0:0:
384,96,24876,1,8,0:2:0:0:
320,32,25083,1,8,0:2:0:0:
480,48,25290,1,10,0:2:0:0:
400,192,25496,1,8,0:2:0:0:
272,208,25703,5,8,0:2:0:0:
336,272,25910,1,8,0:2:0:0:
224,304,26117,2,0,P|88:280|80:160,1,250,10|0,0:2|0:2,0:2:0:0:
176,160,26738,1,8,0:2:0:0:
48,96,26945,1,10,0:2:0:0:
192,48,27152,1,8,0:2:0:0:
272,224,27358,5,8,0:1:0:0:
0,160,27565,1,8,0:2:0:0:
272,96,27772,1,0,0:0:0:44:LR3_BassDropSSG.wav
64,64,28186,6,0,L|144:160,1,125,2|8,0:0|0:0,0:0:0:0:
272,224,28600,2,0,L|192:320,1,125,8|8,0:0|0:0,0:0:0:0:
304,336,29014,2,0,L|384:240,1,125,2|8,0:0|0:0,0:0:0:0:
208,160,29427,6,0,L|80:208,1,125,8|8,0:0|0:0,0:0:0:0:
288,64,29841,2,0,L|432:16,1,125,2|8,0:0|0:0,0:0:0:0:
224,304,30255,2,0,L|80:304,1,125,8|8,0:0|0:0,0:0:0:0:
0,64,30669,2,0,L|128:64,1,125,2|8,0:0|0:0,0:0:0:0:
495,101,31083,6,0,B|384:176|384:176|464:208|512:288|400:352,1,375,8|10,0:0|0:0,0:0:0:0:
240,336,31910,2,0,L|160:240,1,125,2|8,0:0|0:0,0:0:0:0:
328,144,32324,2,0,L|408:240,1,125,2|8,0:0|0:0,0:0:0:0:
48,240,32738,2,0,P|96:128|184:24,2,250,2|8|8,0:2|0:2|0:2,0:0:0:0:
128,304,33772,1,8,0:2:0:0:
208,336,33979,6,0,L|448:336,1,224.999993133545,8|8,0:1|0:0,0:0:0:0:
166,335,34393,1,8,0:0:0:0:
288,256,34600,1,2,0:0:0:0:
16,256,34807,1,2,0:0:0:0:
80,48,35014,5,8,0:0:0:0:
346,49,35221,1,8,0:0:0:0:
224,144,35428,1,2,0:0:0:0:
496,144,35635,1,2,0:0:0:0:
432,224,35841,5,8,0:0:0:0:
166,225,36048,1,8,0:0:0:0:
288,320,36255,1,2,0:0:0:0:
16,320,36462,1,2,0:0:0:0:
80,128,36669,5,8,0:0:0:0:
352,128,36876,1,8,0:0:0:0:
224,48,37083,1,2,0:0:0:0:
496,48,37290,1,2,0:0:0:0:
384,112,37496,5,8,0:0:0:0:
240,144,37703,2,0,L|112:144,1,125,2|4,0:0|0:0,0:0:0:0:
384,144,38117,2,0,L|528:144,1,125,8|4,0:0|0:0,0:0:0:0:
240,216,38531,2,0,L|80:216,1,125,2|4,0:0|0:0,0:0:0:0:
272,256,38945,1,8,0:0:0:0:
112,288,39152,5,4,0:0:0:0:
375,276,39358,2,0,L|503:276,1,125,2|0,0:0|0:0,0:0:0:0:
224,352,39772,2,0,L|80:352,1,125,8|4,0:0|0:0,0:0:0:0:
376,344,40186,2,0,L|512:344,1,125,2|4,0:0|0:0,0:0:0:0:
336,304,40600,1,8,0:0:0:0:
64,336,40807,5,8,0:0:0:0:
384,336,41014,1,8,0:0:0:0:
496,272,41221,1,2,0:0:0:0:
128,272,41428,1,2,0:0:0:0:
16,224,41634,5,8,0:0:0:0:
352,224,41841,1,8,0:0:0:0:
464,160,42048,1,2,0:0:0:0:
128,160,42255,1,2,0:0:0:0:
16,96,42462,5,8,0:0:0:0:
352,96,42669,1,8,0:0:0:0:
464,48,42876,1,2,0:0:0:0:
128,32,43083,1,2,0:0:0:0:
16,128,43289,5,8,0:0:0:0:
352,128,43496,1,8,0:0:0:0:
464,192,43703,1,2,0:0:0:0:
128,192,43910,1,2,0:0:0:0:
0,192,44117,5,8,0:0:0:0:
64,160,44324,1,2,0:0:0:0:
128,128,44531,1,2,0:0:0:0:
400,336,44738,2,0,L|192:288,1,181.250005531311,4|0,2:2|0:0,0:0:0:0:
496,256,45152,1,4,2:2:0:0:
448,240,45358,1,2,0:0:0:0:
496,208,45462,1,2,0:0:0:0:
480,176,45565,5,2,0:0:0:0:
384,128,45772,1,2,0:0:0:0:
112,336,45979,2,0,L|320:288,1,181.250005531311,4|0,2:2|0:0,0:0:0:0:
16,256,46393,1,4,2:2:0:50:
256,224,46807,5,0,0:0:0:50:LR3_Kick WBDS.wav
352,176,46910,1,0,0:0:0:33:LR_Kick Low Strong Beat.wav
435,128,47014,1,2,0:0:0:55:
352,80,47117,1,0,0:0:0:33:LR_Kick Low Strong Beat.wav
96,48,47221,1,0,0:0:0:68:LR3_BassDropSSG.wav
176,256,47634,5,2,0:0:0:0:
304,144,47841,1,4,0:0:0:0:
32,128,48048,2,0,L|184:128,1,125,8|4,0:0|0:0,0:0:0:0:
304,64,48462,5,2,0:0:0:0:
176,144,48669,1,4,0:0:0:0:
448,240,48876,2,0,L|304:240,1,125,8|4,0:0|0:0,0:0:0:0:
200,248,49290,5,2,0:0:0:0:
328,136,49497,1,4,0:0:0:0:
56,376,49703,2,0,L|200:296,1,125,8|4,0:0|0:0,0:0:0:0:
296,304,50117,2,0,L|136:272,1,125,2|4,0:0|0:0,0:0:0:0:
0,208,50531,2,0,L|192:128,1,181.250005531311,8|4,0:0|0:0,0:0:0:0:
512,208,50945,2,0,L|304:288,1,181.250005531311,2|4,0:0|0:0,0:0:0:0:
64,208,51358,6,0,L|16:336,1,125,8|4,0:0|0:0,0:0:0:0:
296,208,51772,2,0,L|344:336,1,125,2|4,0:0|0:0,0:0:0:0:
64,336,52186,2,0,L|20:218,1,125,8|4,0:0|0:0,0:0:0:0:
368,96,52600,2,0,L|304:224,1,125,2|4,0:0|0:0,0:0:0:0:
32,96,53014,2,0,L|208:96,1,125,8|4,0:0|0:0,0:0:0:0:
352,304,53427,5,2,0:0:0:0:
224,256,53634,1,6,0:0:0:0:
505,206,53841,2,0,L|505:78,1,125,8|4,0:0|0:0,0:0:0:0:
240,192,54255,1,4,0:2:0:50:
352,128,54462,5,4,0:0:0:0:
32,128,54669,2,0,L|176:128,1,125,8|4,0:0|0:0,0:0:0:0:
272,256,55083,5,2,0:0:0:0:
160,320,55290,1,4,0:0:0:0:
480,256,55496,2,0,L|336:256,1,125,8|4,0:0|0:0,0:0:0:0:
240,144,55910,5,2,0:0:0:0:
352,112,56117,1,4,0:0:0:0:
32,256,56324,2,0,L|224:176,1,181.250005531311,8|4,0:0|0:0,0:0:0:0:
496,256,56738,2,0,L|304:336,1,181.250005531311,2|4,0:0|0:0,0:0:0:0:
160,96,57152,5,8,0:0:0:0:
272,192,57358,1,4,0:0:0:0:
0,272,57565,1,2,0:0:0:0:
160,240,57979,5,8,0:0:0:0:
272,128,58185,1,4,0:0:0:0:
160,32,58392,1,2,0:0:0:0:
352,96,58807,5,8,0:0:0:0:
240,192,59013,1,4,0:0:0:0:
512,272,59220,1,2,0:0:0:0:
352,240,59634,5,8,0:0:0:0:
55,226,59840,1,4,0:0:0:0:
152,176,60048,2,0,L|48:96,3,125,2|12|8|4,0:0|0:0|0:0|0:0,0:0:0:0:
336,256,60876,1,4,0:2:0:50:
464,144,61083,5,4,0:0:0:0:
192,64,61290,2,0,L|296:192,1,125,8|4,0:0|0:0,0:0:0:0:
368,96,61704,5,2,0:0:0:0:
240,176,61911,1,4,0:0:0:0:
512,344,62117,2,0,L|440:216,1,125,8|4,0:0|0:0,0:0:0:0:
352,160,62532,5,2,0:0:0:0:
456,112,62738,1,4,0:0:0:0:
48,272,62945,2,0,L|208:272,1,125,8|4,0:0|0:0,0:0:0:0:
512,272,63358,2,0,L|384:272,1,125,2|4,0:0|0:3,0:0:0:0:
117,255,63773,2,0,L|277:143,1,181.250005531311,8|4,0:0|0:0,0:0:0:0:
0,147,64187,2,0,L|176:32,1,181.250005531311,2|4,0:0|0:0,0:0:0:0:
0,288,64600,6,0,L|128:336,1,125,8|4,0:0|0:0,0:0:0:0:
395,255,65014,2,0,L|235:143,1,181.250005531311,2|4,0:0|0:0,0:0:0:0:
512,147,65428,2,0,L|336:32,1,181.250005531311,8|4,0:0|0:0,0:0:0:0:
192,96,65842,2,0,L|272:224,1,125,2|4,0:0|0:0,0:0:0:0:
80,192,66256,2,0,L|32:320,1,125,8|4,0:0|0:0,0:0:0:0:
400,72,66669,1,2,0:0:0:0:
248,160,66876,1,12,0:0:0:0:
400,192,67083,1,8,0:0:0:0:
248,32,67290,5,4,0:0:0:0:
104,64,67496,1,2,0:0:0:0:
248,288,67703,1,4,0:0:0:0:
512,160,67910,2,0,L|368:160,1,125,8|4,0:0|0:0,0:0:0:0:
120,160,68324,1,4,0:2:0:50:
285,274,68738,6,0,L|445:274,2,125,8|4|4,0:0|0:0|2:2,0:0:0:0:
16,80,69358,2,0,L|192:304,1,250,4|4,2:2|0:3,2:2:0:0:
56,288,69979,1,4,0:2:0:0:
368,288,70186,2,0,L|224:80,1,250,4|4,0:2|0:3,2:2:0:0:
512,96,70807,6,0,L|512:256,1,125,4|4,0:2|0:3,2:2:0:0:
256,192,71221,12,4,72048,2:2:0:0:
208,336,72462,5,2,0:0:0:0:
480,256,72669,2,0,L|496:208,3,31.25
496,208,72876,2,0,L|496:176|496:176,3,31.25
482,132,73083,2,0,L|496:160,2,31.25
464,64,73290,5,2,0:0:0:0:
192,64,73496,2,0,L|176:112,3,31.25
176,112,73703,2,0,L|176:144|176:144,3,31.25
189,188,73910,2,0,L|176:160,2,31.25
368,192,74117,2,0,L|480:128,1,125,2|4,0:0|0:0,0:0:0:0:
384,208,74531,6,0,L|304:112,1,125,8|4,0:0|0:0,0:0:0:0:
480,144,74945,2,0,L|398:49,1,125,2|4,0:0|0:0,0:0:0:0:
288,160,75359,2,0,L|367:257,1,125,8|4,0:0|0:0,0:0:0:0:
208,192,75772,6,0,L|132:93,1,125,2|4,0:0|0:0,0:0:0:0:
304,336,76186,2,0,L|376:192,1,125,8|4,0:0|0:0,0:0:0:0:
48,336,76600,2,0,L|-8:200,1,125,2|4,0:0|0:0,0:0:0:0:
169,63,77014,2,0,L|44:63,1,125,2|4,0:1|0:3,0:0:0:0:
224,64,77427,1,2,0:0:0:0:
400,128,77634,5,4,0:0:0:0:
240,192,77841,2,0,L|336:304,1,125,8|4,0:0|0:0,0:0:0:0:
112,48,78255,1,2,0:0:0:0:
192,112,78462,1,4,0:0:0:0:
320,192,78669,2,0,L|240:288,1,125,8|4,0:0|0:0,0:0:0:0:
464,336,79083,5,2,0:0:0:0:
368,288,79290,1,4,0:0:0:0:
240,240,79497,2,0,L|336:112,1,125,8|4,0:0|0:0,0:0:0:0:
112,240,79910,2,0,L|208:112,1,125,2|4,0:0|0:0,0:0:0:0:
460,141,80324,1,8,0:0:0:0:
224,96,80738,1,4,0:2:0:48:
304,48,80945,5,4,0:0:0:0:
160,32,81152,1,8,0:0:0:0:
96,96,81358,1,4,0:0:0:0:
224,176,81565,5,2,0:0:0:48:
144,240,81772,1,4,0:0:0:0:
304,272,81979,1,8,0:0:0:0:
208,160,82186,1,4,0:0:0:0:
304,96,82393,6,0,L|432:32,1,125,2|4,0:1|0:3,0:0:0:0:
288,192,82807,2,0,L|192:272,1,125,8|4,0:0|0:0,0:0:0:0:
384,224,83221,2,0,L|256:336,1,125,2|4,0:0|0:0,0:0:0:0:
7,284,83634,2,0,L|135:204,1,125,2|4,0:1|0:3,0:0:0:0:
384,48,84048,1,2,0:0:0:0:
224,48,84255,5,4,0:0:0:0:
80,48,84462,1,8,0:0:0:0:
160,112,84668,1,4,0:0:0:0:
64,176,84875,5,2,0:0:0:48:
192,176,85082,1,4,0:0:0:0:
368,176,85289,1,8,0:0:0:0:
288,240,85496,1,4,0:0:0:0:
368,304,85703,5,2,0:0:0:48:
272,336,85910,1,4,0:0:0:0:
432,288,86117,2,0,L|432:160,1,125,8|4,0:0|0:0,0:0:0:0:
88,104,86531,1,2,0:0:0:0:
192,144,86738,6,0,L|352:224,1,125,4|4,0:1|0:1,0:1:0:0:
464,320,87152,1,2,2:0:1:8:
432,296,87221,1,2,2:0:1:8:
400,272,87290,1,2,2:0:1:8:
368,248,87358,1,2,2:0:1:8:
104,240,87565,1,2,2:0:1:8:
152,208,87634,1,2,2:0:1:8:
192,176,87703,1,2,2:0:1:8:
373,100,87979,1,2,2:0:1:8:
325,100,88048,1,2,2:0:1:8:
277,100,88117,1,2,2:0:1:8:
