osu file format v14

[General]
AudioFilename: NeptuneSagashite.mp3
AudioLeadIn: 0
PreviewTime: 46807
Countdown: 0
SampleSet: None
StackLeniency: 0.7
Mode: 2
LetterboxInBreaks: 0
WidescreenStoryboard: 0

[Editor]
Bookmarks: 7910,21152,34186,47634,74117
DistanceSpacing: 0.5
BeatDivisor: 4
GridSize: 16
TimelineZoom: 2.4

[Metadata]
Title:Neptune*Sagashite
TitleUnicode:ネプテューヌ☆サガして
Artist:Afilia Saga
ArtistUnicode:アフィリア・サーガ
Creator:LordRaika
Version:Platter
Source:Choujigen Game Neptune The Animation
Tags:Hyperdimension Neptunia Ending 超次元ゲイム ネプテューヌ Kosuke Oshima Momoi Haruko East
BeatmapID:547218
BeatmapSetID:236214

[Difficulty]
HPDrainRate:5
CircleSize:3.5
OverallDifficulty:8
ApproachRate:8
SliderMultiplier:2.2
SliderTickRate:2

[Events]
//Background and Video events
0,0,"HyperdimensionNeptunia3.jpg",0,0
Video,0,"NeptuneSagashiteZ.avi"
//Break Periods
//Storyboard Layer 0 (Background)
//Storyboard Layer 1 (Fail)
//Storyboard Layer 2 (Pass)
//Storyboard Layer 3 (Foreground)
//Storyboard Sound Samples
Sample,13496,0,"drum-hitfinish.wav",50
Sample,14531,0,"drum-hitwhistle.wav",84
Sample,17841,0,"normal-hitwhistle.wav",42
Sample,18462,0,"drum-hitfinish.wav",50
Sample,19290,0,"drum-hitfinish.wav",50
Sample,39152,0,"drum-hitfinish.wav",67
Sample,40393,0,"drum-hitfinish.wav",67
Sample,48255,0,"drum-hitfinish.wav",50
Sample,49083,0,"drum-hitfinish.wav",50
Sample,50324,0,"drum-hitfinish.wav",50
Sample,54876,0,"drum-hitfinish.wav",50
Sample,55703,0,"drum-hitfinish.wav",50
Sample,57772,0,"drum-hitfinish.wav",50
Sample,58600,0,"drum-hitfinish.wav",50
Sample,59427,0,"drum-hitfinish.wav",50
Sample,60876,0,"drum-hitwhistle.wav",90
Sample,61496,0,"drum-hitfinish.wav",50
Sample,62324,0,"drum-hitfinish.wav",50
Sample,67290,0,"drum-hitfinish.wav",50
Sample,68531,0,"drum-hitfinish.wav",50
Sample,69152,0,"drum-hitwhistle.wav",90
Sample,69358,0,"drum-hitwhistle.wav",90
Sample,69979,0,"drum-hitwhistle.wav",90
Sample,70186,0,"drum-hitwhistle.wav",90
Sample,70807,0,"drum-hitwhistle.wav",90
Sample,71014,0,"drum-hitfinish.wav",50
Sample,81358,0,"drum-hitfinish.wav",50
Sample,82186,0,"drum-hitfinish.wav",50
Sample,84669,0,"drum-hitfinish.wav",50
Sample,85496,0,"drum-hitfinish.wav",50
Sample,86324,0,"drum-hitfinish.wav",50
Sample,87152,0,"LR3_FXDSRPF - R.wav",50
Sample,87221,0,"LR3_FXDSRPF - L.wav",50
Sample,87290,0,"LR3_FXDSRPF - R.wav",50
Sample,87358,0,"LR3_FXDSRPF - L.wav",50
Sample,87565,0,"LR3_FXDSRPF - R.wav",50
Sample,87634,0,"LR3_FXDSRPF - L.wav",50
Sample,87703,0,"LR3_FXDSRPF - R.wav",50
Sample,87979,0,"LR3_FXDSRPF - L.wav",50
Sample,88048,0,"LR3_FXDSRPF - R.wav",50
Sample,88117,0,"LR3_FXDSRPF - L.wav",50

[TimingPoints]
1290,413.793103448276,4,2,1,69,1,0
3979,-100,4,3,1,42,0,0
4186,-100,4,3,1,69,0,0
4393,-100,4,3,1,42,0,0
4496,-100,4,3,1,69,0,0
6876,-100,4,3,1,42,0,0
6979,-100,4,3,1,69,0,0
7290,-100,4,2,1,50,0,0
7496,-100,4,2,1,93,0,0
7910,-100,4,3,1,5,0,1
8014,-100,4,3,1,50,0,0
17117,-100,4,3,1,69,0,0
17324,-100,4,3,1,50,0,0
21152,-100,4,2,1,46,0,0
27358,-100,4,2,1,93,0,0
27462,-100,4,2,1,46,0,0
33979,-86.2068965517241,4,2,1,93,0,0
34083,-100,4,3,1,98,0,0
44738,-68.9655172413793,4,3,1,69,0,0
47634,-100,4,3,1,50,0,1
50221,-68.9655172413793,4,3,1,50,0,1
50841,-100,4,3,1,50,0,1
60772,-100,4,3,1,50,0,0
60876,-100,4,3,1,50,0,1
63565,-68.9655172413793,4,3,1,50,0,1
64083,-100,4,3,1,50,0,1
69048,-100,4,3,1,46,0,1
69462,-100,4,3,1,50,0,1
69876,-100,4,3,1,46,0,1
70290,-100,4,3,1,50,0,1
70807,-100,4,3,1,84,0,0
71117,-100,4,2,0,46,0,0
72255,-100,4,3,1,31,0,0
74117,-100,4,3,1,50,0,0
87910,-100,4,2,1,5,0,0

[Colours]
Combo1 : 181,181,181
Combo2 : 5,143,245
Combo3 : 255,89,255
Combo4 : 20,236,15

[HitObjects]
256,336,1290,5,8,0:2:0:0:
160,288,1496,1,8,0:2:0:0:
16,224,1703,1,8,0:2:0:0:
256,256,2117,1,8,0:2:0:0:
352,208,2323,1,8,0:2:0:0:
496,176,2530,1,8,0:2:0:0:
256,176,2945,5,8,0:2:0:0:
176,96,3151,1,8,0:2:0:0:
320,72,3358,2,0,L|416:-8,1,110,8|2,0:2|0:1,0:0:0:0:
272,128,3772,2,0,L|160:128,1,110,8|8,0:2|0:2,0:0:0:0:
16,128,4186,2,0,L|144:32,1,110,2|8,0:1|0:2,0:0:0:0:
400,256,4600,5,8,0:2:0:0:
464,208,4806,1,8,0:2:0:0:
288,176,5013,1,8,0:2:0:0:
64,272,5427,1,8,0:2:0:0:
0,224,5633,1,8,0:2:0:0:
192,176,5840,1,8,0:2:0:0:
432,320,6255,5,8,0:2:0:0:
352,272,6461,1,8,0:2:0:0:
272,224,6669,2,0,L|176:152,1,110,8|8,0:2|0:2,0:0:0:0:
288,80,7083,1,8,0:2:0:0:
512,32,7290,2,0,L|400:192,1,165,4|4,0:3|0:1,0:0:0:0:
384,208,7703,1,0,0:0:0:99:LR3_FXDSRPF - R.wav
352,240,7772,1,0,0:0:0:99:LR3_FXDSRPF - L.wav
320,272,7841,1,0,0:0:0:99:LR3_FXDSRPF - R.wav
224,272,7910,5,0,0:0:0:80:LR3_Kick WBDS.wav
256,336,8117,1,4,0:0:0:0:
192,336,8324,2,0,L|96:272,1,110,8|4,0:0|0:0,0:0:0:0:
256,176,8738,1,2,3:0:0:0:
168,120,8945,1,4,0:0:0:0:
256,104,9152,2,0,L|152:16,1,110,8|4,0:0|0:0,0:0:0:0:
328,216,9565,5,2,3:0:0:0:
424,152,9772,1,4,0:0:0:0:
328,152,9979,2,0,L|432:64,1,110,8|4,0:0|0:0,0:0:0:0:
120,88,10393,1,2,0:0:0:0:
48,152,10600,1,4,0:0:0:0:
136,200,10807,1,10,0:0:0:0:
368,40,11221,5,2,0:0:0:0:
296,128,11428,1,4,0:0:0:0:
408,160,11634,2,0,L|408:272,1,110,8|4,0:0|0:0,0:0:0:0:
224,40,12049,1,2,3:0:0:0:
296,128,12256,1,4,0:0:0:0:
176,154,12462,2,0,L|176:264,1,110,8|4,0:0|0:0,0:0:0:0:
296,232,12876,5,2,3:0:0:0:
384,304,13083,1,4,0:0:0:0:
112,304,13290,1,8,0:0:0:0:
280,112,13703,1,2,0:0:0:0:
376,176,13910,1,4,0:0:0:0:
296,224,14117,1,10,0:0:0:0:
192,128,14531,1,4,2:2:0:38:
96,200,14738,5,4,0:0:0:0:
192,192,14945,2,0,L|104:272,1,110,8|4,0:0|0:0,0:0:0:0:
0,104,15358,1,2,0:0:0:0:
96,144,15565,1,4,0:0:0:0:
0,32,15772,2,0,L|88:104,1,110,8|4,0:0|0:0,0:0:0:0:
192,32,16186,5,2,0:0:0:0:
272,96,16393,1,4,0:0:0:0:
192,176,16600,2,0,L|48:176,1,110,8|4,0:0|0:0,0:0:0:0:
184,272,17014,2,0,L|294:272,1,110,2|2,0:0|0:1,0:0:0:0:
16,224,17427,1,10,0:0:0:0:
208,208,17841,6,0,L|25:331,1,220,2|8,0:0|0:0,0:0:0:0:
208,208,18669,2,0,L|392:331,1,220,2|8,0:0|0:0,0:0:0:0:
272,32,19496,1,2,0:0:0:0:
144,80,19703,1,4,0:0:0:0:
288,176,19910,1,8,0:0:0:0:
64,144,20324,1,2,0:0:0:0:
192,208,20531,1,4,0:0:0:0:
496,160,20738,1,0,0:0:0:100:LR3_BassDropSSG.wav
176,48,21565,6,0,B|224:192|384:112|384:112,2,220,2|2|2,0:0|0:0|0:0,0:0:0:0:
32,176,22807,5,2,0:0:0:0:
256,128,23221,1,2,0:0:0:0:
128,272,23634,6,0,L|352:208|352:208,1,220,2|2,0:0|0:0,0:0:0:0:
144,64,24462,6,0,L|88:200,1,110,2|8,0:0|0:0,0:0:0:0:
239,63,24876,2,0,L|288:176,1,110,8|8,0:0|0:0,0:0:0:0:
384,160,25290,6,0,L|432:48,1,110,2|8,0:0|0:0,0:0:0:0:
284,164,25703,2,0,L|239:63,1,110,8|8,0:0|0:0,0:0:0:0:
112,336,26117,6,0,B|528:136|528:136|488:72|426:48,1,550,10|0,0:2|0:2,0:2:0:0:
378,64,27358,2,0,L|274:128,1,110,8|8,0:1|0:2,0:0:0:0:
10,128,27772,1,0,0:0:0:44:LR3_BassDropSSG.wav
192,32,28186,6,0,P|304:64|400:160,2,220,2|8|2,0:0|0:0|0:0,0:0:0:0:
16,224,29427,5,2,0:0:0:0:
240,304,29841,1,2,0:0:0:0:
432,288,30255,2,0,L|224:176,1,220,2|2,0:0|0:0,0:0:0:0:
456,48,31083,6,0,P|440:208|344:344,1,330,2|8,0:0|0:0,0:0:0:0:
248,200,31910,2,0,L|207:97,1,110,2|8,0:0|0:0,0:0:0:0:
336,88,32324,2,0,L|376:190,1,110,2|8,0:0|0:0,0:0:0:0:
276,32,32738,6,0,B|12:120|12:120|12:240|12:240|12:184|12:184|10:328,1,550,2|0,0:2|0:0,0:0:0:0:
94,346,33979,2,0,L|254:346,1,127.600003894043,8|8,1:1|0:0,1:1:0:0:
496,336,34393,1,8,0:0:0:0:
400,272,34600,1,2,0:0:0:0:
432,224,34807,1,2,0:0:0:0:
288,48,35014,5,8,0:0:0:0:
16,48,35221,1,8,0:0:0:0:
128,112,35427,1,2,0:0:0:0:
96,160,35634,1,2,0:0:0:0:
224,240,35841,5,8,0:0:0:0:
496,240,36048,1,8,0:0:0:0:
400,160,36255,1,2,0:0:0:0:
432,112,36462,1,2,0:0:0:0:
288,64,36669,5,8,0:0:0:0:
16,64,36876,1,8,0:0:0:0:
112,112,37083,1,2,0:0:0:0:
80,160,37290,1,2,0:0:0:0:
190,234,37496,5,8,0:0:0:0:
272,272,37703,2,0,L|384:320,1,110,2|4,0:0|0:0,0:0:0:0:
224,256,38117,2,0,L|96:304,1,110,8|4,0:0|0:0,0:0:0:0:
272,240,38531,2,0,L|384:184,1,110,2|4,0:0|0:0,0:0:0:0:
208,192,38945,1,8,0:0:0:0:
400,160,39358,6,0,L|528:96,1,110,2|4,0:0|0:0,0:0:0:0:
336,160,39772,2,0,L|224:80,1,110,8|4,0:0|0:0,0:0:0:0:
400,208,40186,1,0,0:0:0:0:
247,223,40600,1,8,0:0:0:0:
336,336,40807,5,8,0:0:0:0:
64,336,41014,1,8,0:0:0:0:
114,280,41221,1,2,0:0:0:0:
64,224,41428,1,2,0:0:0:0:
208,176,41634,5,8,0:0:0:0:
480,176,41841,1,8,0:0:0:0:
427,121,42048,1,2,0:0:0:0:
480,64,42255,1,2,0:0:0:0:
336,48,42462,5,8,0:0:0:0:
64,48,42669,1,8,0:0:0:0:
112,101,42876,1,2,0:0:0:0:
64,160,43083,1,2,0:0:0:0:
208,176,43290,5,8,0:0:0:0:
480,176,43497,1,8,0:0:0:0:
422,236,43704,1,2,0:0:0:0:
480,288,43911,1,2,0:0:0:0:
304,208,44117,5,8,0:0:0:0:
384,96,44324,1,2,0:0:0:0:
187,162,44531,1,2,0:0:0:0:
16,272,44738,1,4,2:0:0:45:
496,320,45152,1,4,2:2:0:45:
311,322,45565,5,2,0:0:0:0:
400,256,45772,1,2,0:0:0:0:
496,208,45979,1,4,2:0:0:45:
16,256,46393,1,4,2:2:0:50:
160,144,46807,5,0,0:0:0:50:LR3_Kick WBDS.wav
184,96,46910,1,0,0:0:0:33:LR_Kick Low Strong Beat.wav
99,143,47014,1,2,0:0:0:55:
83,87,47117,1,0,0:0:0:33:LR_Kick Low Strong Beat.wav
216,48,47221,1,0,0:0:0:68:LR3_BassDropSSG.wav
64,304,47634,5,2,0:0:0:0:
224,288,47841,1,4,0:0:0:0:
496,208,48048,1,8,0:0:0:0:
448,272,48462,5,2,0:0:0:0:
288,208,48669,1,4,0:0:0:0:
16,208,48876,1,8,0:0:0:0:
192,192,49290,5,2,0:0:0:0:
320,128,49497,1,4,0:0:0:0:
200,96,49703,2,0,L|88:16,1,110,8|4,0:0|0:0,0:0:0:0:
288,256,50117,1,2,0:0:0:0:
64,208,50531,6,0,L|224:208,1,159.500004867554,8|4,0:0|0:0,0:0:0:0:
512,208,50945,2,0,L|448:80,1,110,2|4,0:0|0:0,0:0:0:0:
320,112,51358,6,0,L|320:224,1,110,8|4,0:0|0:0,0:0:0:0:
176,112,51772,2,0,L|96:224,1,110,2|4,0:0|0:0,0:0:0:0:
304,64,52186,1,8,0:0:0:0:
208,32,52393,1,4,0:0:0:0:
342,125,52600,6,0,L|438:237,1,110,2|4,0:0|0:0,0:0:0:0:
200,144,53014,2,0,P|216:256|296:352,1,220,8|2,0:0|0:0,0:0:0:0:
120,336,53634,1,6,0:0:0:0:
280,192,53841,2,0,L|232:80,1,110,8|4,0:0|0:0,0:0:0:0:
128,232,54255,1,4,0:2:0:50:
48,136,54462,5,4,0:0:0:0:
336,88,54669,1,8,0:0:0:0:
224,144,55083,5,2,0:0:0:0:
304,240,55290,1,4,0:0:0:0:
16,288,55497,1,8,0:0:0:0:
168,120,55910,5,2,0:0:0:0:
96,40,56117,1,4,0:0:0:0:
288,40,56324,2,0,L|384:136,1,110,8|4,0:0|0:0,0:0:0:0:
96,152,56738,2,0,L|0:232,1,110,2|4,0:0|0:0,0:0:0:0:
144,240,57152,5,8,0:0:0:0:
224,160,57358,1,4,0:0:0:0:
56,81,57565,1,2,0:0:0:0:
261,304,57979,5,8,0:0:0:0:
392,240,58185,1,4,0:0:0:0:
501,176,58392,1,2,0:0:0:0:
261,272,58807,5,8,0:0:0:0:
176,192,59013,1,4,0:0:0:0:
360,112,59220,1,2,0:0:0:0:
112,272,59634,5,8,0:0:0:0:
224,192,59840,1,4,0:0:0:0:
336,112,60048,2,0,L|391:16,3,110,2|12|8|4,0:0|0:0|0:0|0:0,0:0:0:0:
448,224,60876,1,4,0:2:0:50:
288,176,61083,5,4,0:0:0:0:
16,144,61290,1,8,0:0:0:0:
64,304,61704,5,2,0:0:0:0:
224,240,61911,1,4,0:0:0:0:
496,192,62118,1,8,0:0:0:0:
328,240,62532,5,2,0:0:0:0:
420,168,62739,1,4,0:0:0:0:
271,138,62945,2,0,L|359:58,1,110,8|4,0:0|0:0,0:0:0:0:
228,41,63358,2,0,L|132:137,1,110,2|4,0:0|0:3,0:0:0:0:
64,208,63772,6,0,L|240:208,1,159.500004867554,8|4,0:0|0:0,0:0:0:0:
496,208,64187,2,0,L|432:96,1,110,2|4,0:0|0:0,0:0:0:0:
368,128,64600,2,0,L|368:256,1,110,8|4,0:0|0:0,0:0:0:0:
272,128,65014,6,0,L|224:240,1,110,2|4,0:0|0:0,0:0:0:0:
369,225,65427,1,8,0:0:0:0:
450,306,65634,1,4,0:0:0:0:
295,226,65841,5,2,0:0:0:0:
207,311,66048,1,4,0:0:0:0:
96,320,66256,2,0,L|80:200,1,110,8|4,0:0|0:0,0:0:0:0:
240,304,66669,1,2,0:0:0:0:
304,224,66876,1,12,0:0:0:0:
240,160,67083,1,8,0:0:0:0:
496,96,67496,6,0,L|416:192,3,110,2|4|8|4,0:0|0:0|0:0|0:0,0:0:0:0:
135,96,68324,1,4,0:2:0:50:
336,336,68738,5,8,0:0:0:0:
421,289,68945,1,4,0:0:0:0:
496,256,69152,1,4,2:2:0:0:
226,24,69358,2,0,L|410:192,1,220,4|4,2:2|0:3,2:2:0:0:
287,205,69979,1,4,0:2:0:0:
16,200,70186,2,0,L|199:369,1,220,4|4,0:2|0:3,2:2:0:0:
0,64,70807,1,4,0:2:0:0:
256,192,71221,12,4,72048,2:2:0:0:
295,337,72462,5,2,0:0:0:0:
24,288,72669,1,2,0:0:0:0:
81,204,72876,2,0,L|16:112,1,110
96,40,73290,1,2,0:0:0:0:
368,96,73497,1,2,0:0:0:0:
325,200,73703,2,0,L|399:292,1,110
120,48,74117,1,2,0:0:0:44:LR3_BassDropSSG.wav
203,121,74324,5,4,0:0:0:0:
79,164,74531,2,0,L|195:246,1,110,8|4,0:0|0:0,0:0:0:0:
304,224,74945,1,2,0:0:0:0:
216,304,75152,1,4,0:0:0:0:
378,277,75359,2,0,L|268:371,1,110,8|4,0:0|0:0,0:0:0:0:
144,344,75772,5,2,0:0:0:0:
232,224,75979,1,4,0:0:0:0:
112,224,76186,2,0,L|232:152,1,110,8|4,0:0|0:0,0:0:0:0:
368,216,76600,2,0,L|256:160,1,110,2|4,0:0|0:0,0:0:0:0:
432,168,77014,2,0,L|320:112,1,110,2|4,0:1|0:3,0:0:0:0:
64,40,77427,1,2,0:0:0:0:
160,96,77634,5,4,0:0:0:0:
240,160,77841,2,0,L|176:272,1,110,8|4,0:0|0:0,0:0:0:0:
320,64,78255,1,2,0:0:0:0:
400,128,78462,5,4,0:0:0:0:
272,160,78669,2,0,L|352:256,1,110,8|4,0:0|0:0,0:0:0:0:
208,256,79083,5,2,0:0:0:0:
150,319,79290,1,4,0:0:0:0:
306,340,79497,2,0,L|234:244,1,110,8|4,0:0|0:0,0:0:0:0:
425,333,79910,2,0,L|337:213,1,110,2|4,0:0|0:0,0:0:0:0:
485,259,80324,1,8,0:0:0:0:
192,128,80738,5,4,0:2:0:48:
296,80,80945,1,4,0:0:0:0:
408,32,81152,1,8,0:0:0:0:
112,280,81565,5,2,0:0:0:48:
232,224,81772,1,4,0:0:0:0:
352,176,81979,1,8,0:0:0:0:
120,120,82393,6,0,L|24:200,1,110,2|4,0:1|0:3,0:0:0:0:
192,176,82807,2,0,L|280:280,1,110,8|4,0:0|0:0,0:0:0:0:
128,176,83221,2,0,L|16:272,1,110,2|4,0:0|0:0,0:0:0:0:
192,240,83634,2,0,L|80:336,1,110,2|4,0:1|0:3,0:0:0:0:
302,197,84048,5,2,0:0:0:0:
384,112,84255,1,4,0:0:0:0:
240,64,84462,1,8,0:0:0:0:
118,113,84875,5,2,0:0:0:48:
32,192,85082,1,4,0:0:0:0:
192,256,85289,1,8,0:0:0:0:
347,239,85703,5,2,0:0:0:48:
283,159,85910,1,4,0:0:0:0:
432,96,86117,1,8,0:0:0:0:
224,160,86531,1,2,0:0:0:0:
368,224,86738,6,0,L|368:368,1,110,4|4,0:1|0:1,0:1:0:0:
245,224,87152,1,2,2:2:1:8:
277,256,87221,1,2,2:2:1:8:
245,288,87290,1,2,2:2:1:8:
269,320,87358,1,2,2:2:1:8:
139,224,87565,1,2,2:2:1:8:
155,256,87634,1,2,2:2:1:8:
139,288,87703,1,2,2:2:1:8:
43,223,87979,1,2,2:2:1:8:
23,254,88048,1,2,2:2:1:8:
37,286,88117,1,2,2:2:1:8:
