osu file format v14

[General]
AudioFilename: neptuneED.mp3
AudioLeadIn: 0
PreviewTime: 47640
Countdown: 0
SampleSet: Soft
StackLeniency: 0.7
Mode: 0
LetterboxInBreaks: 0
WidescreenStoryboard: 0

[Editor]
DistanceSpacing: 1.4
BeatDivisor: 4
GridSize: 4
TimelineZoom: 1

[Metadata]
Title:Neptune*Sagashite
TitleUnicode:ネプテューヌ☆サガして
Artist:Afilia Saga
ArtistUnicode:アフィリア・サーガ
Creator:Gear
Version:Hard
Source:超次元ゲイム ネプテューヌ
Tags:THE ANIMATION Hyperdimension Neptunia Ending Choujigen Game Neptune Kosuke Oshima Momoi Haruko East
BeatmapID:735355
BeatmapSetID:332082

[Difficulty]
HPDrainRate:5.5
CircleSize:3.5
OverallDifficulty:6
ApproachRate:7.2
SliderMultiplier:1.4
SliderTickRate:2

[Events]
//Background and Video events
0,0,"neptuneBG.jpg",0,0
Video,-60,"NEPTUNE SAGA SHIT.avi"
//Break Periods
//Storyboard Layer 0 (Background)
//Storyboard Layer 1 (Fail)
//Storyboard Layer 2 (Pass)
//Storyboard Layer 3 (Foreground)
//Storyboard Sound Samples

[TimingPoints]
1295,413.793103448276,4,2,0,40,1,0
7295,-100,4,2,0,25,0,0
7915,-100,4,2,1,60,0,0
20743,-100,4,2,1,30,0,0
21157,-100,4,2,1,40,0,0
34398,-100,4,2,1,60,0,0
47639,-100,4,2,1,70,0,1
72467,-100,4,2,1,70,0,0
74122,-100,4,2,1,60,0,0
86536,-100,4,2,1,45,0,0

[Colours]
Combo1 : 234,114,55
Combo2 : 204,57,204
Combo3 : 30,90,232
Combo4 : 58,233,67

[HitObjects]
64,44,1295,6,0,L|76:120,1,70
92,208,1708,1,2,0:0:0:0:
268,120,2122,2,0,L|256:196,1,70
240,284,2536,1,2,0:0:0:0:
436,304,2950,2,0,L|448:228,1,70
464,139,3364,2,0,P|400:112|331:116,1,140,2|2,0:0|0:0,0:0:0:0:
492,228,4191,1,2,0:0:0:0:
328,332,4605,6,0,P|293:326|259:316,1,70
176,263,5019,1,2,0:0:0:0:
235,76,5433,2,0,P|270:83|304:93,1,70
386,144,5846,1,2,0:0:0:0:
192,168,6260,2,0,P|157:161|123:151,1,70
40,99,6674,1,2,0:0:0:0:
82,289,7088,1,2,0:0:0:0:
82,289,7295,1,4,0:0:0:0:
82,289,7915,5,6,0:0:0:0:
164,236,8122,1,0,0:0:0:0:
228,312,8329,2,0,L|297:321,1,70,8|0,0:0|0:0,0:0:0:0:
360,248,8743,1,2,0:0:0:0:
442,301,8950,1,0,0:0:0:0:
448,203,9157,2,0,P|450:169|436:137,1,70,8|0,0:0|0:0,0:0:0:0:
364,72,9571,5,2,0:0:0:0:
296,180,9777,1,0,0:0:0:0:
236,64,9984,2,0,P|201:56|167:59,1,70,8|0,0:0|0:0,0:0:0:0:
116,144,10398,2,0,P|110:211|104:283,1,140,2|8,0:0|0:0,0:0:0:0:
96,380,11019,1,0,0:0:0:0:
183,332,11226,6,0,P|217:322|252:319,1,70,2|0,0:0|0:0,0:0:0:0:
348,340,11640,2,0,P|378:322|405:300,1,70,8|0,0:0|0:0,0:0:0:0:
452,212,12053,1,2,0:0:0:0:
356,200,12260,1,0,0:0:0:0:
408,116,12467,2,0,P|381:93|350:76,1,70,8|0,0:0|0:0,0:0:0:0:
252,60,12881,5,2,0:0:0:0:
184,168,13088,1,0,0:0:0:0:
124,52,13295,2,0,P|89:44|55:47,1,70,8|0,0:0|0:0,0:0:0:0:
20,140,13708,2,0,P|13:209|35:275,1,140,2|8,0:0|0:0,0:0:0:0:
116,332,14329,1,0,0:0:0:0:
124,236,14536,5,6,0:0:0:0:
208,288,14743,1,0,0:0:0:0:
212,192,14950,2,0,L|282:192,1,70,8|0,0:0|0:0,0:0:0:0:
292,288,15364,1,2,0:0:0:0:
376,236,15571,1,0,0:0:0:0:
380,332,15777,2,0,L|450:332,1,70,8|0,0:0|0:0,0:0:0:0:
463,236,16191,6,0,P|459:201|437:174,1,70,2|0,0:0|0:0,0:0:0:0:
309,227,16605,2,0,P|341:239|375:235,1,70,8|0,0:0|0:0,0:0:0:0:
391,95,17019,2,0,P|325:76|255:80,1,140,2|8,0:0|0:0,0:0:0:0:
168,128,17640,1,0,0:0:0:0:
168,224,17846,6,0,L|175:293,1,70,2|0,0:0|0:0,0:0:0:0:
268,324,18260,2,0,L|260:254,1,70,8|0,0:0|0:0,0:0:0:0:
344,200,18674,2,0,L|351:269,1,70,2|0,0:0|0:0,0:0:0:0:
444,300,19088,2,0,L|436:230,1,70,8|0,0:0|0:0,0:0:0:0:
428,132,19502,5,2,0:0:0:0:
428,132,19708,1,0,0:0:0:0:
331,115,19915,2,0,P|297:123|273:148,1,70,8|0,0:0|0:0,0:0:0:0:
264,248,20329,1,2,0:0:0:0:
352,204,20536,1,0,0:0:0:0:
348,300,20743,1,8,0:0:0:0:
348,300,21157,6,0,P|321:324|290:335,1,70
244,248,21571,2,0,P|209:240|176:246,1,70,2|0,0:0|0:0,0:0:0:0:
120,328,21984,2,0,P|63:289|50:222,1,140,2|0,0:0|0:0,0:0:0:0:
68,124,22605,1,0,0:0:0:0:
160,156,22812,6,0,P|229:164|298:155,1,140,2|0,0:0|0:0,0:0:0:0:
372,92,23433,1,0,0:0:0:0:
448,156,23640,2,0,L|460:224,1,70,2|0,0:0|0:0,0:0:0:0:
352,284,24053,2,0,L|364:216,1,70,2|0,0:0|0:0,0:0:0:0:
428,328,24467,6,0,P|372:367|304:355,1,140,2|0,0:0|0:0,0:0:0:0:
200,188,25295,2,0,L|171:124,1,70,2|0,0:0|0:0,0:0:0:0:
108,196,25708,2,0,L|136:259,1,70,2|0,0:0|0:0,0:0:0:0:
228,296,26122,6,0,B|260:304|295:294|295:294|332:284|367:294,1,140,2|0,0:0|0:0,0:0:0:0:
460,320,26743,1,0,0:0:0:0:
435,224,26950,2,0,P|432:189|441:155,1,70
336,128,27364,2,0,P|341:162|335:196,1,70
404,68,27777,5,8,0:0:0:0:
404,68,28191,2,0,P|373:50|340:40,1,70,2|0,0:0|0:0,0:0:0:0:
244,48,28605,2,0,P|210:56|179:73,1,70,2|0,0:0|0:0,0:0:0:0:
156,168,29019,2,0,L|156:238,1,70,2|0,0:0|0:0,0:0:0:0:
148,336,29433,6,0,P|213:316|251:259,1,140,2|0,0:0|0:0,0:0:0:0:
256,160,30053,1,0,0:0:0:0:
335,212,30260,2,0,P|370:205|402:192,1,70,2|0,0:0|0:0,0:0:0:0:
448,316,30674,2,0,P|413:309|381:296,1,70,2|0,0:0|0:0,0:0:0:0:
255,239,31088,6,0,P|261:172|314:128,1,140,2|0,0:0|0:0,0:0:0:0:
340,324,31915,2,0,P|313:346|280:356,1,70,2|0,0:0|0:0,0:0:0:0:
199,300,32329,2,0,P|174:323|158:354,1,70,2|0,0:0|0:0,0:0:0:0:
98,275,32743,6,0,P|99:205|63:146,1,140,2|0,0:0|0:0,0:0:0:0:
244,72,33571,2,0,L|312:58,1,70
400,104,33984,1,0,0:0:0:0:
316,156,34191,1,2,0:0:0:0:
400,208,34398,5,2,0:0:0:0:
400,208,34605,1,8,0:0:0:0:
316,260,34812,2,0,L|316:340,1,70,8|2,0:0|0:0,0:0:0:0:
316,156,35226,1,2,0:0:0:0:
316,156,35433,1,8,0:0:0:0:
232,208,35640,2,0,L|232:288,1,70,8|2,0:0|0:0,0:0:0:0:
232,104,36053,5,2,0:0:0:0:
232,104,36260,1,8,0:0:0:0:
148,156,36467,2,0,L|148:236,1,70,8|2,0:0|0:0,0:0:0:0:
148,52,36881,1,2,0:0:0:0:
148,52,37088,1,8,0:0:0:0:
64,104,37295,2,0,L|64:184,1,70,8|2,0:0|0:0,0:0:0:0:
147,225,37708,6,0,P|181:216|204:191,1,70,2|0,0:0|0:0,0:0:0:0:
307,191,38122,2,0,P|330:216|364:225,1,70,8|0,0:0|0:0,0:0:0:0:
372,100,38536,2,0,P|341:82|307:75,1,70,2|0,0:0|0:0,0:0:0:0:
204,75,38950,2,0,P|170:82|140:100,1,70,8|0,0:0|0:0,0:0:0:0:
84,184,39364,6,0,L|73:253,1,70,2|0,0:0|0:0,0:0:0:0:
192,352,39777,2,0,L|181:282,1,70,8|0,0:0|0:0,0:0:0:0:
330,282,40191,2,0,L|320:352,1,70,2|0,0:0|0:0,0:0:0:0:
420,248,40605,1,8,0:0:0:0:
396,152,40812,1,2,0:0:0:0:
312,204,41019,5,2,0:0:0:0:
308,104,41226,1,8,0:0:0:0:
224,156,41433,2,0,L|154:156,1,70,8|2,0:0|0:0,0:0:0:0:
56,148,41846,1,2,0:0:0:0:
112,228,42053,1,8,0:0:0:0:
16,236,42260,2,0,L|16:306,1,70,8|2,0:0|0:0,0:0:0:0:
112,324,42674,5,2,0:0:0:0:
200,276,42881,1,8,0:0:0:0:
112,228,43088,2,0,L|128:159,1,70,8|2,0:0|0:0,0:0:0:0:
152,64,43502,1,2,0:0:0:0:
228,124,43708,1,8,0:0:0:0:
252,28,43915,2,0,P|285:38|314:57,1,70,8|2,0:0|0:0,0:0:0:0:
328,156,44329,5,2,0:0:0:0:
328,156,44536,1,0,0:0:0:0:
308,252,44743,2,0,P|314:286|323:320,1,70,2|0,0:0|0:0,0:0:0:0:
204,252,45157,2,0,P|198:286|189:320,1,70,2|0,0:0|0:0,0:0:0:0:
112,260,45571,1,0,0:0:0:0:
148,168,45777,1,0,0:0:0:0:
52,179,45984,6,0,P|27:204|16:237,1,70,2|0,0:0|0:0,0:0:0:0:
40,332,46398,1,2,0:0:0:0:
148,168,46812,2,0,L|157:133,3,35
166,98,47226,1,12,0:0:0:0:
166,98,47640,5,6,0:0:0:0:
260,68,47846,1,0,0:0:0:0:
236,163,48053,2,0,P|241:198|265:222,1,70,8|0,0:0|0:0,0:0:0:0:
430,182,48467,1,2,0:0:0:0:
336,152,48674,1,0,0:0:0:0:
359,246,48881,2,0,P|318:302|251:318,1,140,8|2,0:0|0:0,0:0:0:0:
176,252,49502,5,0,0:0:0:0:
92,304,49708,2,0,L|114:370,1,70,8|0,0:0|0:0,0:0:0:0:
96,216,50122,2,0,L|73:149,1,70,2|0,0:0|0:0,0:0:0:0:
120,64,50536,1,8,0:0:0:0:
176,144,50743,1,0,0:0:0:0:
252,80,50950,6,0,L|321:91,1,70,6|0,0:0|0:0,0:0:0:0:
372,176,51364,2,0,L|302:187,1,70,8|0,0:0|0:0,0:0:0:0:
252,272,51777,2,0,P|303:318|370:334,1,140,2|8,0:0|0:0,0:0:0:0:
460,292,52398,1,0,0:0:0:0:
460,192,52605,6,0,L|463:122,1,70,2|0,0:0|0:0,0:0:0:0:
360,40,53019,2,0,L|363:109,1,70,8|0,0:0|0:0,0:0:0:0:
376,240,53433,1,10,0:0:0:0:
276,164,53640,1,8,0:0:0:0:
272,288,53846,2,0,P|237:291|203:282,1,70,8|0,0:0|0:0,0:0:0:0:
116,240,54260,5,6,0:0:0:0:
156,152,54467,1,0,0:0:0:0:
60,159,54674,2,0,P|36:185|22:217,1,70,8|0,0:0|0:0,0:0:0:0:
76,328,55088,1,2,0:0:0:0:
116,240,55295,1,0,0:0:0:0:
171,315,55501,2,0,P|237:297|275:240,1,140,8|2,0:0|0:0,0:0:0:0:
316,152,56122,5,0,0:0:0:0:
383,220,56329,2,0,P|403:190|408:156,1,70,8|0,0:0|0:0,0:0:0:0:
248,84,56743,2,0,P|228:113|223:147,1,70,2|0,0:0|0:0,0:0:0:0:
224,244,57157,1,8,0:0:0:0:
304,300,57364,1,0,0:0:0:0:
358,218,57570,6,0,P|390:234|411:261,1,70,6|0,0:0|0:0,0:0:0:0:
484,324,57984,1,8,0:0:0:0:
392,356,58191,1,0,0:0:0:0:
500,228,58398,2,0,P|492:192|477:160,1,70,2|0,0:0|0:0,0:0:0:0:
416,84,58812,1,8,0:0:0:0:
320,112,59019,1,0,0:0:0:0:
279,200,59226,6,0,P|249:219|216:228,1,70,6|0,0:0|0:0,0:0:0:0:
116,228,59640,1,8,0:0:0:0:
168,148,59846,1,0,0:0:0:0:
72,140,60053,1,10,0:0:0:0:
215,228,60260,1,8,0:0:0:0:
248,68,60467,2,0,P|281:55|316:59,1,70,8|0,0:0|0:0,0:0:0:0:
400,104,60881,6,0,L|403:173,1,70,6|0,0:0|0:0,0:0:0:0:
364,264,61295,2,0,P|298:242|232:262,1,140,8|2,0:0|0:0,0:0:0:0:
160,328,61915,1,0,0:0:0:0:
120,239,62122,2,0,P|123:169|115:99,1,140,8|2,0:0|0:0,0:0:0:0:
28,56,62743,5,0,0:0:0:0:
115,15,62950,2,0,P|149:23|179:42,1,70,8|0,0:0|0:0,0:0:0:0:
212,180,63364,2,0,P|245:169|273:148,1,70,2|0,0:0|0:0,0:0:0:0:
316,60,63777,1,8,0:0:0:0:
376,136,63984,1,0,0:0:0:0:
472,120,64191,6,0,P|471:154|462:188,1,70,6|0,0:0|0:0,0:0:0:0:
388,256,64605,2,0,P|352:255|319:238,1,70,8|0,0:0|0:0,0:0:0:0:
279,151,65019,2,0,P|211:152|160:198,1,140,2|8,0:0|0:0,0:0:0:0:
108,280,65640,1,0,0:0:0:0:
28,224,65846,6,0,L|20:154,1,70,2|0,0:0|0:0,0:0:0:0:
127,78,66260,2,0,L|120:148,1,70,8|0,0:0|0:0,0:0:0:0:
108,280,66674,1,10,0:0:0:0:
200,200,66881,1,8,0:0:0:0:
211,319,67088,2,0,P|246:323|280:315,1,70,8|0,0:0|0:0,0:0:0:0:
328,232,67502,5,6,0:0:0:0:
364,324,67708,1,0,0:0:0:0:
424,248,67915,2,0,L|471:299,1,70,8|0,0:0|0:0,0:0:0:0:
444,156,68329,2,0,P|408:154|375:165,1,70,6|0,0:0|0:0,0:0:0:0:
312,240,68743,1,8,0:0:0:0:
280,148,68950,1,0,0:0:0:0:
216,220,69157,5,8,0:0:0:0:
184,128,69364,1,8,0:0:0:0:
120,200,69571,2,0,L|74:253,1,70
216,220,69984,1,8,0:0:0:0:
173,307,70191,1,8,0:0:0:0:
269,301,70398,2,0,P|302:292|337:289,1,70
436,283,70812,6,0,P|444:215|416:152,1,140,6|8,0:0|0:0,0:0:0:0:
328,108,71433,1,0,0:0:0:0:
256,175,71640,2,0,P|223:189|189:192,1,70,2|0,0:0|0:0,0:0:0:0:
96,164,72053,2,0,P|68:143|48:114,1,70,8|0,0:0|0:0,0:0:0:0:
140,76,72467,5,8,0:0:0:0:
192,160,72674,1,8,0:0:0:0:
244,76,72881,1,0,0:0:0:0:
420,164,73295,1,8,0:0:0:0:
368,80,73502,1,8,0:0:0:0:
316,163,73708,2,0,P|319:198|338:227,1,70
464,76,74122,5,6,0:0:0:0:
464,76,74329,1,0,0:0:0:0:
472,172,74536,2,0,L|472:242,1,70,8|0,0:0|0:0,0:0:0:0:
376,264,74950,1,2,0:0:0:0:
444,336,75157,1,0,0:0:0:0:
348,356,75364,2,0,P|317:339|292:314,1,70,8|0,0:0|0:0,0:0:0:0:
268,220,75777,6,0,L|247:153,1,70,2|0,0:0|0:0,0:0:0:0:
104,196,76191,2,0,L|124:262,1,70,8|0,0:0|0:0,0:0:0:0:
216,304,76605,2,0,L|174:170,1,140,2|8,0:0|0:0,0:0:0:0:
148,76,77226,1,0,0:0:0:0:
243,103,77433,5,2,0:0:0:0:
224,8,77640,1,0,0:0:0:0:
316,36,77846,2,0,L|383:53,1,70,8|0,0:0|0:0,0:0:0:0:
476,88,78260,1,2,0:0:0:0:
495,183,78467,1,0,0:0:0:0:
403,155,78674,2,0,L|335:137,1,70,8|0,0:0|0:0,0:0:0:0:
252,192,79088,6,0,P|277:215|309:229,1,70,2|0,0:0|0:0,0:0:0:0:
380,300,79502,2,0,L|312:320,1,70,8|0,0:0|0:0,0:0:0:0:
131,300,79915,2,0,P|163:285|189:262,1,70,2|0,0:0|0:0,0:0:0:0:
152,172,80329,1,8,0:0:0:0:
68,224,80536,1,0,0:0:0:0:
64,123,80743,6,0,P|84:95|115:80,1,70,6|0,0:0|0:0,0:0:0:0:
212,88,81157,2,0,P|255:140|248:208,1,140,8|2,0:0|0:0,0:0:0:0:
168,264,81777,1,0,0:0:0:0:
215,347,81984,2,0,P|248:359|283:360,1,70,8|0,0:0|0:0,0:0:0:0:
340,280,82398,6,0,L|352:212,1,70,2|0,0:0|0:0,0:0:0:0:
444,176,82812,2,0,L|432:244,1,70,8|0,0:0|0:0,0:0:0:0:
288,164,83226,2,0,P|314:141|348:131,1,70,2|0,0:0|0:0,0:0:0:0:
352,232,83640,1,8,0:0:0:0:
256,252,83846,1,0,0:0:0:0:
320,328,84053,6,0,P|288:343|254:347,1,70,2|0,0:0|0:0,0:0:0:0:
160,320,84467,1,8,0:0:0:0:
160,320,84674,1,0,0:0:0:0:
120,228,84881,2,0,P|122:193|135:160,1,70,2|0,0:0|0:0,0:0:0:0:
206,93,85295,1,8,0:0:0:0:
206,93,85502,1,0,0:0:0:0:
256,176,85708,1,2,0:0:0:0:
327,109,85915,1,0,0:0:0:0:
376,192,86122,6,0,L|348:329,1,140,8|10,0:0|0:0,0:0:0:0:
