osu file format v14

[General]
AudioFilename: neptuneED.mp3
AudioLeadIn: 0
PreviewTime: 47640
Countdown: 0
SampleSet: Soft
StackLeniency: 0.7
Mode: 0
LetterboxInBreaks: 0
WidescreenStoryboard: 0

[Editor]
DistanceSpacing: 1
BeatDivisor: 4
GridSize: 4
TimelineZoom: 1

[Metadata]
Title:Neptune*Sagashite
TitleUnicode:ネプテューヌ☆サガして
Artist:Afilia Saga
ArtistUnicode:アフィリア・サーガ
Creator:Gear
Version:Easy
Source:超次元ゲイム ネプテューヌ
Tags:THE ANIMATION Hyperdimension Neptunia Ending Choujigen Game Neptune Kosuke Oshima Momoi Haruko East
BeatmapID:735354
BeatmapSetID:332082

[Difficulty]
HPDrainRate:2
CircleSize:2.5
OverallDifficulty:2
ApproachRate:2.5
SliderMultiplier:0.9
SliderTickRate:2

[Events]
//Background and Video events
0,0,"neptuneBG.jpg",0,0
Video,-60,"NEPTUNE SAGA SHIT.avi"
//Break Periods
//Storyboard Layer 0 (Background)
//Storyboard Layer 1 (Fail)
//Storyboard Layer 2 (Pass)
//Storyboard Layer 3 (Foreground)
//Storyboard Sound Samples

[TimingPoints]
1295,413.793103448276,4,2,0,40,1,0
7915,-100,4,2,1,60,0,0
20743,-100,4,2,1,30,0,0
21157,-100,4,2,1,40,0,0
34398,-100,4,2,1,60,0,0
47639,-100,4,2,1,70,0,1
72467,-100,4,2,1,70,0,0
74122,-100,4,2,1,60,0,0
86536,-100,4,2,1,45,0,0

[Colours]
Combo1 : 234,114,55
Combo2 : 204,57,204
Combo3 : 30,90,232
Combo4 : 58,233,67

[HitObjects]
72,128,1295,6,0,P|85:207|164:191,1,180,2|2,0:0|0:0,0:0:0:0:
348,192,2950,2,0,P|427:208|440:128,1,180,2|2,0:0|0:0,0:0:0:0:
264,84,4605,6,0,P|177:68|100:111,1,180,2|2,0:0|0:0,0:0:0:0:
124,288,6260,2,0,P|211:304|288:261,1,180,2|2,0:0|0:0,0:0:0:0:
304,80,7915,6,0,L|392:63,1,90,6|8,0:0|0:0,0:0:0:0:
421,147,8743,2,0,L|332:162,1,90,2|8,0:0|0:0,0:0:0:0:
280,236,9571,2,0,P|319:251|365:246,2,90,2|8|2,0:0|0:0|0:0,0:0:0:0:
196,204,10812,1,8,0:0:0:0:
212,116,11226,6,0,P|169:103|125:111,1,90,2|8,0:0|0:0,0:0:0:0:
64,176,12053,2,0,L|60:265,1,90,2|8,0:0|0:0,0:0:0:0:
124,328,12881,2,0,P|166:340|210:332,2,90,2|8|2,0:0|0:0|0:0,0:0:0:0:
172,252,14122,1,8,0:0:0:0:
220,176,14536,6,0,P|248:209|259:253,1,90,6|8,0:0|0:0,0:0:0:0:
348,252,15364,2,0,P|358:208|387:174,1,90,2|8,0:0|0:0,0:0:0:0:
436,252,16191,2,0,L|436:342,2,90,2|8|2,0:0|0:0|0:0,0:0:0:0:
484,176,17433,1,8,0:0:0:0:
436,100,17846,6,0,P|391:91|347:98,1,90,2|8,0:0|0:0,0:0:0:0:
348,188,18674,2,0,P|303:194|259:186,1,90,2|8,0:0|0:0,0:0:0:0:
192,124,19502,2,0,P|173:164|171:209,2,90,2|8|2,0:0|0:0|0:0,0:0:0:0:
256,60,20743,1,8,0:0:0:0:
348,60,21157,6,0,P|423:104|448:188,1,180
424,276,22398,1,2,0:0:0:0:
360,212,22812,2,0,B|316:196|271:212|271:212|228:228|184:212,1,180,2|0,0:0|0:0,0:0:0:0:
112,160,24053,1,2,0:0:0:0:
39,216,24467,6,0,P|34:260|39:305,1,90,2|0,0:0|0:0,0:0:0:0:
120,348,25295,2,0,P|161:330|197:303,1,90,2|0,0:0|0:0,0:0:0:0:
255,236,26122,2,0,P|328:200|365:272,1,180,2|0,0:0|0:0,0:0:0:0:
288,320,27364,1,0,0:0:0:0:
200,312,27777,6,0,L|110:312,1,90,8|0,0:0|0:0,0:0:0:0:
23,292,28605,2,0,P|41:251|78:226,1,90,2|0,0:0|0:0,0:0:0:0:
80,136,29433,2,0,P|42:111|25:70,1,90,2|0,0:0|0:0,0:0:0:0:
111,50,30260,2,0,L|201:50,1,90,2|0,0:0|0:0,0:0:0:0:
292,52,31088,6,0,P|319:135|292:219,1,180,2|0,0:0|0:0,0:0:0:0:
212,260,32329,1,2,0:0:0:0:
284,312,32743,2,0,B|328:296|372:312|372:312|416:328|460:312,1,180,2|0,0:0|0:0,0:0:0:0:
476,224,33984,1,0,0:0:0:0:
428,148,34398,6,0,L|393:119,2,45,2|8|8,0:0|0:0|0:0,0:0:0:0:
356,204,35226,2,0,L|311:208,2,45,2|8|8,0:0|0:0|0:0,0:0:0:0:
376,292,36053,2,0,L|341:320,2,45,2|8|8,0:0|0:0|0:0,0:0:0:0:
466,280,36881,2,0,L|461:324,2,45,2|8|8,0:0|0:0|0:0,0:0:0:0:
476,192,37708,6,0,L|486:102,1,90,2|8,0:0|0:0,0:0:0:0:
432,28,38536,2,0,L|349:62,1,90,2|8,0:0|0:0,0:0:0:0:
268,104,39364,1,2,0:0:0:0:
211,176,39777,2,0,P|180:207|165:249,2,90,8|2|8,0:0|0:0|0:0,0:0:0:0:
288,224,41019,6,0,P|274:241|257:256,2,45,2|8|8,0:0|0:0|0:0,0:0:0:0:
336,148,41846,2,0,P|353:161|368:178,2,45,2|8|8,0:0|0:0|0:0,0:0:0:0:
260,100,42674,2,0,P|273:82|290:67,2,45,2|8|8,0:0|0:0|0:0,0:0:0:0:
212,176,43501,2,0,P|194:162|179:145,2,45,2|8|8,0:0|0:0|0:0,0:0:0:0:
256,252,44329,6,0,P|264:295|256:344,1,90,2|0,0:0|0:0,0:0:0:0:
166,340,45157,2,0,P|159:296|168:252,1,90,2|0,0:0|0:0,0:0:0:0:
212,176,45984,6,0,B|208:152|208:152|216:108|216:108|212:87,1,90,2|0,0:0|0:0,0:0:0:0:
144,28,46812,2,0,P|121:24|99:27,2,45,0|0|12,0:0|0:0|0:0,0:0:0:0:
116,116,47640,6,0,L|102:204,1,90,6|8,0:0|0:0,0:0:0:0:
188,236,48467,2,0,L|201:147,1,90,2|8,0:0|0:0,0:0:0:0:
251,71,49295,2,0,P|270:85|292:108,2,45,2|0|8,0:0|0:0|0:0,0:0:0:0:
160,64,50122,1,2,0:0:0:0:
124,148,50536,1,8,0:0:0:0:
212,168,50950,6,0,P|190:207|153:232,1,90,6|8,0:0|0:0,0:0:0:0:
171,319,51777,2,0,P|215:322|254:343,1,90,2|8,0:0|0:0,0:0:0:0:
316,275,52605,2,0,P|296:234|297:190,2,90,2|8|10,0:0|0:0|0:0,0:0:0:0:
400,312,53846,1,8,0:0:0:0:
436,228,54260,6,0,L|450:139,1,90,6|8,0:0|0:0,0:0:0:0:
411,56,55088,2,0,P|378:85|361:126,1,90,2|8,0:0|0:0,0:0:0:0:
296,192,55915,2,0,L|248:192,2,45,2|0|8,0:0|0:0|0:0,0:0:0:0:
361,257,56743,1,2,0:0:0:0:
296,320,57157,1,8,0:0:0:0:
204,320,57571,6,0,L|114:320,2,90,6|8|2,0:0|0:0|0:0,0:0:0:0:
248,240,58812,1,8,0:0:0:0:
248,148,59226,1,6,0:0:0:0:
200,72,59640,2,0,L|158:89,2,45,8|0|8,0:0|0:0|0:0,0:0:0:0:
288,60,60467,1,8,0:0:0:0:
376,72,60881,6,0,P|416:89|441:126,1,90,6|8,0:0|0:0,0:0:0:0:
447,216,61708,2,0,P|422:253|391:285,1,90,2|8,0:0|0:0,0:0:0:0:
304,316,62536,2,0,L|261:331,2,45,2|0|8,0:0|0:0|0:0,0:0:0:0:
324,228,63364,1,2,0:0:0:0:
316,140,63777,1,8,0:0:0:0:
240,192,64191,6,0,P|225:234|193:265,1,90,6|8,0:0|0:0,0:0:0:0:
228,348,65019,2,0,P|271:343|313:357,1,90,2|8,0:0|0:0,0:0:0:0:
360,278,65846,2,0,P|333:241|326:197,2,90,2|8|10,0:0|0:0|0:0,0:0:0:0:
448,300,67088,1,8,0:0:0:0:
464,212,67502,6,0,L|472:160,2,45,6|0|8,0:0|0:0|0:0,0:0:0:0:
380,252,68329,1,6,0:0:0:0:
372,164,68743,2,0,L|380:112,2,45,8|0|10,0:0|0:0|0:0,0:0:0:0:
295,216,69571,1,0,0:0:0:0:
219,264,69984,2,0,P|175:266|133:250,1,90,8|0,0:0|0:0,0:0:0:0:
112,164,70812,6,0,L|118:74,1,90,6|8,0:0|0:0,0:0:0:0:
208,60,71640,2,0,L|201:149,1,90,2|8,0:0|0:0,0:0:0:0:
228,236,72467,2,0,P|266:213|289:175,2,90,8|0|8,0:0|0:0|0:0,0:0:0:0:
140,216,73708,1,0,0:0:0:0:
60,260,74122,6,0,P|90:292|132:304,1,90,6|8,0:0|0:0,0:0:0:0:
212,348,74950,2,0,P|256:343|301:347,1,90,2|8,0:0|0:0,0:0:0:0:
379,304,75777,2,0,P|421:292|452:260,2,90,2|8|2,0:0|0:0|0:0,0:0:0:0:
376,212,77019,1,8,0:0:0:0:
452,164,77433,6,0,P|421:131|378:119,1,90,2|8,0:0|0:0,0:0:0:0:
301,76,78260,2,0,P|256:80|211:75,1,90,2|8,0:0|0:0,0:0:0:0:
133,119,79088,2,0,P|90:130|59:163,2,90,2|8|2,0:0|0:0|0:0,0:0:0:0:
140,208,80329,1,8,0:0:0:0:
148,296,80743,6,0,P|191:285|222:252,1,90,6|8,0:0|0:0,0:0:0:0:
248,168,81571,1,2,0:0:0:0:
308,232,81984,1,8,0:0:0:0:
336,144,82398,2,0,P|373:167|395:206,2,90,2|8|2,0:0|0:0|0:0,0:0:0:0:
248,156,83640,1,8,0:0:0:0:
224,244,84053,6,0,P|186:265|141:265,1,90,2|8,0:0|0:0,0:0:0:0:
77,201,84881,2,0,P|116:179|161:179,1,90,2|8,0:0|0:0,0:0:0:0:
248,156,85708,1,2,0:0:0:0:
312,220,86122,38,0,L|294:308,1,90,8|10,0:0|0:0,0:0:0:0:
