osu file format v14

[General]
AudioFilename: neptuneED.mp3
AudioLeadIn: 0
PreviewTime: 47640
Countdown: 0
SampleSet: Soft
StackLeniency: 0.7
Mode: 0
LetterboxInBreaks: 0
WidescreenStoryboard: 0

[Editor]
DistanceSpacing: 1.4
BeatDivisor: 4
GridSize: 4
TimelineZoom: 1

[Metadata]
Title:Neptune*Sagashite
TitleUnicode:ネプテューヌ☆サガして
Artist:Afilia Saga
ArtistUnicode:アフィリア・サーガ
Creator:Gear
Version:Advanced
Source:超次元ゲイム ネプテューヌ
Tags:THE ANIMATION Hyperdimension Neptunia Ending Choujigen Game Neptune Kosuke Oshima Momoi Haruko East
BeatmapID:735357
BeatmapSetID:332082

[Difficulty]
HPDrainRate:4.5
CircleSize:3
OverallDifficulty:5
ApproachRate:6
SliderMultiplier:1.2
SliderTickRate:2

[Events]
//Background and Video events
0,0,"neptuneBG.jpg",0,0
Video,-60,"NEPTUNE SAGA SHIT.avi"
//Break Periods
//Storyboard Layer 0 (Background)
//Storyboard Layer 1 (Fail)
//Storyboard Layer 2 (Pass)
//Storyboard Layer 3 (Foreground)
//Storyboard Sound Samples

[TimingPoints]
1295,413.793103448276,4,2,0,40,1,0
7295,-100,4,2,0,25,0,0
7915,-100,4,2,1,60,0,0
20743,-100,4,2,1,30,0,0
21157,-100,4,2,1,40,0,0
34398,-100,4,2,1,60,0,0
47639,-100,4,2,1,70,0,1
72467,-100,4,2,1,70,0,0
74122,-100,4,2,1,60,0,0
86536,-100,4,2,1,45,0,0

[Colours]
Combo1 : 234,114,55
Combo2 : 204,57,204
Combo3 : 30,90,232
Combo4 : 58,233,67

[HitObjects]
104,68,1295,6,0,L|123:124,2,60,0|0|2,0:0|0:0|0:0,0:0:0:0:
256,140,2122,2,0,L|236:196,2,60,0|0|2,0:0|0:0|0:0,0:0:0:0:
112,228,2950,2,0,L|131:284,1,60
164,364,3364,2,0,P|222:356|264:304,1,120,2|2,0:0|0:0,0:0:0:0:
112,228,4191,1,2,0:0:0:0:
280,176,4605,6,0,L|299:120,2,60,0|0|2,0:0|0:0|0:0,0:0:0:0:
424,88,5433,2,0,L|405:32,2,60,0|0|2,0:0|0:0|0:0,0:0:0:0:
472,248,6260,2,0,L|491:304,2,60,0|0|2,0:0|0:0|0:0,0:0:0:0:
340,140,7088,2,0,L|321:84,1,60,2|6,0:0|0:0,0:0:0:0:
132,252,7915,6,0,P|125:222|123:192,1,60,6|0,0:0|0:0,0:0:0:0:
128,108,8329,2,0,L|244:81,1,120,8|2,0:0|0:0,0:0:0:0:
328,60,8950,1,0,0:0:0:0:
323,144,9157,2,0,P|307:199|338:249,1,120,8|2,0:0|0:0,0:0:0:0:
412,288,9777,1,0,0:0:0:0:
416,204,9984,2,0,L|426:84,2,120,8|2|8,0:0|0:0|0:0,0:0:0:0:
312,336,11226,5,2,0:0:0:0:
248,280,11433,1,0,0:0:0:0:
168,308,11640,2,0,P|109:297|66:256,1,120,8|2,0:0|0:0,0:0:0:0:
56,172,12260,1,0,0:0:0:0:
139,175,12467,2,0,P|197:179|245:145,1,120,8|2,0:0|0:0,0:0:0:0:
296,76,13088,1,0,0:0:0:0:
336,148,13295,2,0,L|324:267,2,120,8|2|8,0:0|0:0|0:0,0:0:0:0:
504,160,14536,6,0,P|504:190|494:218,1,60,6|0,0:0|0:0,0:0:0:0:
442,286,14950,2,0,P|384:297|325:290,1,120,8|2,0:0|0:0,0:0:0:0:
252,246,15571,1,0,0:0:0:0:
264,163,15777,2,0,P|272:105|255:47,1,120,8|2,0:0|0:0,0:0:0:0:
172,28,16398,1,0,0:0:0:0:
184,112,16605,2,0,L|169:231,2,120,8|2|8,0:0|0:0|0:0,0:0:0:0:
20,144,17846,5,2,0:0:0:0:
48,228,18053,1,0,0:0:0:0:
8,304,18260,2,0,P|65:313|114:281,1,120,8|2,0:0|0:0,0:0:0:0:
168,216,18881,1,0,0:0:0:0:
236,268,19088,2,0,P|284:300|342:291,1,120,8|2,0:0|0:0,0:0:0:0:
388,220,19708,1,0,0:0:0:0:
352,144,19915,2,0,L|338:85,1,60,8|0,0:0|0:0,0:0:0:0:
268,36,20329,2,0,L|255:95,1,60,2|0,0:0|0:0,0:0:0:0:
272,176,20743,1,8,0:0:0:0:
272,176,21157,6,0,L|272:236,1,60
271,320,21571,2,0,P|217:341|163:318,1,120,2|0,0:0|0:0,0:0:0:0:
56,188,22398,2,0,L|112:166,1,60,2|0,0:0|0:0,0:0:0:0:
160,96,22812,2,0,P|194:143|189:201,1,120,2|0,0:0|0:0,0:0:0:0:
44,288,23640,2,0,L|64:344,1,60,2|0,0:0|0:0,0:0:0:0:
148,344,24053,2,0,L|168:287,1,60,2|0,0:0|0:0,0:0:0:0:
196,207,24467,6,0,P|254:205|298:244,2,120,2|0|2,0:0|0:0|0:0,0:0:0:0:
44,288,25708,1,2,0:0:0:0:
44,119,26122,2,0,P|83:75|139:56,1,120,2|0,0:0|0:0,0:0:0:0:
200,216,26950,2,0,L|213:274,1,60
298,274,27364,2,0,L|312:216,1,60
332,136,27777,5,8,0:0:0:0:
332,136,28191,2,0,P|392:144|448:184,1,120,2|0,0:0|0:0,0:0:0:0:
332,304,29019,2,0,P|304:315|275:322,1,60,2|0,0:0|0:0,0:0:0:0:
191,319,29433,2,0,P|150:278|148:220,1,120,2|0,0:0|0:0,0:0:0:0:
256,87,30260,2,0,P|285:91|311:105,1,60,2|0,0:0|0:0,0:0:0:0:
396,108,30674,2,0,P|422:93|451:90,1,60,2|0,0:0|0:0,0:0:0:0:
448,172,31088,6,0,L|451:291,1,120,2|0,0:0|0:0,0:0:0:0:
300,216,31915,2,0,L|297:156,1,60,2|0,0:0|0:0,0:0:0:0:
214,156,32329,2,0,L|212:216,1,60,2|0,0:0|0:0,0:0:0:0:
207,300,32743,2,0,P|151:316|94:298,1,120,2|0,0:0|0:0,0:0:0:0:
112,132,33571,2,0,P|82:127|53:135,2,60
152,208,34191,1,2,0:0:0:0:
214,156,34398,5,2,0:0:0:0:
296,172,34605,1,8,0:0:0:0:
296,172,34812,2,0,L|324:223,1,60,8|2,0:0|0:0,0:0:0:0:
360,304,35226,1,2,0:0:0:0:
274,293,35433,1,8,0:0:0:0:
274,293,35640,2,0,L|214:283,1,60,8|2,0:0|0:0,0:0:0:0:
132,296,36053,6,0,P|136:325|152:349,2,60,2|8|8,0:0|0:0|0:0,0:0:0:0:
144,212,36674,1,2,0:0:0:0:
80,156,36881,2,0,P|62:179|56:208,2,60,2|8|8,0:0|0:0|0:0,0:0:0:0:
160,120,37502,1,2,0:0:0:0:
224,176,37708,6,0,P|282:188|341:177,1,120,2|8,0:0|0:0,0:0:0:0:
340,344,38536,2,0,P|281:331|222:342,1,120,2|8,0:0|0:0,0:0:0:0:
56,352,39364,2,0,L|61:292,1,60,2|0,0:0|0:0,0:0:0:0:
120,232,39777,2,0,L|114:172,1,60,8|0,0:0|0:0,0:0:0:0:
104,87,40191,2,0,P|159:68|217:80,1,120,2|8,0:0|0:0,0:0:0:0:
280,136,40812,1,2,0:0:0:0:
348,88,41019,5,2,0:0:0:0:
415,139,41226,1,8,0:0:0:0:
415,139,41433,2,0,P|426:167|427:197,1,60,8|2,0:0|0:0,0:0:0:0:
416,280,41846,1,2,0:0:0:0:
348,331,42053,1,8,0:0:0:0:
348,331,42260,2,0,P|318:338|290:336,1,60,8|2,0:0|0:0,0:0:0:0:
228,276,42674,6,0,L|168:276,2,60,2|8|8,0:0|0:0|0:0,0:0:0:0:
268,200,43295,1,2,0:0:0:0:
184,196,43502,2,0,L|124:196,2,60,2|8|8,0:0|0:0|0:0,0:0:0:0:
228,124,44122,1,2,0:0:0:0:
311,123,44329,6,0,P|336:141|350:167,1,60,2|0,0:0|0:0,0:0:0:0:
352,252,44743,1,2,0:0:0:0:
200,328,45157,1,2,0:0:0:0:
224,160,45571,2,0,L|224:100,1,60
224,16,45984,5,2,0:0:0:0:
96,124,46398,1,2,0:0:0:0:
208,243,46812,1,0,0:0:0:0:
274,296,47019,1,0,0:0:0:0:
287,214,47226,1,12,0:0:0:0:
287,214,47640,6,0,P|317:219|346:213,1,60,6|0,0:0|0:0,0:0:0:0:
408,156,48053,2,0,L|408:276,1,120,8|2,0:0|0:0,0:0:0:0:
360,348,48674,1,0,0:0:0:0:
288,304,48881,1,8,0:0:0:0:
256,140,49295,1,2,0:0:0:0:
256,56,49502,1,0,0:0:0:0:
184,100,49708,2,0,B|92:100|92:100|67:86,2,120,8|2|8,0:0|0:0|0:0,0:0:0:0:
256,140,50743,1,0,0:0:0:0:
212,212,50950,6,0,L|201:271,1,60,6|0,0:0|0:0,0:0:0:0:
311,271,51364,2,0,L|300:212,1,60,8|0,0:0|0:0,0:0:0:0:
384,188,51777,2,0,B|399:278|399:278|417:300,1,120,2|8,0:0|0:0,0:0:0:0:
476,240,52398,1,0,0:0:0:0:
476,240,52605,2,0,L|464:181,1,60,2|0,0:0|0:0,0:0:0:0:
420,108,53019,1,8,0:0:0:0:
276,196,53433,1,10,0:0:0:0:
340,252,53640,1,8,0:0:0:0:
260,280,53846,1,8,0:0:0:0:
260,280,54260,6,0,L|200:280,1,60,6|0,0:0|0:0,0:0:0:0:
116,276,54674,2,0,P|98:219|116:163,1,120,8|2,0:0|0:0,0:0:0:0:
188,120,55295,1,0,0:0:0:0:
256,168,55502,1,8,0:0:0:0:
188,320,55915,1,2,0:0:0:0:
256,272,56122,1,0,0:0:0:0:
179,232,56329,2,0,P|124:253|98:306,2,120,8|2|8,0:0|0:0|0:0,0:0:0:0:
256,272,57364,1,0,0:0:0:0:
332,232,57571,6,0,L|332:112,1,120,6|8,0:0|0:0,0:0:0:0:
416,112,58191,1,0,0:0:0:0:
416,112,58398,2,0,L|416:232,1,120,2|8,0:0|0:0,0:0:0:0:
412,316,59019,1,0,0:0:0:0:
339,271,59226,2,0,P|281:260|222:270,1,120,6|8,0:0|0:0,0:0:0:0:
148,316,59846,1,0,0:0:0:0:
116,236,60053,1,10,0:0:0:0:
184,184,60260,1,8,0:0:0:0:
104,152,60467,2,0,L|44:144,1,60,8|0,0:0|0:0,0:0:0:0:
64,60,60881,6,0,L|123:67,1,60,6|0,0:0|0:0,0:0:0:0:
204,96,61295,2,0,P|257:122|316:121,1,120,8|2,0:0|0:0,0:0:0:0:
388,80,61915,1,0,0:0:0:0:
448,140,62122,1,8,0:0:0:0:
408,304,62536,1,2,0:0:0:0:
348,244,62743,1,0,0:0:0:0:
268,272,62950,2,0,L|150:245,2,120,8|2|8,0:0|0:0|0:0,0:0:0:0:
328,332,63984,1,0,0:0:0:0:
408,303,64191,6,0,P|423:278|433:250,1,60,6|0,0:0|0:0,0:0:0:0:
440,168,64605,2,0,P|433:138|420:112,1,60,8|0,0:0|0:0,0:0:0:0:
363,47,65019,2,0,P|305:55|258:92,1,120,2|8,0:0|0:0,0:0:0:0:
172,84,65640,1,0,0:0:0:0:
172,84,65846,2,0,P|174:113|188:140,1,60,2|0,0:0|0:0,0:0:0:0:
264,178,66260,1,8,0:0:0:0:
432,184,66674,1,10,0:0:0:0:
408,264,66881,1,8,0:0:0:0:
456,332,67088,1,8,0:0:0:0:
288,316,67502,5,6,0:0:0:0:
276,232,67708,1,0,0:0:0:0:
208,284,67915,2,0,L|149:295,1,60,8|0,0:0|0:0,0:0:0:0:
76,252,68329,1,6,0:0:0:0:
164,108,68743,2,0,L|105:119,1,60,8|0,0:0|0:0,0:0:0:0:
40,176,69157,5,8,0:0:0:0:
40,176,69363,1,8,0:0:0:0:
60,256,69570,2,0,L|119:267,1,60
204,280,69984,1,8,0:0:0:0:
204,280,70191,1,8,0:0:0:0:
284,256,70398,2,0,L|284:196,1,60
251,120,70812,6,0,P|193:113|144:145,2,120,6|8|2,0:0|0:0|0:0,0:0:0:0:
336,124,71846,1,0,0:0:0:0:
336,208,72053,2,0,L|336:268,1,60,8|0,0:0|0:0,0:0:0:0:
336,352,72467,5,8,0:0:0:0:
336,352,72674,1,8,0:0:0:0:
260,316,72881,1,0,0:0:0:0:
224,152,73295,1,8,0:0:0:0:
224,152,73502,1,8,0:0:0:0:
260,228,73708,2,0,P|287:217|304:194,1,60
300,111,74122,6,0,P|284:86|258:73,1,60,6|0,0:0|0:0,0:0:0:0:
171,71,74536,2,0,P|112:78|59:105,1,120,8|2,0:0|0:0,0:0:0:0:
56,192,75157,1,0,0:0:0:0:
60,276,75364,2,0,P|113:303|172:309,1,120,8|2,0:0|0:0,0:0:0:0:
256,312,75984,1,0,0:0:0:0:
248,228,76191,2,0,L|233:108,2,120,8|2|8,0:0|0:0|0:0,0:0:0:0:
396,152,77433,5,2,0:0:0:0:
448,88,77640,1,0,0:0:0:0:
479,168,77846,2,0,P|450:218|394:236,1,120,8|2,0:0|0:0,0:0:0:0:
320,196,78467,1,0,0:0:0:0:
240,228,78674,2,0,P|227:285|256:336,1,120,8|2,0:0|0:0,0:0:0:0:
340,356,79295,1,0,0:0:0:0:
424,336,79502,2,0,P|453:285|440:227,2,120,8|2|8,0:0|0:0|0:0,0:0:0:0:
340,356,80536,1,0,0:0:0:0:
336,272,80743,6,0,P|306:276|282:293,1,60,6|0,0:0|0:0,0:0:0:0:
223,352,81157,2,0,P|165:355|115:323,1,120,8|2,0:0|0:0,0:0:0:0:
104,240,81777,1,0,0:0:0:0:
152,172,81984,2,0,P|210:168|260:200,1,120,8|2,0:0|0:0,0:0:0:0:
276,284,82605,1,0,0:0:0:0:
344,232,82812,2,0,L|368:114,2,120,8|2|8,0:0|0:0|0:0,0:0:0:0:
204,326,84053,5,2,0:0:0:0:
204,241,84260,1,0,0:0:0:0:
276,283,84467,2,0,P|325:315|383:308,1,120,8|2,0:0|0:0,0:0:0:0:
448,256,85088,1,0,0:0:0:0:
408,184,85295,2,0,P|358:151|300:158,1,120,8|2,0:0|0:0,0:0:0:0:
220,176,85915,1,0,0:0:0:0:
184,252,86122,6,0,L|221:365,1,120,8|10,0:0|0:0,0:0:0:0:
