osu file format v14

[General]
AudioFilename: audio.mp3
AudioLeadIn: 0
PreviewTime: 60310
Countdown: 0
SampleSet: Soft
StackLeniency: 0.7
Mode: 3
LetterboxInBreaks: 0
SpecialStyle: 0
WidescreenStoryboard: 1

[Editor]
Bookmarks: 2132,8990,15525,29726,43382,60369,74083
DistanceSpacing: 1.1
BeatDivisor: 4
GridSize: 4
TimelineZoom: 1

[Metadata]
Title:NEXT STAGE! (Game Ver.)
TitleUnicode:NEXT STAGE! (Game Ver.)
Artist:Afilia Saga
ArtistUnicode:アフィリア・サーガ
Creator:SilentVoice
Version:4K Easy
Source:Hyperdimension Neptunia Producing Perfection
Tags:hyperdimension neptunia pp producing perfection neptune noire blanc vert nep nepu
BeatmapID:2002481
BeatmapSetID:903076

[Difficulty]
HPDrainRate:2.4
CircleSize:4
OverallDifficulty:1.6
ApproachRate:2.3
SliderMultiplier:1.1
SliderTickRate:2

[Events]
//Background and Video events
0,0,"bg.jpg",0,0
Video,-640,"pp.mp4"
//Break Periods
//Storyboard Layer 0 (Background)
//Storyboard Layer 1 (Fail)
//Storyboard Layer 2 (Pass)
//Storyboard Layer 3 (Foreground)
//Storyboard Sound Samples

[TimingPoints]
2298,428.571428571429,4,2,0,100,1,0
9155,-100,4,2,0,100,0,0
16012,-100,4,2,0,100,0,1
29726,-100,4,2,0,100,0,0
43440,-100,4,2,0,100,0,0
60583,-100,4,2,0,100,0,1
73869,-100,4,2,0,100,0,0
74298,-100,4,2,0,100,0,1
88012,-100,4,2,0,100,0,0

[Colours]
Combo1 : 35,236,0
Combo2 : 255,202,251
Combo3 : 74,173,247
Combo4 : 255,102,106

[HitObjects]
85,192,2298,128,0,3583:0:0:0:0:
320,192,3798,128,0,5298:0:0:0:0:
192,192,5726,128,0,6155:0:0:0:0:
320,192,6583,128,0,7012:0:0:0:0:
448,192,7226,128,0,8726:0:0:0:0:
64,192,9155,1,0,0:0:0:0:
192,192,9583,1,0,0:0:0:0:
64,192,10012,1,0,0:0:0:0:
448,192,10440,1,0,0:0:0:0:
320,192,10869,1,0,0:0:0:0:
192,192,11298,1,0,0:0:0:0:
64,192,11726,1,0,0:0:0:0:
448,192,12155,1,0,0:0:0:0:
64,192,12583,1,0,0:0:0:0:
192,192,13012,1,0,0:0:0:0:
448,192,13440,1,0,0:0:0:0:
320,192,13869,1,0,0:0:0:0:
192,192,14083,128,0,15583:0:0:0:0:
448,192,14083,128,0,15583:0:0:0:0:
192,192,16012,1,0,0:0:0:0:
448,192,16440,1,0,0:0:0:0:
320,192,16869,1,0,0:0:0:0:
448,192,17298,1,0,0:0:0:0:
192,192,17726,1,0,0:0:0:0:
320,192,18155,1,0,0:0:0:0:
64,192,18583,1,0,0:0:0:0:
320,192,19012,1,0,0:0:0:0:
448,192,19440,1,0,0:0:0:0:
320,192,19869,1,0,0:0:0:0:
64,192,20298,1,0,0:0:0:0:
192,192,20726,1,0,0:0:0:0:
320,192,21155,1,0,0:0:0:0:
448,192,21583,1,0,0:0:0:0:
192,192,22012,1,0,0:0:0:0:
64,192,22440,1,0,0:0:0:0:
64,192,22869,128,0,24583:0:0:0:0:
192,192,22869,1,0,0:0:0:0:
448,192,23298,1,0,0:0:0:0:
320,192,23726,1,0,0:0:0:0:
448,192,24155,1,0,0:0:0:0:
320,192,24583,1,0,0:0:0:0:
448,192,24583,128,0,26298:0:0:0:0:
64,192,25012,1,0,0:0:0:0:
320,192,25440,1,0,0:0:0:0:
192,192,25869,1,0,0:0:0:0:
320,192,26298,128,0,29298:0:0:0:0:
64,192,26298,128,0,29298:0:0:0:0:
448,192,29726,1,0,0:0:0:0:
448,192,30155,1,0,0:0:0:0:
192,192,30155,1,0,0:0:0:0:
320,192,30583,1,0,0:0:0:0:
192,192,31012,1,0,0:0:0:0:
64,192,31012,1,0,0:0:0:0:
192,192,31440,1,0,0:0:0:0:
320,192,31869,1,0,0:0:0:0:
192,192,31869,1,0,0:0:0:0:
64,192,32298,1,0,0:0:0:0:
448,192,32726,1,0,0:0:0:0:
320,192,32726,1,0,0:0:0:0:
64,192,33155,1,0,0:0:0:0:
448,192,33583,1,0,0:0:0:0:
192,192,33583,1,0,0:0:0:0:
448,192,34012,1,0,0:0:0:0:
320,192,34440,1,0,0:0:0:0:
64,192,34440,1,0,0:0:0:0:
64,192,34869,128,0,35298:0:0:0:0:
320,192,34869,128,0,35298:0:0:0:0:
448,192,35726,128,0,36155:0:0:0:0:
192,192,35726,128,0,36155:0:0:0:0:
64,192,36583,128,0,38298:0:0:0:0:
448,192,36583,1,0,0:0:0:0:
192,192,37012,1,0,0:0:0:0:
320,192,37440,1,0,0:0:0:0:
192,192,37869,1,0,0:0:0:0:
320,192,38298,128,0,40012:0:0:0:0:
448,192,38298,1,0,0:0:0:0:
192,192,38726,1,0,0:0:0:0:
448,192,39155,1,0,0:0:0:0:
64,192,39583,1,0,0:0:0:0:
192,192,40012,128,0,41298:0:0:0:0:
448,192,40012,1,0,0:0:0:0:
320,192,40440,1,0,0:0:0:0:
64,192,40869,1,0,0:0:0:0:
448,192,41298,1,0,0:0:0:0:
64,192,41726,1,0,0:0:0:0:
448,192,41726,1,0,0:0:0:0:
192,192,42583,1,0,0:0:0:0:
320,192,42583,1,0,0:0:0:0:
192,192,43440,128,0,45155:0:0:0:0:
448,192,43440,1,0,0:0:0:0:
320,192,43869,1,0,0:0:0:0:
448,192,44298,1,0,0:0:0:0:
320,192,44726,1,0,0:0:0:0:
64,192,45155,1,0,0:0:0:0:
192,192,45583,1,0,0:0:0:0:
320,192,46012,1,0,0:0:0:0:
448,192,46440,1,0,0:0:0:0:
320,192,46869,128,0,48583:0:0:0:0:
64,192,46869,1,0,0:0:0:0:
448,192,47298,1,0,0:0:0:0:
64,192,47726,1,0,0:0:0:0:
192,192,48155,1,0,0:0:0:0:
448,192,48583,1,0,0:0:0:0:
320,192,49012,1,0,0:0:0:0:
192,192,49440,1,0,0:0:0:0:
64,192,49869,1,0,0:0:0:0:
64,192,50298,128,0,51155:0:0:0:0:
448,192,50298,1,0,0:0:0:0:
192,192,50726,1,0,0:0:0:0:
320,192,51155,1,0,0:0:0:0:
64,192,51583,1,0,0:0:0:0:
448,192,51583,1,0,0:0:0:0:
448,192,52012,128,0,52869:0:0:0:0:
192,192,52012,1,0,0:0:0:0:
320,192,52440,1,0,0:0:0:0:
192,192,52869,1,0,0:0:0:0:
320,192,53298,1,0,0:0:0:0:
64,192,53298,1,0,0:0:0:0:
448,192,53726,128,0,55012:0:0:0:0:
192,192,55440,128,0,56726:0:0:0:0:
320,192,57155,128,0,57583:0:0:0:0:
64,192,58012,128,0,58440:0:0:0:0:
64,192,58869,1,0,0:0:0:0:
192,192,59298,1,0,0:0:0:0:
320,192,59726,1,0,0:0:0:0:
448,192,60155,1,0,0:0:0:0:
192,192,60155,1,0,0:0:0:0:
64,192,60583,1,0,0:0:0:0:
192,192,61012,1,0,0:0:0:0:
320,192,61012,1,0,0:0:0:0:
448,192,61440,1,0,0:0:0:0:
320,192,61869,1,0,0:0:0:0:
192,192,61869,1,0,0:0:0:0:
320,192,62298,1,0,0:0:0:0:
448,192,62726,1,0,0:0:0:0:
64,192,62726,1,0,0:0:0:0:
192,192,63155,1,0,0:0:0:0:
64,192,63583,1,0,0:0:0:0:
448,192,63583,1,0,0:0:0:0:
64,192,64012,1,0,0:0:0:0:
192,192,64440,1,0,0:0:0:0:
64,192,64440,1,0,0:0:0:0:
448,192,64869,1,0,0:0:0:0:
448,192,65298,1,0,0:0:0:0:
320,192,65298,1,0,0:0:0:0:
64,192,65726,1,0,0:0:0:0:
192,192,66155,1,0,0:0:0:0:
448,192,66155,1,0,0:0:0:0:
320,192,66583,1,0,0:0:0:0:
448,192,67012,1,0,0:0:0:0:
64,192,67012,1,0,0:0:0:0:
64,192,67440,1,0,0:0:0:0:
192,192,67869,1,0,0:0:0:0:
64,192,68298,1,0,0:0:0:0:
448,192,68726,1,0,0:0:0:0:
320,192,69155,1,0,0:0:0:0:
192,192,69583,1,0,0:0:0:0:
448,192,70012,1,0,0:0:0:0:
64,192,70440,1,0,0:0:0:0:
64,192,70869,1,0,0:0:0:0:
192,192,71298,1,0,0:0:0:0:
320,192,71726,1,0,0:0:0:0:
64,192,72155,1,0,0:0:0:0:
448,192,72583,1,0,0:0:0:0:
320,192,73012,1,0,0:0:0:0:
192,192,73440,1,0,0:0:0:0:
448,192,73869,1,0,0:0:0:0:
64,192,74298,128,0,76012:0:0:0:0:
320,192,74298,1,0,0:0:0:0:
192,192,74726,1,0,0:0:0:0:
448,192,75155,1,0,0:0:0:0:
320,192,75583,1,0,0:0:0:0:
192,192,76012,128,0,77726:0:0:0:0:
448,192,76012,1,0,0:0:0:0:
320,192,76440,1,0,0:0:0:0:
64,192,76869,1,0,0:0:0:0:
320,192,77298,1,0,0:0:0:0:
448,192,77726,128,0,79440:0:0:0:0:
64,192,77726,1,0,0:0:0:0:
192,192,78155,1,0,0:0:0:0:
64,192,78583,1,0,0:0:0:0:
320,192,79012,1,0,0:0:0:0:
320,192,79440,128,0,81155:0:0:0:0:
64,192,79440,1,0,0:0:0:0:
192,192,79869,1,0,0:0:0:0:
448,192,80298,1,0,0:0:0:0:
64,192,80726,1,0,0:0:0:0:
192,192,81155,128,0,82012:0:0:0:0:
64,192,81155,1,0,0:0:0:0:
320,192,81583,1,0,0:0:0:0:
448,192,82012,1,0,0:0:0:0:
64,192,82440,1,0,0:0:0:0:
448,192,82869,128,0,83726:0:0:0:0:
320,192,82869,1,0,0:0:0:0:
192,192,83298,1,0,0:0:0:0:
64,192,83726,1,0,0:0:0:0:
448,192,84155,1,0,0:0:0:0:
320,192,84583,128,0,85012:0:0:0:0:
64,192,85440,128,0,85869:0:0:0:0:
192,192,86083,128,0,87583:0:0:0:0:
320,192,86083,128,0,87583:0:0:0:0:
64,192,88012,128,0,88869:0:0:0:0:
192,192,88012,128,0,89726:0:0:0:0:
320,192,88012,128,0,90583:0:0:0:0:
448,192,88012,128,0,91440:0:0:0:0:
64,192,93155,1,0,0:0:0:0:
192,192,93155,1,0,0:0:0:0:
320,192,93155,1,0,0:0:0:0:
448,192,93155,1,0,0:0:0:0:
