osu file format v14

[General]
AudioFilename: audio.mp3
AudioLeadIn: 0
PreviewTime: 67513
Countdown: 0
SampleSet: Soft
StackLeniency: 0.4
Mode: 0
LetterboxInBreaks: 0
WidescreenStoryboard: 0

[Editor]
DistanceSpacing: 1
BeatDivisor: 4
GridSize: 16
TimelineZoom: 2.3

[Metadata]
Title:Higouriteki Katsu Teisei Funou na Omoikomi
TitleUnicode:非合理的かつ訂正不能な思い込み
Artist:Afilia Saga
ArtistUnicode:アフィリア・サーガ
Creator:Mirash
Version:dame
Source:カオスチャイルド らぶchu☆chu!!
Tags:5pb op opening visual novel vn Shikura Chiyomaru
BeatmapID:1271308
BeatmapSetID:601842

[Difficulty]
HPDrainRate:7
CircleSize:4
OverallDifficulty:8
ApproachRate:9.3
SliderMultiplier:2
SliderTickRate:1

[Events]
//Background and Video events
0,0,"Konachan.com - 235648 2girls ass bikini chaos;child kurusu_nono onoe_serika ootsuki_minao scan sky swimsuit underboob water.jpg",0,0
//Break Periods
//Storyboard Layer 0 (Background)
//Storyboard Layer 1 (Fail)
//Storyboard Layer 2 (Pass)
//Storyboard Layer 3 (Foreground)
//Storyboard Sound Samples

[TimingPoints]
250,315.789473684211,4,2,1,70,1,0
565,-142.857142857143,4,2,1,70,0,0
12881,-100,4,2,1,70,0,0
17934,-66.6666666666667,4,2,1,70,0,0
19039,-100,4,2,1,70,0,0
22986,-71.4285714285714,4,2,1,70,0,0
25513,-133.333333333333,4,2,1,70,0,0
29460,-200,4,2,1,70,0,0
30565,-133.333333333333,4,2,1,70,0,0
35618,-100,4,2,1,70,0,0
37513,-76.9230769230769,4,2,1,70,0,0
68460,-76.9230769230769,4,2,1,70,0,1
72881,-66.6666666666667,4,2,1,70,0,1
75723,-76.9230769230769,4,2,1,70,0,1
78486,-76.9230769230769,4,2,1,70,0,0
78565,-76.9230769230769,4,2,1,70,0,1
87250,-76.9230769230769,4,2,1,70,0,0
91197,-76.9230769230769,4,2,1,70,0,1
98776,-66.6666666666667,4,2,1,70,0,1
100671,-66.6666666666667,4,2,1,70,0,0
102565,-100,4,2,1,70,0,0

[Colours]
Combo1 : 255,221,117
Combo2 : 111,255,111
Combo3 : 136,189,255
Combo4 : 250,152,210

[HitObjects]
96,222,250,5,2,0:0:0:0:
190,102,565,2,0,L|261:109,1,69.9999978637696
214,208,881,2,0,L|287:205,1,69.9999978637696
403,185,1197,1,2,0:0:0:0:
322,218,1355,1,2,0:0:0:0:
436,302,1513,6,0,P|383:305|318:317,1,104.999996795654,2|0,0:0|0:0,0:0:0:0:
309,340,1828,1,0,0:0:0:0:
208,306,1986,1,0,0:0:0:0:
35,208,2144,1,0,0:0:0:0:
136,174,2302,1,0,0:0:0:0:
450,167,2460,1,2,0:0:0:0:
284,59,2618,1,2,0:0:0:0:
93,150,2776,6,0,P|184:143|217:141,1,104.999996795654,2|0,0:0|0:0,0:0:0:0:
226,162,3092,1,0,0:0:0:0:
326,195,3250,1,0,0:0:0:0:
500,250,3407,2,0,P|460:254|404:259,1,69.9999978637696
332,90,3723,2,2,L|445:88,1,104.999996795654,2|0,0:0|0:0,0:1:0:0:
436,88,4039,6,0,L|438:181,1,69.9999978637696,2|0,0:0|0:0,0:0:0:0:
52,347,4355,5,0,0:0:0:0:
121,343,4513,1,0,0:0:0:0:
189,339,4671,1,0,0:0:0:0:
258,335,4828,1,0,0:0:0:0:
508,220,4986,5,2,0:0:0:0:
302,232,5144,1,2,0:0:0:0:
96,244,5302,1,2,0:0:0:0:
340,46,5618,5,0,0:0:0:0:
392,95,5776,1,0,0:0:0:0:
334,65,5934,1,0,0:0:0:0:
367,98,6092,1,0,0:0:0:0:
324,105,6250,2,2,P|268:104|210:103,1,104.999996795654,2|0,0:0|0:0,0:1:0:0:
219,103,6565,6,0,L|223:194,1,69.9999978637696,2|0,0:0|0:0,0:0:0:0:
432,298,6881,5,0,0:0:0:0:
308,356,7039,1,0,0:0:0:0:
462,365,7197,1,0,0:0:0:0:
300,284,7355,1,0,0:0:0:0:
103,355,7513,1,2,0:0:0:0:
246,237,7671,1,2,0:0:0:0:
456,230,7828,1,8,3:0:0:0:
453,223,7907,1,0,3:0:0:0:
450,216,7986,1,8,3:0:0:0:
447,209,8065,1,0,3:0:0:0:
444,202,8144,1,4,3:0:0:0:
441,195,8223,1,0,3:0:0:0:
438,188,8302,1,8,3:0:0:0:
435,181,8381,1,8,3:0:0:0:
432,174,8460,1,8,3:0:0:0:
256,192,8539,12,4,10039,0:1:0:0:
73,122,10355,5,0,1:0:0:0:
157,233,10513,1,2,0:0:0:0:
137,45,10671,5,0,1:0:0:0:
154,183,10829,1,2,0:0:0:0:
231,113,10986,5,0,1:0:0:0:
80,229,11144,1,2,0:0:0:0:
219,242,11302,5,0,1:0:0:0:
106,90,11460,1,2,0:0:0:0:
285,164,11618,5,0,1:0:0:0:
157,168,11776,1,0,1:0:0:0:
29,172,11934,1,0,1:0:0:0:
97,281,12092,5,0,1:0:0:0:
157,168,12250,1,0,1:0:0:0:
218,55,12408,1,0,1:0:0:0:
271,340,12565,1,0,1:0:0:0:
376,185,12723,1,0,1:0:0:0:
179,44,12881,6,0,P|187:99|188:203,1,150,0|0,1:0|0:0,0:0:0:0:
188,193,13197,2,2,L|82:206,1,100,0|0,0:0|0:0,0:1:0:0:
5,301,13513,2,2,L|112:313,2,100,0|0|0,0:0|0:0|0:0,0:1:0:0:
219,221,13986,6,0,P|285:217|382:216,1,150,0|0,1:0|0:0,0:0:0:0:
388,231,14302,1,0,1:0:0:0:
281,308,14460,1,0,1:0:0:0:
286,73,14618,1,0,1:0:0:0:
398,101,14776,1,2,0:0:0:0:
239,88,14934,1,2,0:0:0:0:
444,85,15092,2,0,P|446:150|449:201,1,100,2|0,0:0|0:0,0:0:0:0:
215,338,15407,5,0,1:0:0:0:
367,299,15565,1,2,0:0:0:0:
172,317,15723,5,0,1:0:0:0:
409,319,15881,1,2,0:0:0:0:
230,109,16039,5,0,1:0:0:0:
269,261,16197,1,2,0:0:0:0:
315,14,16355,5,0,1:0:0:0:
263,217,16513,1,2,0:0:0:0:
51,192,16671,5,0,1:0:0:0:
236,153,16828,1,0,1:0:0:0:
421,114,16986,1,0,1:0:0:0:
174,360,17144,5,2,0:0:0:0:
232,180,17302,2,2,P|288:174|341:169,2,100,0|0|0,1:0|0:0|0:0,0:1:0:0:
232,180,17776,1,0,0:0:0:0:
27,355,17934,6,0,P|45:330|83:305,1,75.0000028610231,4|0,1:0|0:0,0:0:0:0:
179,353,18092,2,0,B|160:278|160:278|176:237|176:237|142:220|142:220|157:184|148:126,1,225.000008583069,4|0,1:2|0:0,0:0:0:0:
76,87,18407,2,0,P|145:130|335:83,1,225.000008583069,4|0,1:0|0:0,0:0:0:0:
467,149,18723,2,0,L|250:213,1,225.000008583069,4|0,1:0|0:0,0:0:0:0:
251,212,19039,6,0,P|283:299|303:368,1,150,12|0,0:2|0:0,0:0:0:0:
299,354,19355,2,2,L|412:322,2,100,0|0|0,0:0|0:0|0:0,0:1:0:0:
212,29,19828,2,0,L|100:62,1,100,4|0,0:2|0:0,0:0:0:0:
59,279,20460,1,8,0:3:0:0:
65,292,20538,1,0,0:0:0:0:
75,303,20617,1,8,0:0:0:0:
86,313,20696,1,0,0:0:0:0:
108,325,20776,5,8,0:3:0:0:
131,316,20854,1,0,0:0:0:0:
155,310,20935,1,8,0:0:0:0:
180,307,21012,1,0,0:0:0:0:
220,309,21093,5,8,0:3:0:0:
223,269,21170,1,0,0:0:0:0:
227,229,21250,1,8,0:0:0:0:
231,189,21328,1,0,0:0:0:0:
241,140,21407,5,8,0:3:0:0:
257,93,21485,1,0,0:0:0:0:
297,66,21564,1,4,0:0:0:0:
346,70,21643,1,0,0:0:0:0:
383,103,21723,6,0,L|352:146,1,50,0|0,1:0|0:0,0:0:0:0:
391,138,21881,2,0,L|342:159,1,50,2|0,0:3|0:0,0:0:0:0:
398,261,22039,6,0,L|345:255,1,50,0|0,1:0|0:0,0:0:0:0:
371,285,22197,2,0,L|327:254,1,50,2|0,0:3|0:0,0:0:0:0:
268,352,22355,6,0,L|246:303,1,50,0|0,1:0|0:0,0:0:0:0:
234,341,22513,2,0,L|239:288,1,50,2|0,0:3|0:0,0:0:0:0:
124,284,22671,6,0,L|154:240,1,50,0|0,1:0|0:0,0:0:0:0:
116,249,22828,2,0,L|164:227,1,50,2|0,0:3|0:0,0:0:0:0:
67,28,22986,6,0,L|95:105,1,69.9999978637696,0|0,1:0|0:0,0:0:0:0:
134,27,23144,2,0,L|106:104,1,69.9999978637696,4|0,0:1|0:0,0:0:0:0:
223,27,23302,6,0,L|251:104,1,69.9999978637696,0|0,1:0|0:0,0:0:0:0:
290,26,23460,2,0,L|262:103,1,69.9999978637696,4|0,0:0|0:0,0:0:0:0:
379,26,23618,6,0,L|407:103,1,69.9999978637696,0|0,1:0|0:0,0:0:0:0:
446,25,23776,2,0,L|418:102,1,69.9999978637696,4|0,0:0|0:0,0:0:0:0:
269,359,23934,6,0,L|258:283,1,69.9999978637696,0|0,1:0|0:0,0:0:0:0:
243,359,24092,2,0,L|254:283,1,69.9999978637696,4|0,0:1|0:0,0:0:0:0:
31,228,24250,5,0,1:0:0:0:
245,153,24407,1,0,1:0:0:0:
460,256,24565,1,4,1:1:0:0:
1,230,24802,5,0,1:0:0:0:
1,230,24881,1,4,1:1:0:0:
244,144,25038,1,4,1:2:0:0:
489,261,25196,1,4,1:1:0:0:
487,291,25513,6,0,L|307:281,1,150.000005722046,0|0,3:0|3:0,0:0:0:0:
247,127,26144,2,2,L|261:219,1,75.0000028610231,0|0,3:0|0:0,0:1:0:0:
364,113,26460,2,2,L|350:205,1,75.0000028610231,0|0,3:0|0:0,0:1:0:0:
141,263,26776,2,0,L|147:107,1,150.000005722046,0|0,3:0|3:0,0:0:0:0:
59,128,27250,1,0,3:0:0:0:
227,168,27407,1,2,3:2:0:0:
309,112,27565,1,0,3:0:0:0:
482,230,27723,1,2,3:2:0:0:
382,222,27881,1,2,3:2:0:0:
256,346,28039,6,0,L|99:341,1,150.000005722046,6|0,3:2|3:0,0:0:0:0:
68,240,28671,2,2,L|156:227,1,75.0000028610231,0|0,3:0|0:0,0:1:0:0:
221,155,28986,2,2,L|309:168,1,75.0000028610231,0|0,3:0|0:0,0:1:0:0:
371,233,29302,5,0,3:0:0:0:
115,44,29460,2,2,L|126:162,1,100,0|0,3:0|3:0,0:1:0:0:
141,233,29934,5,0,3:0:0:0:
397,44,30092,2,2,L|386:162,1,100,0|0,3:0|3:0,0:1:0:0:
488,318,30565,6,0,P|428:311|394:311,1,75.0000028610231,0|0,3:0|0:0,0:0:0:0:
318,245,30881,2,0,P|268:253|235:257,1,75.0000028610231,0|0,3:0|0:0,0:0:0:0:
58,290,31197,1,0,3:0:0:0:
142,300,31355,1,0,3:0:0:0:
202,175,31513,1,0,3:0:0:0:
118,185,31671,1,0,3:0:0:0:
231,91,31828,6,0,B|296:125|324:73|402:110,1,150.000005722046,4|0,3:2|3:0,0:0:0:0:
420,166,32302,1,0,3:0:0:0:
37,46,32460,2,2,L|47:122,1,75.0000028610231,0|0,3:0|0:0,0:1:0:0:
54,60,32776,2,2,L|64:136,1,75.0000028610231,0|0,3:0|0:0,0:1:0:0:
34,214,33092,1,0,3:0:0:0:
344,338,33250,5,0,3:0:0:0:
150,296,33407,1,0,3:0:0:0:
353,197,33565,1,0,3:0:0:0:
145,263,33722,1,0,3:0:0:0:
287,60,33881,2,0,P|325:56|367:53,2,75.0000028610231,0|0|0,3:0|3:0|3:0,0:0:0:0:
125,237,34355,5,8,1:3:0:0:
426,124,34513,1,8,1:0:0:0:
450,303,34671,1,8,1:0:0:0:
240,384,34828,1,8,1:3:0:0:
205,70,34986,1,4,1:3:0:0:
282,216,35223,5,0,1:0:0:0:
282,216,35302,1,4,1:2:0:0:
50,96,35618,6,0,P|104:53|226:122,1,200,4|8,1:1|0:0,0:0:0:0:
438,174,36092,1,0,1:0:0:0:
232,242,36250,2,0,B|154:216|107:276|25:241,2,200,0|0|0,1:0|1:0|1:0,0:0:0:0:
184,332,37039,1,0,3:0:0:0:
450,108,37197,1,4,1:0:0:0:
368,218,37355,1,0,3:0:0:0:
469,348,37513,6,0,P|398:333|275:374,1,194.999991073609,4|0,1:2|0:0,0:0:0:0:
338,307,37828,2,0,P|286:240|355:121,1,194.999991073609,4|0,1:0|0:0,0:0:0:0:
456,80,38144,2,0,L|184:98,1,259.999988098145,8|0,1:3|0:0,0:0:0:0:
36,238,38618,5,2,1:0:0:0:
208,178,38776,1,0,1:0:0:0:
386,239,38934,1,2,1:0:0:0:
422,163,39092,2,0,P|353:159|279:158,1,129.999994049073,2|0,1:0|0:0,0:0:0:0:
130,348,39407,5,8,0:0:0:0:
234,335,39565,1,8,0:0:0:0:
294,286,39723,1,4,0:3:0:0:
187,251,39881,1,4,0:3:0:0:
425,236,40039,2,0,B|335:143|335:143|205:118,1,259.999988098145,12|0,1:2|1:0,0:0:0:0:
450,48,40513,5,4,1:2:0:0:
443,47,40986,1,0,3:0:0:0:
436,46,41302,1,2,3:0:0:0:
429,45,41618,1,0,3:0:0:0:
48,137,41934,6,0,L|191:126,1,129.999994049073,0|8,1:0|0:3,0:0:0:0:
32,160,42250,2,0,L|175:149,1,129.999994049073,0|8,1:0|0:3,0:0:0:0:
16,183,42565,2,0,L|159:172,1,129.999994049073,0|8,1:0|0:3,0:0:0:0:
0,206,42881,2,0,L|143:195,1,129.999994049073,0|8,1:0|0:3,0:0:0:0:
450,336,43197,5,12,1:2:0:0:
443,337,43512,1,0,3:0:0:0:
436,338,43828,1,2,3:0:0:0:
429,339,44144,1,0,3:0:0:0:
48,247,44460,6,0,L|191:258,1,129.999994049073,8|4,1:3|0:3,0:0:0:0:
32,224,44776,2,0,L|175:235,1,129.999994049073,8|4,1:3|0:3,0:0:0:0:
16,201,45092,1,0,1:0:0:0:
145,210,45250,1,4,1:2:0:0:
0,178,45407,2,0,L|143:189,1,129.999994049073,4|0,1:0|1:0,0:0:0:0:
368,237,45723,5,2,1:1:0:0:
357,278,45881,1,0,0:0:0:0:
342,252,46039,1,10,0:1:0:0:
383,263,46197,1,0,0:0:0:0:
321,246,46355,5,2,1:1:0:0:
403,268,46513,1,0,0:0:0:0:
373,216,46671,1,10,0:1:0:0:
351,298,46829,1,0,0:0:0:0:
379,193,46986,5,2,1:1:0:0:
345,321,47144,1,0,0:0:0:0:
298,240,47302,1,10,0:1:0:0:
426,274,47460,1,0,0:0:0:0:
161,52,47618,6,0,L|173:96,3,32.4999985122681,0|0|0|0,3:0|0:0|0:0|0:0,0:0:0:0:
251,97,47776,2,0,L|239:141,3,32.4999985122681,0|0|0|0,3:0|0:0|0:0|0:0,0:0:0:0:
163,169,47934,6,0,L|175:213,3,32.4999985122681,0|0|0|0,3:0|0:0|0:0|0:0,0:0:0:0:
256,237,48092,2,0,L|244:281,3,32.4999985122681,0|0|0|0,3:0|0:0|0:0|0:0,0:0:0:0:
171,313,48250,5,0,1:0:0:0:
247,348,48407,1,2,2:0:0:0:
451,230,48565,1,8,2:0:0:0:
346,257,48723,1,2,2:3:0:0:
244,98,48881,1,0,1:0:0:0:
346,132,49039,1,2,2:0:0:0:
180,197,49197,1,8,2:0:0:0:
66,233,49355,1,2,2:3:0:0:
340,40,49513,5,4,1:0:0:0:
372,44,49591,1,0,0:3:0:0:
400,59,49670,1,2,0:3:0:0:
422,83,49749,1,0,0:0:0:0:
434,113,49828,1,2,0:3:0:0:
435,145,49907,1,0,0:0:0:0:
425,176,49986,1,2,0:3:0:0:
405,201,50065,1,0,0:0:0:0:
378,218,50144,5,4,0:2:0:0:
343,189,50222,1,0,0:0:0:0:
304,166,50301,1,2,0:2:0:0:
261,152,50380,1,0,0:0:0:0:
216,146,50459,1,2,0:2:0:0:
170,148,50538,1,0,0:0:0:0:
126,159,50617,1,2,0:2:0:0:
85,179,50696,1,0,0:0:0:0:
48,205,50775,5,4,1:2:0:0:
209,234,50934,1,0,1:0:0:0:
346,132,51092,1,4,1:0:0:0:
467,263,51407,5,2,1:3:0:0:
278,182,51565,1,0,1:0:0:0:
213,0,51724,1,4,1:2:0:0:
71,271,52039,5,2,0:3:0:0:
154,290,52197,1,4,0:2:0:0:
442,121,52355,5,2,0:3:0:0:
359,140,52513,1,4,0:0:0:0:
302,359,52671,5,2,0:3:0:0:
256,214,52828,1,6,0:2:0:0:
210,69,52986,1,4,0:1:0:0:
449,252,53302,5,2,1:3:0:0:
384,333,53460,1,2,1:2:0:0:
376,260,53618,1,4,1:2:0:0:
63,132,53934,5,2,1:3:0:0:
128,51,54092,1,2,1:2:0:0:
136,124,54250,1,4,1:2:0:0:
364,65,54565,5,4,0:1:0:0:
350,151,54723,1,8,0:0:0:0:
148,319,54881,5,4,0:2:0:0:
162,233,55039,1,8,0:0:0:0:
348,332,55197,5,4,0:2:0:0:
257,191,55355,1,2,0:3:0:0:
166,50,55513,1,4,0:0:0:0:
447,73,55828,5,0,1:0:0:0:
366,115,55986,1,2,0:3:0:0:
107,164,56144,1,0,1:0:0:0:
191,218,56302,1,2,0:3:0:0:
463,66,56460,5,0,1:0:0:0:
374,112,56618,1,2,0:3:0:0:
89,166,56776,1,0,1:0:0:0:
182,225,56934,1,2,0:3:0:0:
363,352,57092,5,4,1:0:0:0:
452,327,57250,1,8,0:0:0:0:
338,263,57407,1,0,1:0:0:0:
427,238,57565,1,8,0:0:0:0:
377,327,57723,5,0,1:0:0:0:
427,312,57881,1,8,0:0:0:0:
362,277,58038,1,0,1:0:0:0:
412,262,58196,1,8,0:0:0:0:
79,83,58355,5,0,1:0:0:0:
164,105,58513,1,2,0:3:0:0:
428,164,58671,1,0,1:0:0:0:
248,217,58828,1,2,0:3:0:0:
63,77,58986,5,0,1:0:0:0:
157,101,59144,1,2,0:3:0:0:
447,166,59302,1,0,1:0:0:0:
249,224,59459,1,2,0:3:0:0:
54,329,59618,5,4,1:1:0:0:
120,365,59776,1,2,0:0:0:0:
295,285,59934,1,0,1:0:0:0:
361,249,60092,1,2,0:0:0:0:
38,331,60250,5,0,1:0:0:0:
111,370,60408,1,2,0:0:0:0:
303,282,60566,5,0,1:0:0:0:
223,252,60802,1,0,1:0:0:0:
223,252,60881,1,4,1:2:0:0:
223,252,61828,5,0,1:0:0:0:
394,189,62064,1,0,1:0:0:0:
394,189,62143,1,4,1:2:0:0:
394,189,63092,5,0,1:0:0:0:
151,77,63328,1,0,1:0:0:0:
151,77,63407,1,4,1:2:0:0:
435,125,63723,5,0,1:0:0:0:
114,153,63959,1,0,1:0:0:0:
114,153,64038,1,4,1:2:0:0:
396,59,64355,5,0,1:0:0:0:
77,229,64591,1,0,1:0:0:0:
77,229,64670,1,4,1:2:0:0:
473,59,64986,5,0,1:0:0:0:
40,305,65222,1,0,1:0:0:0:
40,305,65301,1,4,1:2:0:0:
512,0,65618,5,0,1:0:0:0:
0,384,65855,1,0,1:0:0:0:
0,384,65934,1,4,1:2:0:0:
512,0,66250,5,4,1:2:0:0:
0,384,66565,5,4,1:2:0:0:
512,0,66881,5,4,1:2:0:0:
0,384,67197,5,4,1:2:0:0:
392,296,67828,6,0,P|400:172|152:254,1,454.999979171754,4|0,1:0|0:0,0:0:0:0:
152,195,68460,2,0,L|276:247,1,129.999994049073,4|0,1:0|0:0,0:0:0:0:
467,57,68776,1,0,1:0:0:0:
46,40,68934,2,0,P|52:127|33:177,1,129.999994049073,0|0,1:0|0:0,0:0:0:0:
0,345,69250,2,2,B|92:323|92:323|156:342|156:342|252:317,1,259.999988098145,0|0,1:0|0:0,0:1:0:0:
349,342,69723,5,8,1:0:0:0:
121,249,69881,1,8,0:3:0:0:
239,215,70039,5,8,1:0:0:0:
373,226,70197,1,8,0:3:0:0:
220,106,70355,5,8,1:0:0:0:
103,133,70513,1,2,0:3:0:0:
349,108,70671,5,8,1:0:0:0:
415,52,70828,1,2,0:3:0:0:
484,17,70986,6,0,B|521:107|448:186|492:272,1,259.999988098145,4|0,1:2|1:0,0:0:0:0:
491,271,71460,1,2,1:3:0:0:
226,349,71618,2,0,B|259:323|259:323|355:322,1,129.999994049073,2|0,1:3|0:0,0:0:0:0:
158,281,71934,1,4,1:2:0:0:
317,234,72092,1,2,1:1:0:0:
26,116,72250,2,0,P|26:191|69:236,1,129.999994049073,2|0,1:1|0:0,0:0:0:0:
100,67,72565,2,0,B|132:73|151:84|151:84|208:67|244:96|306:74,1,194.999991073609,0|0,1:0|0:0,0:0:0:0:
372,46,72881,6,0,P|309:114|390:219,1,225.000008583069,6|0,1:0|0:0,0:0:0:0:
499,244,73197,2,2,B|379:237|379:237|284:321,1,225.000008583069,0|0,1:0|0:0,0:1:0:0:
134,362,73513,2,2,P|151:261|299:347,1,300.000011444092,4|0,1:0|1:0,0:1:0:0:
203,321,73986,1,4,1:2:0:0:
53,306,74144,1,0,1:0:0:0:
32,157,74302,5,8,1:0:0:0:
248,188,74460,1,8,1:0:0:0:
429,72,74618,2,0,L|275:62,4,150.000005722046,8|4|4|4|4,1:0|1:0|1:2|1:0|1:2,0:0:0:0:
55,217,75407,5,0,1:0:0:0:
178,75,75565,1,0,1:0:0:0:
176,82,75644,1,0,1:0:0:0:
174,89,75723,2,0,L|168:223,1,129.999994049073,2|0,1:3|0:0,0:0:0:0:
374,364,76039,6,0,P|436:284|365:144,1,259.999988098145,4|4,1:2|0:3,0:0:0:0:
73,248,76513,2,0,B|106:209|106:209|317:259,1,259.999988098145,4|4,1:0|0:3,0:0:0:0:
139,31,76986,2,0,B|214:35|203:116|305:99|305:99|260:140|259:179,1,259.999988098145,4|4,1:2|0:3,0:0:0:0:
465,51,77460,2,2,P|407:105|485:249,1,259.999988098145,4|0,1:0|1:0,0:1:0:0:
70,368,77934,5,2,1:0:0:0:
198,352,78092,1,0,1:0:0:0:
144,295,78250,1,2,1:0:0:0:
296,311,78407,1,0,1:0:0:0:
302,308,78486,1,2,0:0:0:0:
308,306,78565,2,2,P|316:205|316:159,1,129.999994049073,0|0,1:0|0:0,0:1:0:0:
38,71,78881,5,2,1:0:0:0:
190,159,79039,1,2,1:0:0:0:
72,182,79197,1,0,1:0:0:0:
186,39,79355,2,2,L|341:80,1,129.999994049073,0|0,1:0|0:0,0:1:0:0:
346,50,79671,5,2,1:0:0:0:
487,171,79828,2,2,B|429:149|357:191,1,129.999994049073,2|0,1:0|0:0,0:1:0:0:
416,268,80144,5,0,1:0:0:0:
154,274,80302,1,2,0:0:0:0:
267,351,80460,5,2,1:1:0:0:
21,314,80618,1,2,0:2:0:0:
141,382,80776,5,0,1:0:0:0:
171,132,80934,1,2,0:0:0:0:
405,40,81092,2,0,P|362:97|486:222,2,259.999988098145,0|2|0,1:0|1:3|1:0,0:0:0:0:
454,131,81881,1,2,1:3:0:0:
254,54,82039,1,2,1:3:0:0:
191,256,82197,1,0,1:0:0:0:
394,325,82355,5,4,1:2:0:0:
355,353,82513,1,0,1:0:0:0:
363,276,82671,1,0,1:0:0:0:
434,363,82828,1,2,1:2:0:0:
259,345,82986,1,2,1:2:0:0:
84,327,83144,1,2,1:0:0:0:
23,267,83302,1,2,1:0:0:0:
105,245,83460,1,0,1:0:0:0:
236,56,83618,6,0,P|163:155|43:129,2,259.999988098145,0|2|0,1:0|1:3|1:0,0:0:0:0:
242,223,84407,2,0,P|333:216|387:216,1,129.999994049073,0|2,1:0|1:0,0:0:0:0:
329,113,84723,1,2,1:2:0:0:
440,147,84881,1,2,1:3:0:0:
301,323,85039,1,2,1:2:0:0:
80,259,85197,1,2,1:3:0:0:
146,171,85355,1,2,1:2:0:0:
5,174,85513,6,2,L|-1:304,1,129.999994049073,0|0,1:0|0:0,0:1:0:0:
28,83,85828,2,0,P|94:41|213:136,1,194.999991073609,2|0,1:1|0:0,0:0:0:0:
158,157,86144,5,2,1:0:0:0:
460,209,86302,1,4,1:0:0:0:
25,319,86618,5,4,1:2:0:0:
512,382,86934,5,4,1:2:0:0:
325,68,87250,5,4,1:2:0:0:
143,328,88671,6,0,L|299:328,1,129.999994049073,2|0,0:1|0:0,0:0:0:0:
145,331,88986,6,2,L|294:331,1,129.999994049073,0|0,0:0|0:0,0:1:0:0:
149,334,89302,6,0,L|283:334,1,129.999994049073,0|2,0:0|0:1,0:0:0:0:
151,338,89618,6,0,L|310:338,1,129.999994049073,2|0,0:1|0:0,0:0:0:0:
149,334,89934,5,2,1:0:0:0:
279,334,90091,1,2,0:0:0:0:
147,330,90250,5,2,1:0:0:0:
277,330,90407,1,2,0:0:0:0:
143,327,90565,5,8,1:0:0:0:
273,327,90722,1,2,0:0:0:0:
141,324,90881,5,8,1:0:0:0:
271,324,91038,1,2,0:0:0:0:
70,85,91197,5,0,1:0:0:0:
207,176,91355,1,2,0:2:0:0:
175,80,91513,1,0,1:0:0:0:
372,130,91671,1,2,0:0:0:0:
39,250,91828,5,0,1:0:0:0:
135,225,91986,1,2,0:0:0:0:
372,311,92144,5,0,1:0:0:0:
244,303,92302,1,2,0:0:0:0:
299,37,92460,5,0,1:0:0:0:
299,168,92618,1,0,1:0:0:0:
428,167,92776,1,0,1:0:0:0:
429,37,92934,1,0,1:0:0:0:
331,135,93092,5,0,1:0:0:0:
331,69,93250,1,0,1:0:0:0:
395,134,93408,1,0,1:0:0:0:
396,69,93566,1,0,1:0:0:0:
367,108,93723,1,4,1:0:0:0:
367,108,93881,1,0,1:0:0:0:
454,320,94039,6,0,P|360:290|248:314,1,194.999991073609,4|0,1:2|0:0,0:0:0:0:
176,357,94355,2,0,P|225:260|166:113,1,259.999988098145,4|0,1:0|1:0,0:0:0:0:
511,122,94828,6,0,B|393:64|393:64|246:74,1,259.999988098145,4|2,1:2|1:0,0:0:0:0:
95,136,95302,1,0,1:0:0:0:
249,203,95460,1,2,1:0:0:0:
240,89,95618,1,0,1:0:0:0:
114,246,95776,1,2,1:0:0:0:
412,132,95934,2,0,P|368:186|432:295,1,194.999991073609,8|0,1:0|0:0,0:0:0:0:
142,377,96250,5,0,1:0:0:0:
288,324,96407,1,2,0:0:0:0:
455,208,96565,5,0,1:0:0:0:
264,225,96723,1,2,0:0:0:0:
91,222,96881,5,0,1:0:0:0:
243,249,97038,1,2,0:0:0:0:
446,232,97196,5,0,1:0:0:0:
272,151,97354,1,2,0:0:0:0:
137,70,97513,5,0,1:0:0:0:
255,169,97670,1,2,1:3:0:0:
439,256,97828,5,0,1:0:0:0:
329,99,97986,1,2,1:3:0:0:
34,87,98144,5,0,1:0:0:0:
102,26,98302,2,0,B|148:117|62:189|121:290,1,259.999988098145,4|0,1:2|1:0,0:0:0:0:
341,320,98776,6,0,P|299:297|278:261,1,75.0000028610231,2|0,1:0|0:0,0:0:0:0:
194,228,98934,2,0,P|281:241|353:130,1,225.000008583069,4|0,1:2|0:0,0:0:0:0:
458,322,99250,2,0,B|432:351|432:351|231:359,1,225.000008583069,4|0,1:0|0:0,0:0:0:0:
67,358,99565,2,0,B|137:327|137:327|170:264|170:264|254:225,1,225.000008583069,4|0,1:2|0:0,0:0:0:0:
359,252,99881,5,4,1:0:0:0:
74,84,100197,1,8,1:0:0:0:
183,54,100355,1,2,1:3:0:0:
307,154,100513,1,4,1:2:0:0:
193,142,100671,1,4,1:0:0:0:
184,150,101144,6,2,P|113:177|133:313,1,225.000008583069,0|0,1:0|0:0,0:1:0:0:
194,377,101460,2,0,B|239:330|239:330|402:316,1,225.000008583069,2|0,1:0|0:0,0:0:0:0:
477,196,101776,2,2,L|386:204,1,75.0000028610231,0|0,1:0|0:0,0:1:0:0:
275,92,101934,2,0,L|349:98,1,75.0000028610231,2|0,1:1|0:0,0:1:0:0:
357,112,102565,5,8,0:3:0:0:
363,125,102643,1,0,0:0:0:0:
367,139,102722,1,8,0:0:0:0:
368,154,102801,1,0,0:0:0:0:
358,178,102881,5,8,0:3:0:0:
339,194,102959,1,0,0:0:0:0:
327,216,103038,1,8,0:0:0:0:
321,240,103117,1,0,0:0:0:0:
329,280,103197,5,8,0:3:0:0:
289,284,103275,1,0,0:0:0:0:
249,288,103354,1,8,0:0:0:0:
209,293,103433,1,0,0:0:0:0:
174,329,103513,5,8,0:3:0:0:
170,279,103591,1,0,0:0:0:0:
165,229,103670,1,4,0:2:0:0:
160,179,103749,1,0,0:2:0:0:
128,140,103828,6,0,L|184:122,1,50,0|0,1:0|0:0,0:0:0:0:
181,101,103986,2,0,L|133:116,1,50,2|0,0:3|0:0,0:0:0:0:
308,64,104144,6,0,L|326:120,1,50,0|0,1:0|0:0,0:0:0:0:
347,117,104302,2,0,L|331:69,1,50,2|0,0:3|0:0,0:0:0:0:
384,244,104460,6,0,L|328:262,1,50,0|0,1:0|0:0,0:0:0:0:
331,283,104618,2,0,L|378:267,1,50,2|0,0:3|0:0,0:0:0:0:
204,320,104776,6,0,L|186:264,1,50,0|0,1:0|0:0,0:0:0:0:
165,267,104934,2,0,L|180:314,1,50,2|0,0:3|0:0,0:0:0:0:
83,111,105092,6,0,L|147:117,1,50,0|0,1:0|0:0,0:0:0:0:
174,35,105250,2,0,L|171:101,1,50,4|0,0:1|0:0,0:0:0:0:
132,147,105407,6,0,L|199:153,1,50,0|0,1:0|0:0,0:0:0:0:
227,67,105565,2,0,L|224:136,1,50,4|0,0:2|0:0,0:0:0:0:
185,184,105723,6,0,L|255:191,1,50,0|0,1:0|0:0,0:0:0:0:
285,100,105881,2,0,L|282:173,1,50,4|0,0:2|0:0,0:0:0:0:
244,225,106039,6,0,L|318:232,1,50,0|0,1:0|0:0,0:0:0:0:
349,137,106197,2,0,L|345:214,1,50,4|0,0:1|0:0,0:0:0:0:
488,354,106355,5,8,1:2:0:0:
394,329,106513,1,2,1:3:0:0:
61,251,106671,5,8,1:2:0:0:
155,226,106829,1,2,1:3:0:0:
488,148,106986,5,8,1:2:0:0:
394,123,107144,1,2,1:3:0:0:
30,97,107302,1,8,1:3:0:0:
102,80,107380,1,2,1:2:0:0:
176,91,107459,1,8,1:3:0:0:
240,129,107538,1,2,1:2:0:0:
284,189,107617,5,4,0:0:0:0:
318,179,107776,1,2,0:3:0:0:
328,144,107934,1,4,0:0:0:0:
243,218,108250,5,4,0:0:0:0:
236,252,108407,1,2,0:3:0:0:
261,278,108565,1,4,0:0:0:0:
178,153,108881,5,4,0:0:0:0:
261,278,109039,1,2,0:3:0:0:
328,144,109197,5,4,0:0:0:0:
261,278,109355,1,2,0:3:0:0:
92,26,109513,5,4,0:2:0:0:
240,20,109671,1,2,0:3:0:0:
386,24,109828,1,4,0:1:0:0:
