osu file format v14

[General]
AudioFilename: hatsukoi stripe.mp3
AudioLeadIn: 0
PreviewTime: 53943
Countdown: 0
SampleSet: Soft
StackLeniency: 0.7
Mode: 0
LetterboxInBreaks: 0
WidescreenStoryboard: 0

[Editor]
DistanceSpacing: 1.3
BeatDivisor: 4
GridSize: 4
TimelineZoom: 2.5

[Metadata]
Title:Hatsukoi///Stripe
TitleUnicode:ハツコイ///ストライプ
Artist:Afilia Saga
ArtistUnicode:アフィリア・サーガ
Creator:XiMerx
Version:Insane
Source:PRETTY×CATION2
Tags:プリティケーション2 hibiki works eroge opening estellia-
BeatmapID:688069
BeatmapSetID:307564

[Difficulty]
HPDrainRate:7
CircleSize:4
OverallDifficulty:8
ApproachRate:9
SliderMultiplier:1.5
SliderTickRate:1

[Events]
//Background and Video events
0,0,"bg.jpg",0,0
Video,0,"video.flv"
//Break Periods
//Storyboard Layer 0 (Background)
//Storyboard Layer 1 (Fail)
//Storyboard Layer 2 (Pass)
//Storyboard Layer 3 (Foreground)
//Storyboard Sound Samples

[TimingPoints]
1708,352.941176470588,4,2,2,80,1,0
6296,-100,4,2,1,80,0,0
18649,-133.333333333333,4,2,2,40,0,0
25707,-100,4,2,1,60,0,0
27119,-100,4,2,0,60,0,0
28355,-100,4,2,1,60,0,0
41237,-100,4,2,2,60,0,0
46884,-100,4,2,1,60,0,0
53413,-100,4,2,1,20,0,0
55002,-109.89010989011,4,2,1,20,0,0
55355,-100,4,2,1,70,0,1
83590,-100,4,2,1,60,0,0
86413,-100,4,2,2,60,0,0
99119,-100,4,2,1,60,0,0
100178,-133.333333333333,4,2,1,60,0,0
100266,-100,4,2,1,60,0,0
112178,-100,4,2,2,60,0,0
117649,-100,4,2,1,20,0,0
120649,-100,4,2,1,60,0,0
121178,-100,4,2,1,35,0,0
123119,-100,4,2,1,25,0,0
123472,-133.333333333333,4,2,1,25,0,0
123825,-200,4,2,1,25,0,0

[Colours]
Combo1 : 241,184,213
Combo2 : 248,248,117
Combo3 : 201,201,228

[HitObjects]
92,148,1708,22,0,L|184:152,1,75,6|0,0:0|0:0,0:0:0:0:
260,216,2060,1,8,0:0:0:0:
364,176,2237,1,0,0:0:0:0:
476,196,2413,1,2,0:0:0:0:
364,176,2590,2,0,P|316:144|272:132,1,75,0|8,0:0|0:0,0:0:0:0:
216,60,2943,2,0,L|312:56,1,75,0|2,0:0|0:0,0:0:0:0:
380,128,3296,2,0,L|464:120,2,75,0|8|0,0:0|0:0|0:0,0:0:0:0:
348,220,3825,2,0,P|368:268|432:292,1,112.5,2|0,0:0|0:0,0:0:0:0:
424,348,4178,2,0,L|316:348,1,75,8|0,0:0|0:0,0:0:0:0:
256,284,4531,37,2,0:0:0:0:
156,228,4707,2,0,L|144:128,2,75,0|8|0,0:0|0:0|0:0,0:0:0:0:
256,284,5237,1,2,0:0:0:0:
301,189,5413,2,0,L|225:177,1,75,0|8,0:0|0:0,0:0:0:0:
304,97,5766,2,0,P|371:126|392:196,1,150
377,301,6296,6,0,P|425:297|474:260,1,75,8|0,0:0|0:0,0:0:0:0:
172,221,6649,2,0,P|124:225|75:262,1,75,8|0,0:0|0:0,0:0:0:0:
377,301,7002,2,0,P|425:297|474:260,1,75,8|0,0:0|0:0,0:0:0:0:
395,46,7355,6,0,L|391:210,1,150,6|8,0:0|0:0,0:0:0:0:
195,273,8060,1,2,0:0:0:0:
239,185,8237,1,0,0:0:0:0:
112,150,8413,1,8,0:0:0:0:
253,91,8590,2,0,P|320:135|325:219,1,150
377,274,9119,2,0,P|440:279|467:263,1,75,8|0,0:0|0:0,0:0:0:0:
309,355,9472,2,0,L|201:359,1,75,2|0,0:0|0:0,0:0:0:0:
256,232,9825,2,0,L|148:228,1,75,8|0,0:0|0:0,0:0:0:0:
92,324,10178,6,0,P|112:272|64:184,2,150,6|8|2,0:0|0:0|0:0,0:0:0:0:
186,376,11060,1,0,0:0:0:0:
233,290,11237,2,0,P|301:286|334:267,1,75,8|0,0:0|0:0,0:0:0:0:
367,168,11590,1,2,0:0:0:0:
223,150,11766,1,0,0:0:0:0:
301,80,11943,1,8,0:0:0:0:
270,213,12119,2,0,P|231:227|180:217,1,75,0|2,0:0|0:0,0:0:0:0:
83,188,12472,2,0,L|90:114,2,75,0|8|0,0:0|0:0|0:0,0:0:0:0:
204,80,13002,6,0,P|268:40|348:60,1,150,6|8,0:0|0:0,0:0:0:0:
288,144,13531,2,0,B|268:184|292:216|292:216|316:248|292:293,1,150,8|8,0:0|0:0,0:0:0:0:
396,324,14060,2,0,L|481:331,1,75,8|0,0:0|0:0,0:0:0:0:
392,58,14413,6,0,L|392:208,1,150,6|8,0:0|0:0,0:0:0:0:
292,112,14943,2,0,P|240:92|160:156,1,150,8|8,0:0|0:0,0:0:0:0:
156,272,15472,1,8,0:0:0:0:
224,212,15649,1,0,0:0:0:0:
156,272,15825,6,0,L|168:371,1,75
224,212,16178,1,8,0:0:0:0:
312,180,16355,2,0,P|260:128|180:128,1,150,8|8,0:0|0:0,0:0:0:0:
20,304,16884,2,0,L|96:308,1,75,8|0,0:0|0:0,0:0:0:0:
124,304,17149,1,8,0:0:0:0:
152,296,17237,2,0,L|260:292,1,75,8|8,0:0|0:0,0:0:0:0:
316,320,17590,5,2,0:0:0:0:
396,252,17766,1,8,0:0:0:0:
272,104,18119,5,8,0:0:0:0:
352,36,18296,1,2,0:0:0:0:
232,248,18649,6,0,L|360:248,1,112.500004291535,6|8,0:0|0:0,0:0:0:0:
456,180,19355,2,0,P|440:244|448:300,1,112.500004291535,2|8,0:0|0:0,0:0:0:0:
336,376,20060,1,2,0:0:0:0:
255,277,20237,1,0,0:0:0:0:
324,303,20413,1,8,0:0:0:0:
196,324,20590,2,0,P|147:324|89:351,2,112.500004291535
156,204,21649,5,0,0:0:0:0:
160,120,21825,1,8,0:0:0:0:
244,140,22002,1,0,0:0:0:0:
240,224,22178,2,0,P|320:232|368:208,1,112.500004291535,2|8,0:0|0:0,0:0:0:0:
480,7,22884,6,0,L|470:120,1,112.500004291535,2|8,0:0|0:0,0:0:0:0:
388,103,23413,2,0,B|336:95|328:72|272:75,1,112.500004291535
104,237,24119,2,0,P|159:240|210:216,1,112.500004291535
296,180,24649,1,0,0:0:0:0:
256,78,24825,1,8,0:0:0:0:
395,239,25002,1,8,0:0:0:0:
435,137,25178,1,0,0:0:0:0:
326,384,25355,1,0,0:0:0:0:
286,282,25531,1,8,0:0:0:0:
56,276,25707,6,0,P|93:281|129:274,1,75,6|8,0:0|0:0,0:0:0:0:
267,221,26060,1,8,0:0:0:0:
380,316,26237,2,0,L|305:326,1,75,8|0,0:0|0:0,0:0:0:0:
195,355,26590,2,0,P|192:318|199:282,2,75,8|8|8,0:0|0:0|0:0,0:0:0:0:
284,240,27119,6,0,P|232:192|140:204,1,150,2|8,0:0|0:0,0:0:0:0:
72,116,27649,2,0,L|240:108,1,150
332,136,28178,1,8,0:0:0:0:
352,312,28355,5,12,0:0:0:0:
352,312,28707,2,0,P|296:332|264:332,1,75,8|8,0:0|0:0,0:0:0:0:
160,232,29060,1,8,0:0:0:0:
88,376,29237,1,8,0:0:0:0:
36,232,29413,1,8,0:0:0:0:
160,328,29590,1,8,0:0:0:0:
224,180,29766,1,8,0:0:0:0:
292,328,29943,6,0,P|369:347|429:310,1,150,6|8,0:0|0:0,0:0:0:0:
352,115,30649,2,0,L|354:264,1,150,2|8,0:0|0:0,0:0:0:0:
420,76,31355,1,2,0:0:0:0:
444,264,31531,1,0,0:0:0:0:
260,148,31707,1,8,0:0:0:0:
469,179,31884,2,0,P|421:191|389:187,1,75,0|2,0:0|0:0,0:0:0:0:
300,228,32237,2,0,P|240:228|200:312,1,150
104,64,32943,5,0,0:0:0:0:
154,249,33120,1,8,0:0:0:0:
176,81,33296,1,0,0:0:0:0:
212,202,33473,1,2,0:0:0:0:
249,97,33649,1,0,0:0:0:0:
275,162,33826,1,8,0:0:0:0:
323,106,34002,1,0,0:0:0:0:
376,184,34178,6,0,L|376:288,1,75,2|0,0:0|0:0,0:0:0:0:
328,336,34531,1,8,0:0:0:0:
376,259,34707,2,0,B|288:224|244:304,1,150
156,332,35237,1,8,0:0:0:0:
112,244,35413,2,0,L|152:92,1,150
256,204,35943,5,8,0:0:0:0:
224,348,36119,1,0,0:0:0:0:
316,304,36296,1,2,0:0:0:0:
348,160,36472,1,0,0:0:0:0:
416,256,36649,1,8,0:0:0:0:
448,112,36825,1,0,0:0:0:0:
304,184,37002,5,6,0:0:0:0:
300,24,37178,1,0,0:0:0:0:
152,76,37355,1,8,0:0:0:0:
300,104,37531,2,0,P|344:112|380:208,1,150
204,176,38060,1,8,0:0:0:0:
176,276,38237,5,0,0:0:0:0:
176,276,38413,2,0,P|216:284|272:256,1,75,2|0,0:0|0:0,0:0:0:0:
348,176,38766,1,8,0:0:0:0:
348,176,38943,2,0,L|256:176,1,75,8|2,0:0|0:0,0:0:0:0:
212,32,39296,1,0,0:0:0:0:
152,148,39472,1,8,0:0:0:0:
100,264,39649,6,0,L|16:260,1,75,0|8,0:0|0:0,0:0:0:0:
140,352,40002,1,8,0:0:0:0:
250,271,40178,1,8,0:0:0:0:
64,252,40355,1,8,0:0:0:0:
152,148,40531,1,8,0:0:0:0:
184,276,40707,1,8,0:0:0:0:
152,148,40884,2,0,P|224:148|252:140,1,75,8|8,0:0|0:0,0:0:0:0:
72,64,41237,5,6,0:0:0:0:
280,92,41590,2,0,P|344:96|380:96,2,75,8|0|2,0:0|0:0|0:0,0:0:0:0:
200,32,42119,2,0,L|140:32,2,37.5,0|0|8,0:0|0:0|0:0,0:0:0:0:
280,92,42472,1,0,0:0:0:0:
284,204,42649,2,0,L|271:277,1,75,2|0,0:0|0:0,0:0:0:0:
176,176,43002,2,0,L|160:84,1,75,8|0,0:0|0:0,0:0:0:0:
44,280,43355,1,2,0:0:0:0:
76,160,43531,1,0,0:0:0:0:
128,248,43707,2,0,P|176:236|232:252,1,75,8|0,0:0|0:0,0:0:0:0:
296,344,44060,5,2,0:0:0:0:
248,168,44413,1,8,0:0:0:0:
248,168,44502,1,0,0:0:0:0:
248,168,44590,2,8,P|292:168|332:144,1,75,8|10,0:0|0:0,0:0:0:0:
409,116,44943,2,0,L|405:208,2,75,0|8|0,0:0|0:0|0:0,0:0:0:0:
491,69,45472,2,0,P|435:81|351:33,1,150,2|8,0:0|0:0,0:0:0:0:
231,99,46002,2,0,P|231:211|223:279,1,150
112,308,46531,1,8,0:0:0:0:
112,308,46884,6,0,P|168:337|262:308,1,150,6|8,0:0|0:0,0:0:0:0:
272,176,47413,1,0,0:0:0:0:
344,264,47590,1,2,0:0:0:0:
304,368,47766,2,0,L|396:364,2,75,0|8|0,0:0|0:0|0:0,0:0:0:0:
344,264,48296,6,0,P|412:280|480:204,1,150,2|8,0:0|0:0,0:0:0:0:
396,196,48825,2,0,P|328:180|264:232,1,150
214,297,49355,1,8,0:0:0:0:
195,180,49531,1,0,0:0:0:0:
362,330,49707,6,0,P|335:344|279:337,1,75,2|0,0:0|0:0,0:0:0:0:
214,297,50060,1,8,0:0:0:0:
155,361,50237,2,0,P|133:325|135:261,1,75,0|2,0:0|0:0,0:0:0:0:
82,200,50590,1,0,0:0:0:0:
102,75,50766,2,0,P|165:47|241:78,1,150,8|2,0:0|0:0,0:0:0:0:
270,188,51296,2,0,L|118:200,1,150
82,200,51737,1,0,0:0:0:0:
42,208,51825,2,0,P|46:268|30:304,1,75,2|0,0:0|0:0,0:0:0:0:
100,368,52178,1,8,0:0:0:0:
168,300,52355,2,0,P|224:304|288:216,1,150
232,148,52884,5,8,0:0:0:0:
348,196,53060,1,8,0:0:0:0:
472,172,53237,1,8,0:0:0:0:
356,88,53413,1,8,0:0:0:0:
344,96,53502,1,8,0:0:0:0:
332,104,53590,1,8,0:0:0:0:
320,112,53678,1,8,0:0:0:0:
308,120,53766,1,8,0:0:0:0:
297,130,53855,1,8,0:0:0:0:
285,139,53943,6,8,L|277:175,2,25
369,319,54119,2,0,L|371:281,1,37.5
487,124,54296,2,8,L|483:184,1,37.5
288,343,54472,2,8,L|290:305,1,37.5
316,224,54649,1,8,0:0:0:0:
344,204,54737,1,8,0:0:0:0:
376,200,54825,1,8,0:0:0:0:
408,212,54913,1,8,0:0:0:0:
432,236,55002,6,8,P|384:200|344:204,1,102.375003436661,8|12,0:0|0:0,0:0:0:0:
316,224,55355,6,0,P|316:296|296:320,1,75,12|0,0:0|0:0,0:0:0:0:
228,352,55707,1,8,0:0:0:0:
160,272,55884,1,0,0:0:0:0:
288,144,56060,1,8,0:0:0:0:
244,232,56237,1,0,0:0:0:0:
176,88,56413,1,8,0:0:0:0:
288,144,56590,2,0,P|368:148|372:144,1,75,0|8,0:0|0:0,0:0:0:0:
480,232,56943,6,0,L|392:232,1,75,0|8,0:0|0:0,0:0:0:0:
284,336,57296,1,0,0:0:0:0:
331,212,57472,2,0,P|358:186|367:150,1,75,2|0,0:0|0:0,0:0:0:0:
228,196,57825,2,0,L|228:296,1,75,8|0,0:0|0:0,0:0:0:0:
56,336,58178,1,8,0:0:0:0:
72,128,58531,6,0,L|160:120,1,75,8|0,0:0|0:0,0:0:0:0:
100,224,58884,2,0,L|188:216,1,75,2|0,0:0|0:0,0:0:0:0:
144,324,59237,2,0,L|232:316,1,75,8|0,0:0|0:0,0:0:0:0:
358,356,59590,2,0,P|434:364|490:312,1,150,2|8,0:0|0:0,0:0:0:0:
488,212,60119,1,0,0:0:0:0:
376,224,60296,2,0,L|368:116,1,75,2|0,0:0|0:0,0:0:0:0:
480,132,60649,1,8,0:0:0:0:
370,149,60825,6,0,P|312:148|204:128,1,150,4|0,0:0|0:0,0:0:0:0:
132,200,61355,2,0,L|112:280,2,75,8|0|2,0:0|0:0|0:0,0:0:0:0:
126,102,61884,1,0,0:0:0:0:
221,132,62060,1,8,0:0:0:0:
308,42,62237,6,0,L|316:201,1,150
390,254,62766,1,8,0:0:0:0:
324,348,62943,2,0,P|253:359|188:308,1,150
184,218,63472,1,8,0:0:0:0:
279,248,63649,1,0,0:0:0:0:
114,265,63825,6,0,P|101:231|103:193,1,75
184,218,64178,1,8,0:0:0:0:
29,177,64355,2,0,P|91:117|154:135,1,150
184,218,64884,1,8,0:0:0:0:
292,130,65060,2,0,L|300:290,1,150
172,344,65590,6,0,P|176:292|160:256,1,75,8|8,0:0|0:0,0:0:0:0:
106,168,65943,1,8,0:0:0:0:
108,308,66119,1,8,0:0:0:0:
224,211,66296,1,8,0:0:0:0:
34,216,66472,1,8,0:0:0:0:
149,93,66649,5,4,0:0:0:0:
312,224,66825,2,0,P|348:172|352:128,1,75,0|8,0:0|0:0,0:0:0:0:
364,16,67178,1,0,0:0:0:0:
456,116,67355,1,8,0:0:0:0:
324,188,67531,1,0,0:0:0:0:
328,40,67707,1,8,0:0:0:0:
456,116,67884,2,0,L|450:190,1,75,0|8,0:0|0:0,0:0:0:0:
264,120,68237,6,0,L|232:31,1,75,0|8,0:0|0:0,0:0:0:0:
410,37,68590,1,0,0:0:0:0:
416,213,68766,1,8,0:0:0:0:
264,120,68943,1,0,0:0:0:0:
410,37,69119,2,0,L|324:72,1,75,8|0,0:0|0:0,0:0:0:0:
349,247,69472,1,8,0:0:0:0:
164,348,69825,6,0,L|89:342,1,75,8|0,0:0|0:0,0:0:0:0:
184,244,70178,2,0,L|280:248,1,75,2|0,0:0|0:0,0:0:0:0:
378,155,70531,2,0,L|304:152,1,75,8|0,0:0|0:0,0:0:0:0:
128,80,70884,2,0,P|188:100|264:52,1,150,2|8,0:0|0:0,0:0:0:0:
272,164,71413,1,0,0:0:0:0:
408,232,71590,1,2,0:0:0:0:
229,295,71766,1,0,0:0:0:0:
229,295,72119,6,0,P|175:308|95:256,1,150,4|0,0:0|0:0,0:0:0:0:
43,157,72649,2,0,L|56:84,2,75,8|0|2,0:0|0:0|0:0,0:0:0:0:
132,164,73178,1,8,0:0:0:0:
180,40,73355,1,8,0:0:0:0:
216,112,73531,2,0,P|292:120|320:112,1,75,0|2,0:0|0:0,0:0:0:0:
356,252,73884,1,8,0:0:0:0:
428,112,74060,1,8,0:0:0:0:
480,212,74237,2,0,P|432:192|380:184,1,75,0|2,0:0|0:0,0:0:0:0:
197,200,74590,2,0,L|281:192,1,75,0|8,0:0|0:0,0:0:0:0:
217,308,74943,5,8,0:0:0:0:
217,308,75031,1,8,0:0:0:0:
217,308,75119,2,8,L|217:392,1,75,14|0,0:0|0:0,0:0:0:0:
124,348,75472,1,8,0:0:0:0:
213,208,75649,2,8,P|149:224|69:160,1,150
42,92,76178,1,8,0:0:0:0:
208,36,76531,6,0,L|208:132,2,75,2|0|8,0:0|0:0|0:0,0:0:0:0:
300,96,77060,2,0,P|376:116|448:80,1,150,0|8,0:0|0:0,0:0:0:0:
504,36,77590,1,8,0:0:0:0:
468,188,77766,5,8,0:0:0:0:
468,188,77855,1,8,0:0:0:0:
468,188,77943,2,8,L|472:272,1,75,10|0,0:0|0:0,0:0:0:0:
468,360,78296,1,8,0:0:0:0:
392,300,78472,2,0,P|308:272|240:316,1,150,0|8,0:0|0:0,0:0:0:0:
256,296,79002,1,8,0:0:0:0:
72,144,79355,6,0,L|68:224,2,75,2|0|8,0:0|0:0|0:0,0:0:0:0:
32,64,79884,2,0,L|184:64,1,150,0|8,0:0|0:0,0:0:0:0:
182,64,80413,1,8,0:0:0:0:
180,216,80590,5,8,0:0:0:0:
180,216,80678,1,8,0:0:0:0:
180,216,80766,2,8,L|170:290,1,75,12|0,0:0|0:0,0:0:0:0:
269,157,81119,2,8,L|260:232,1,75,8|8,0:0|0:0,0:0:0:0:
361,101,81472,2,8,L|352:176,1,75,8|8,0:0|0:0,0:0:0:0:
449,53,81825,2,8,L|440:128,1,75,8|8,0:0|0:0,0:0:0:0:
388,216,82178,5,8,0:0:0:0:
192,152,82355,1,8,0:0:0:0:
228,360,82531,1,8,0:0:0:0:
60,236,82884,1,2,0:0:0:0:
156,276,83060,2,0,L|174:276,2,18.75
256,292,83237,2,0,P|246:233|222:208,1,75,8|0,0:0|0:0,0:0:0:0:
229,79,83590,5,6,0:0:0:0:
256,192,83678,12,4,86060,0:0:0:0:
172,112,86413,6,0,P|232:120|280:112,1,75,6|0,0:0|0:0,0:0:0:0:
100,64,86766,1,8,0:0:0:0:
320,36,86943,2,0,L|324:124,1,75,0|2,0:0|0:0,0:0:0:0:
412,204,87296,2,0,P|360:216|324:208,1,75,0|8,0:0|0:0,0:0:0:0:
308,308,87649,2,0,P|236:284|172:312,1,150
80,196,88178,6,0,L|168:188,1,75,8|0,0:0|0:0,0:0:0:0:
168,76,88531,2,0,L|256:68,1,75,2|0,0:0|0:0,0:0:0:0:
276,176,88884,2,0,L|364:168,1,75,8|0,0:0|0:0,0:0:0:0:
456,228,89237,6,0,B|476:272|452:308|452:308|460:344|436:376,1,150,2|8,0:0|0:0,0:0:0:0:
384,264,89766,2,0,P|332:280|252:228,1,150
68,100,90472,2,0,L|160:96,1,75,0|8,0:0|0:0,0:0:0:0:
296,16,90825,1,0,0:0:0:0:
256,112,91002,2,0,P|292:124|336:112,1,75,8|0,0:0|0:0,0:0:0:0:
432,200,91355,2,0,L|336:208,1,75,8|0,0:0|0:0,0:0:0:0:
308,324,91707,2,0,L|388:336,1,75
412,348,91972,1,8,0:0:0:0:
440,364,92060,6,8,L|452:272,1,75,14|8,0:0|0:0,0:0:0:0:
352,240,92413,2,0,L|278:243,1,75,8|0,0:0|0:0,0:0:0:0:
116,164,92766,2,0,P|152:140|212:144,1,75,2|0,0:0|0:0,0:0:0:0:
420,160,93119,2,0,L|328:160,1,75,8|0,0:0|0:0,0:0:0:0:
116,264,93472,2,0,P|160:248|188:204,1,75,2|0,0:0|0:0,0:0:0:0:
212,53,93825,2,0,L|212:141,1,75,8|0,0:0|0:0,0:0:0:0:
324,316,94178,2,0,P|324:260|300:222,1,75,2|0,0:0|0:0,0:0:0:0:
256,192,94531,1,8,0:0:0:0:
256,192,94884,5,8,0:0:0:0:
144,336,95060,1,8,0:0:0:0:
324,160,95237,1,8,0:0:0:0:
161,243,95413,1,8,0:0:0:0:
388,124,95590,5,8,0:0:0:0:
205,130,95766,1,8,0:0:0:0:
452,88,95943,1,8,0:0:0:0:
283,17,96119,1,8,0:0:0:0:
460,160,96296,5,8,0:0:0:0:
484,260,96472,1,8,0:0:0:0:
372,140,96649,1,8,0:0:0:0:
400,256,96825,1,8,0:0:0:0:
284,120,97002,5,8,0:0:0:0:
316,252,97178,1,8,0:0:0:0:
196,104,97355,1,8,0:0:0:0:
228,248,97531,1,8,0:0:0:0:
88,208,97707,5,8,0:0:0:0:
140,336,97884,1,8,0:0:0:0:
16,152,98060,1,8,0:0:0:0:
187,178,98237,1,8,0:0:0:0:
77,290,98413,5,8,0:0:0:0:
155,106,98590,1,8,0:0:0:0:
235,314,98766,1,8,0:0:0:0:
88,208,98943,1,8,0:0:0:0:
265,152,99119,5,8,0:0:0:0:
393,335,99296,1,8,0:0:0:0:
235,314,99472,1,8,0:0:0:0:
424,180,99649,6,8,P|448:92|417:32,1,150
341,112,100178,6,8,L|243:113,1,84.3750032186509
205,125,100531,6,0,L|213:281,1,150,6|8,0:0|0:0,0:0:0:0:
104,228,101237,1,2,0:0:0:0:
220,344,101413,1,0,0:0:0:0:
32,324,101590,1,8,0:0:0:0:
184,141,101766,2,0,P|131:113|40:128,1,150,0|0,0:0|0:0,3:0:0:0:
256,268,102296,2,0,P|316:268|364:256,1,75,8|0,0:0|0:0,0:0:0:0:
440,140,102649,2,0,L|340:140,1,75,2|0,0:0|0:0,0:0:0:0:
172,128,103002,2,0,P|216:112|276:124,1,75,8|0,0:0|0:0,0:0:0:0:
363,212,103355,6,0,L|367:364,2,150,2|8|2,0:0|0:0|0:0,0:0:0:0:
281,167,104237,2,0,P|231:168|198:155,1,75,0|8,0:0|0:0,0:0:0:0:
96,72,104590,1,8,0:0:0:0:
96,72,104678,1,8,0:0:0:0:
96,72,104766,2,0,L|84:152,1,75,2|0,0:0|0:0,0:0:0:0:
16,92,105119,1,8,0:0:0:0:
144,208,105296,2,0,L|140:296,1,75,0|2,0:0|0:0,0:0:0:0:
216,364,105649,5,0,0:0:0:0:
224,220,105825,1,8,0:0:0:0:
64,280,106002,1,0,0:0:0:0:
320,248,106178,6,0,P|328:292|320:344,2,75,2|0|8,0:0|0:0|0:0,0:0:0:0:
372,176,106707,2,8,L|532:172,2,150
240,136,107590,2,0,B|216:180|248:240|248:240|252:300,1,150,6|8,0:0|0:0,0:0:0:0:
312,180,108119,2,8,P|320:112|260:52,1,150
400,136,108649,2,0,P|396:100|376:56,1,75,8|0,0:0|0:0,0:0:0:0:
268,54,109002,6,0,P|196:42|124:78,1,150,6|8,0:0|0:0,0:0:0:0:
96,152,109531,2,8,L|108:312,1,150
220,376,110060,1,8,0:0:0:0:
252,224,110237,1,8,0:0:0:0:
252,224,110325,1,8,0:0:0:0:
252,224,110413,5,12,0:0:0:0:
336,224,110590,1,0,0:0:0:0:
420,220,110766,1,0,0:0:0:0:
504,220,110943,2,8,L|488:376,1,150
416,328,111472,2,8,P|344:312|304:328,1,112.5,8|0,0:0|0:0,0:0:0:0:
272,356,111825,6,0,P|248:312|252:276,1,75,12|0,0:0|0:0,0:0:0:0:
156,256,112178,1,8,0:0:0:0:
144,128,112355,1,0,0:0:0:0:
216,184,112531,1,2,0:0:0:0:
64,176,112707,2,0,P|52:104|108:40,1,150
192,72,113237,1,2,0:0:0:0:
356,28,113413,1,0,0:0:0:0:
252,196,113590,1,8,0:0:0:0:
300,92,113766,1,0,0:0:0:0:
314,264,113943,6,0,P|245:287|180:256,2,150,2|8|2,0:0|0:0|0:0,0:0:0:0:
452,276,114825,1,0,0:0:0:0:
452,276,115002,2,0,L|448:372|448:372,1,75,8|0,0:0|0:0,0:0:0:0:
508,216,115355,1,2,0:0:0:0:
313,226,115531,2,0,P|349:210|397:218,1,75,0|8,0:0|0:0,0:0:0:0:
426,80,115884,6,0,L|262:72,1,150
186,100,116413,2,0,P|186:44|202:12,1,75,8|0,0:0|0:0,0:0:0:0:
300,224,116766,2,0,P|312:184|308:136,1,75,2|0,0:0|0:0,0:0:0:0:
172,360,117119,2,0,P|172:304|188:272,1,75,8|0,0:0|0:0,0:0:0:0:
114,125,117649,6,10,L|136:173,1,37.5,8|10,0:0|0:0,0:0:0:0:
200,211,117825,2,0,P|251:198|281:211,1,75,8|0,0:0|0:0,0:0:0:0:
324,258,118090,2,0,L|316:348,1,75
430,239,118355,2,8,L|433:201,1,37.5
505,148,118531,2,0,P|471:119|434:112,1,75,8|0,0:0|0:0,0:0:0:0:
374,142,118796,2,0,L|299:141,1,75
231,72,119060,6,8,L|238:21,1,37.5
219,165,119237,2,0,P|243:206|315:223,1,112.5,8|0,0:0|0:0,0:0:0:0:
339,218,119590,1,0,0:0:0:0:
368,334,119766,2,8,L|371:284,1,37.5
288,301,119943,1,8,0:0:0:0:
111,279,120119,2,0,B|147:269|184:298|184:298|164:227|208:173,1,187.5
218,166,120649,6,0,P|271:173|327:104,1,150
422,83,121178,1,0,0:0:0:0:
412,201,121355,1,0,0:0:0:0:
422,83,121531,1,0,0:0:0:0:
412,201,121884,5,0,0:0:0:0:
345,327,122060,1,0,0:0:0:0:
412,201,122237,1,0,0:0:0:0:
436,303,122413,1,0,0:0:0:0:
333,225,122590,1,0,0:0:0:0:
406,379,122766,1,0,0:0:0:0:
412,201,122943,1,0,0:0:0:0:
252,251,123119,6,0,L|268:339,1,75
170,184,123472,6,0,L|140:242,1,56.2500021457673
257,117,123825,6,0,L|266:167,1,37.5
