osu file format v14

[General]
AudioFilename: audio.mp3
AudioLeadIn: 0
PreviewTime: 62735
Countdown: 0
SampleSet: Normal
StackLeniency: 0.7
Mode: 1
LetterboxInBreaks: 0
WidescreenStoryboard: 0

[Editor]
Bookmarks: 7588
DistanceSpacing: 0.6
BeatDivisor: 4
GridSize: 4
TimelineZoom: 1

[Metadata]
Title:Jodoh Pasti Bertemu
TitleUnicode:Jodoh Pasti Bertemu
Artist:Afgan
ArtistUnicode:Afgan
Creator:Senritsu
Version:Sedang
Source:
Tags:L1ve To Love Afgansyah Reza Cut Version Trinity Optima Production Bahasa Indonesia Indonesian Live
BeatmapID:1129117
BeatmapSetID:532965

[Difficulty]
HPDrainRate:7
CircleSize:2
OverallDifficulty:5
ApproachRate:5
SliderMultiplier:1.4
SliderTickRate:1

[Events]
//Background and Video events
0,0,"love.jpg",0,-60
//Break Periods
//Storyboard Layer 0 (Background)
//Storyboard Layer 1 (Fail)
//Storyboard Layer 2 (Pass)
//Storyboard Layer 3 (Foreground)
//Storyboard Sound Samples

[TimingPoints]
530,441.176470588235,4,1,1,70,1,0
530,-200,4,1,1,70,0,0
6265,-200,4,1,1,30,0,0
7588,-200,4,1,3,30,0,0
8030,-200,4,1,2,80,0,0
35603,-200,4,1,4,40,0,0
36265,-200,4,1,2,80,0,0
49721,-200,4,1,4,40,0,0
50382,-200,4,1,2,80,0,0
61853,-200,4,1,1,80,0,0
64059,-200,4,1,5,40,0,1
64721,-200,4,1,2,80,0,1
77294,-200,4,1,1,80,0,1
78838,-200,4,1,2,80,0,1
81265,-200,4,1,1,80,0,1
83912,-200,4,1,2,80,0,1
90088,-200,4,1,1,80,0,1
91191,-200,4,1,2,80,0,1
95824,-200,4,1,2,80,0,0

[HitObjects]
120,172,530,5,0,0:0:0:0:
120,160,1412,1,8,0:0:0:0:
120,160,1853,1,0,0:0:0:0:
140,160,4059,1,8,0:0:0:0:
140,160,4941,1,0,0:0:0:0:
140,160,5382,1,8,0:0:0:0:
256,192,6265,12,0,7368,0:0:0:0:
184,204,7588,5,4,0:0:0:0:
200,192,8471,1,8,0:0:0:0:
208,184,8912,1,0,0:0:0:0:
200,192,9353,1,0,0:0:0:0:
200,192,10235,1,8,0:0:0:0:
200,192,11118,1,0,0:0:0:0:
200,192,12000,1,8,0:0:0:0:
192,184,12441,1,0,0:0:0:0:
200,192,12882,1,0,0:0:0:0:
204,172,13765,1,8,0:0:0:0:
204,172,14206,1,0,0:0:0:0:
204,172,14647,1,0,0:0:0:0:
204,172,15530,1,8,0:0:0:0:
204,172,15971,1,0,0:0:0:0:
204,172,16412,1,0,0:0:0:0:
204,172,16853,1,0,0:0:0:0:
204,172,17294,1,8,0:0:0:0:
204,172,18177,1,0,0:0:0:0:
220,172,19059,1,8,0:0:0:0:
220,172,19500,1,0,0:0:0:0:
220,172,19941,1,0,0:0:0:0:
208,168,20824,1,8,0:0:0:0:
208,168,21706,1,0,0:0:0:0:
208,168,22588,1,8,0:0:0:0:
208,168,23030,1,0,0:0:0:0:
208,168,23471,1,0,0:0:0:0:
208,168,23912,1,0,0:0:0:0:
208,168,24353,1,8,0:0:0:0:
208,168,25235,1,0,0:0:0:0:
208,168,26118,1,8,0:0:0:0:
208,168,26559,1,0,0:0:0:0:
208,168,27000,1,0,0:0:0:0:
208,168,27882,1,8,0:0:0:0:
208,168,28765,1,0,0:0:0:0:
208,168,29206,1,0,0:0:0:0:
208,168,29647,1,8,0:0:0:0:
208,168,30088,1,0,0:0:0:0:
208,168,30530,1,0,0:0:0:0:
208,168,31412,1,8,0:0:0:0:
208,168,31853,1,0,0:0:0:0:
208,168,32294,1,0,0:0:0:0:
208,168,33177,1,8,0:0:0:0:
208,168,33618,1,0,0:0:0:0:
208,168,34059,1,0,0:0:0:0:
208,168,34721,1,0,0:0:0:0:
208,168,34941,1,8,0:0:0:0:
208,168,35824,1,4,0:0:0:0:
208,168,36706,1,8,0:0:0:0:
208,168,37147,1,0,0:0:0:0:
208,168,37588,1,0,0:0:0:0:
104,164,38030,1,0,0:0:0:0:
208,168,38471,1,8,0:0:0:0:
208,168,39353,1,0,0:0:0:0:
208,168,40235,1,8,0:0:0:0:
208,168,40677,1,0,0:0:0:0:
208,168,41118,1,0,0:0:0:0:
208,168,42000,1,8,0:0:0:0:
208,168,42882,1,0,0:0:0:0:
208,168,43765,1,8,0:0:0:0:
208,168,44206,1,0,0:0:0:0:
208,168,44647,1,0,0:0:0:0:
208,168,45530,1,8,0:0:0:0:
208,168,46412,1,0,0:0:0:0:
208,168,47294,1,8,0:0:0:0:
60,116,47735,1,0,0:0:0:0:
208,168,48177,1,0,0:0:0:0:
200,164,49059,1,8,0:0:0:0:
208,164,49941,1,4,0:0:0:0:
208,164,50824,1,8,0:0:0:0:
208,164,51265,1,0,0:0:0:0:
208,164,51485,1,0,0:0:0:0:
208,164,51706,1,0,0:0:0:0:
208,164,52588,1,8,0:0:0:0:
208,164,53030,1,0,0:0:0:0:
208,164,53471,1,0,0:0:0:0:
208,164,54353,1,8,0:0:0:0:
192,164,55235,1,0,0:0:0:0:
120,176,55677,1,0,0:0:0:0:
200,160,56118,1,8,0:0:0:0:
200,160,57000,1,0,0:0:0:0:
200,160,57441,1,0,0:0:0:0:
200,160,57882,1,8,0:0:0:0:
132,160,58324,1,0,0:0:0:0:
200,160,58765,1,0,0:0:0:0:
200,160,59647,1,8,0:0:0:0:
200,160,60530,1,0,0:0:0:0:
200,160,61412,1,8,0:0:0:0:
200,160,61853,1,0,0:0:0:0:
200,160,62074,1,8,0:0:0:0:
200,160,62294,1,0,0:0:0:0:
200,160,62735,1,0,0:0:0:0:
200,160,63177,1,8,0:0:0:0:
104,164,63618,1,8,0:0:0:0:
200,160,64059,1,4,0:0:0:0:
200,160,64941,1,8,0:0:0:0:
200,160,65382,1,0,0:0:0:0:
200,160,65824,1,0,0:0:0:0:
200,160,66265,1,0,0:0:0:0:
200,160,66706,1,8,0:0:0:0:
200,160,67588,1,0,0:0:0:0:
200,160,68471,1,8,0:0:0:0:
200,160,68912,1,0,0:0:0:0:
200,160,69353,1,0,0:0:0:0:
200,160,70235,1,8,0:0:0:0:
200,160,71118,1,0,0:0:0:0:
200,160,71559,1,0,0:0:0:0:
200,160,72000,1,8,0:0:0:0:
200,160,72441,1,0,0:0:0:0:
108,192,73324,1,0,0:0:0:0:
200,160,73765,1,8,0:0:0:0:
100,184,74206,1,0,0:0:0:0:
32,152,74427,1,0,0:0:0:0:
200,160,74647,1,0,0:0:0:0:
200,160,75530,1,8,0:0:0:0:
200,160,75971,1,0,0:0:0:0:
200,160,76191,1,8,0:0:0:0:
200,160,76412,1,0,0:0:0:0:
200,160,76853,1,0,0:0:0:0:
200,160,77294,1,8,0:0:0:0:
200,160,77735,1,8,0:0:0:0:
200,160,78177,1,0,0:0:0:0:
200,160,79059,1,8,0:0:0:0:
200,160,79500,1,0,0:0:0:0:
200,160,79941,1,0,0:0:0:0:
200,160,80824,1,8,0:0:0:0:
200,160,81265,1,0,0:0:0:0:
200,160,81706,1,8,0:0:0:0:
200,160,82588,1,8,0:0:0:0:
160,152,83030,1,0,0:0:0:0:
200,160,83471,1,0,0:0:0:0:
200,160,84353,1,8,0:0:0:0:
200,160,85235,1,0,0:0:0:0:
200,160,85677,1,0,0:0:0:0:
200,160,86118,1,8,0:0:0:0:
200,160,86559,1,0,0:0:0:0:
200,160,87000,1,0,0:0:0:0:
200,160,87882,1,8,0:0:0:0:
200,160,88324,1,0,0:0:0:0:
200,160,88765,1,0,0:0:0:0:
200,160,89647,1,8,0:0:0:0:
200,160,90088,1,0,0:0:0:0:
200,160,90309,1,0,0:0:0:0:
200,160,90530,1,0,0:0:0:0:
200,160,90971,1,0,0:0:0:0:
200,160,91412,1,8,0:0:0:0:
200,160,92294,1,0,0:0:0:0:
200,160,92735,1,0,0:0:0:0:
200,160,93177,1,8,0:0:0:0:
200,160,93618,1,0,0:0:0:0:
200,160,94059,1,8,0:0:0:0:
200,160,94941,1,0,0:0:0:0:
200,160,95824,1,0,0:0:0:0:
