osu file format v14

[General]
AudioFilename: audio.mp3
AudioLeadIn: 0
PreviewTime: 62735
Countdown: 0
SampleSet: Normal
StackLeniency: 0.7
Mode: 1
LetterboxInBreaks: 0
WidescreenStoryboard: 0

[Editor]
Bookmarks: 7588
DistanceSpacing: 0.6
BeatDivisor: 4
GridSize: 4
TimelineZoom: 1

[Metadata]
Title:Jodoh Pasti Bertemu
TitleUnicode:Jodoh Pasti Bertemu
Artist:Afgan
ArtistUnicode:Afgan
Creator:Senritsu
Version:Susah
Source:
Tags:L1ve To Love Afgansyah Reza Cut Version Trinity Optima Production Bahasa Indonesia Indonesian Live
BeatmapID:1129118
BeatmapSetID:532965

[Difficulty]
HPDrainRate:6
CircleSize:2
OverallDifficulty:6
ApproachRate:5
SliderMultiplier:1.4
SliderTickRate:1

[Events]
//Background and Video events
0,0,"love.jpg",0,-60
//Break Periods
//Storyboard Layer 0 (Background)
//Storyboard Layer 1 (Fail)
//Storyboard Layer 2 (Pass)
//Storyboard Layer 3 (Foreground)
//Storyboard Sound Samples

[TimingPoints]
530,441.176470588235,4,1,1,70,1,0
530,-200,4,1,1,70,0,0
6265,-200,4,1,1,30,0,0
7588,-200,4,1,3,30,0,0
8030,-200,4,1,2,80,0,0
35603,-200,4,1,4,40,0,0
36265,-200,4,1,2,80,0,0
49721,-200,4,1,4,40,0,0
50382,-200,4,1,2,80,0,0
61853,-200,4,1,1,80,0,0
64059,-200,4,1,5,40,0,1
64721,-200,4,1,2,80,0,1
77294,-200,4,1,1,80,0,1
78838,-200,4,1,2,80,0,1
81265,-200,4,1,1,80,0,1
83912,-200,4,1,2,80,0,1
90088,-200,4,1,1,80,0,1
91191,-200,4,1,2,80,0,1
95824,-200,4,1,2,80,0,0

[HitObjects]
188,180,530,5,0,0:0:0:0:
232,172,971,1,0,0:0:0:0:
184,168,1412,1,2,0:0:0:0:
188,168,1853,1,0,0:0:0:0:
208,168,4059,1,2,0:0:0:0:
208,168,4500,1,2,0:0:0:0:
208,168,4941,1,0,0:0:0:0:
208,168,5382,1,2,0:0:0:0:
256,192,6265,12,0,7368,0:0:0:0:
176,192,7588,5,4,0:0:0:0:
176,192,8471,1,8,0:0:0:0:
176,192,8912,1,0,0:0:0:0:
188,172,9132,1,0,0:0:0:0:
176,192,9353,1,0,0:0:0:0:
120,196,9794,1,0,0:0:0:0:
188,192,10235,1,8,0:0:0:0:
188,192,11118,1,0,0:0:0:0:
188,192,12000,1,8,0:0:0:0:
188,192,12441,1,0,0:0:0:0:
188,192,12882,1,0,0:0:0:0:
116,184,13324,1,0,0:0:0:0:
188,192,13765,1,8,0:0:0:0:
180,200,13985,1,0,0:0:0:0:
188,192,14206,1,0,0:0:0:0:
188,192,14647,1,0,0:0:0:0:
188,192,15530,1,8,0:0:0:0:
176,176,15971,1,0,0:0:0:0:
180,192,16191,1,0,0:0:0:0:
176,176,16412,1,0,0:0:0:0:
180,192,16853,1,0,0:0:0:0:
176,176,17294,1,8,0:0:0:0:
180,192,17735,1,0,0:0:0:0:
176,176,18177,1,0,0:0:0:0:
176,176,19059,1,8,0:0:0:0:
176,176,19500,1,0,0:0:0:0:
176,176,19941,1,0,0:0:0:0:
180,192,20382,1,0,0:0:0:0:
176,176,20603,1,0,0:0:0:0:
176,176,20824,1,8,0:0:0:0:
176,176,21265,1,0,0:0:0:0:
176,176,21706,1,0,0:0:0:0:
176,176,22588,1,8,0:0:0:0:
176,176,23030,1,0,0:0:0:0:
176,184,23250,1,0,0:0:0:0:
176,176,23471,1,0,0:0:0:0:
176,184,23912,1,0,0:0:0:0:
176,176,24132,1,0,0:0:0:0:
176,176,24353,1,8,0:0:0:0:
176,176,24794,1,0,0:0:0:0:
176,176,25235,1,0,0:0:0:0:
176,176,26118,1,8,0:0:0:0:
176,176,26559,1,0,0:0:0:0:
176,168,26780,1,0,0:0:0:0:
176,176,27000,1,0,0:0:0:0:
176,176,27662,1,0,0:0:0:0:
176,176,27882,1,8,0:0:0:0:
176,176,28324,1,0,0:0:0:0:
176,176,28765,1,0,0:0:0:0:
172,164,29206,1,0,0:0:0:0:
168,160,29427,1,0,0:0:0:0:
176,176,29647,1,8,0:0:0:0:
176,176,30088,1,0,0:0:0:0:
176,176,30530,1,0,0:0:0:0:
172,184,31191,1,0,0:0:0:0:
176,176,31412,1,8,0:0:0:0:
176,176,31853,1,0,0:0:0:0:
176,176,32294,1,0,0:0:0:0:
176,176,33177,1,8,0:0:0:0:
176,176,33618,1,0,0:0:0:0:
168,180,33838,1,0,0:0:0:0:
176,176,34059,1,0,0:0:0:0:
176,176,34721,1,0,0:0:0:0:
176,176,34941,1,8,0:0:0:0:
176,176,35824,1,4,0:0:0:0:
168,184,36706,1,8,0:0:0:0:
176,176,37147,1,0,0:0:0:0:
184,172,37368,1,0,0:0:0:0:
168,184,37588,1,0,0:0:0:0:
176,176,38030,1,0,0:0:0:0:
176,176,38471,1,8,0:0:0:0:
176,176,38691,1,0,0:0:0:0:
176,176,38912,1,0,0:0:0:0:
176,176,39353,1,0,0:0:0:0:
176,176,40235,1,8,0:0:0:0:
176,176,40677,1,0,0:0:0:0:
176,176,41118,1,0,0:0:0:0:
80,184,41780,1,0,0:0:0:0:
176,176,42000,1,8,0:0:0:0:
176,176,42221,1,0,0:0:0:0:
176,176,42882,1,0,0:0:0:0:
176,176,43765,1,8,0:0:0:0:
176,176,44206,1,0,0:0:0:0:
176,176,44647,1,0,0:0:0:0:
176,176,45088,1,0,0:0:0:0:
176,176,45309,1,0,0:0:0:0:
176,176,45530,1,8,0:0:0:0:
176,176,45971,1,0,0:0:0:0:
176,176,46412,1,0,0:0:0:0:
176,176,47294,1,8,0:0:0:0:
176,176,47735,1,0,0:0:0:0:
176,176,48177,1,0,0:0:0:0:
176,176,49059,1,8,0:0:0:0:
176,176,49941,1,4,0:0:0:0:
176,176,50824,1,8,0:0:0:0:
176,176,51265,1,0,0:0:0:0:
176,176,51485,1,0,0:0:0:0:
176,176,51706,1,0,0:0:0:0:
176,176,52147,1,0,0:0:0:0:
176,176,52368,1,0,0:0:0:0:
176,176,52588,1,8,0:0:0:0:
176,176,53030,1,0,0:0:0:0:
176,176,53471,1,0,0:0:0:0:
176,176,54353,1,8,0:0:0:0:
176,176,55235,1,0,0:0:0:0:
104,168,55677,1,0,0:0:0:0:
176,176,56118,1,8,0:0:0:0:
180,176,57000,1,0,0:0:0:0:
180,176,57441,1,0,0:0:0:0:
180,176,57662,1,0,0:0:0:0:
180,176,57882,1,8,0:0:0:0:
180,176,58324,1,0,0:0:0:0:
180,176,58765,1,0,0:0:0:0:
180,176,59427,1,0,0:0:0:0:
180,176,59647,1,8,0:0:0:0:
180,176,60088,1,0,0:0:0:0:
180,176,60530,1,0,0:0:0:0:
180,176,61191,1,0,0:0:0:0:
180,176,61412,1,8,0:0:0:0:
180,176,61853,1,0,0:0:0:0:
180,176,62074,1,8,0:0:0:0:
180,176,62294,1,0,0:0:0:0:
180,176,62735,1,0,0:0:0:0:
180,176,62956,1,0,0:0:0:0:
180,176,63177,1,2,0:0:0:0:
180,176,63397,1,2,0:0:0:0:
180,176,63618,1,0,0:0:0:0:
180,176,64059,1,4,0:0:0:0:
180,176,64941,1,8,0:0:0:0:
180,176,65382,1,0,0:0:0:0:
180,176,65603,1,0,0:0:0:0:
180,176,65824,1,0,0:0:0:0:
180,176,66265,1,0,0:0:0:0:
180,176,66706,1,8,0:0:0:0:
180,176,67147,1,0,0:0:0:0:
180,176,67588,1,0,0:0:0:0:
180,176,68471,1,8,0:0:0:0:
180,176,68912,1,0,0:0:0:0:
180,176,69132,1,0,0:0:0:0:
180,176,69353,1,0,0:0:0:0:
180,176,69794,1,0,0:0:0:0:
180,176,70235,1,8,0:0:0:0:
180,176,71118,1,0,0:0:0:0:
180,176,71559,1,0,0:0:0:0:
180,176,72000,1,8,0:0:0:0:
180,176,72441,1,0,0:0:0:0:
180,176,72882,1,0,0:0:0:0:
180,176,73324,1,0,0:0:0:0:
180,176,73544,1,0,0:0:0:0:
180,176,73765,1,8,0:0:0:0:
180,176,74206,1,0,0:0:0:0:
180,176,74427,1,0,0:0:0:0:
180,176,74647,1,0,0:0:0:0:
180,176,75309,1,0,0:0:0:0:
180,176,75530,1,8,0:0:0:0:
180,176,75971,1,0,0:0:0:0:
180,176,76191,1,8,0:0:0:0:
180,176,76412,1,0,0:0:0:0:
180,176,76853,1,0,0:0:0:0:
180,176,77074,1,0,0:0:0:0:
180,176,77294,1,8,0:0:0:0:
180,176,77515,1,8,0:0:0:0:
180,176,77735,1,0,0:0:0:0:
180,176,77956,1,8,0:0:0:0:
180,176,78177,1,0,0:0:0:0:
176,172,79059,1,8,0:0:0:0:
124,160,79500,1,0,0:0:0:0:
176,172,79721,1,0,0:0:0:0:
176,172,79941,1,0,0:0:0:0:
176,172,80824,1,8,0:0:0:0:
176,172,81265,1,0,0:0:0:0:
176,172,81485,1,8,0:0:0:0:
176,172,81706,1,8,0:0:0:0:
176,172,82147,1,0,0:0:0:0:
176,172,82368,1,0,0:0:0:0:
176,172,82588,1,8,0:0:0:0:
176,172,83030,1,8,0:0:0:0:
176,172,83250,1,0,0:0:0:0:
176,172,83471,1,0,0:0:0:0:
176,172,84353,1,8,0:0:0:0:
176,172,85235,1,0,0:0:0:0:
176,172,85677,1,0,0:0:0:0:
176,172,85897,1,0,0:0:0:0:
168,168,86118,1,8,0:0:0:0:
168,168,86559,1,0,0:0:0:0:
168,168,87000,1,0,0:0:0:0:
168,168,87882,1,8,0:0:0:0:
168,168,88324,1,0,0:0:0:0:
168,168,88544,1,0,0:0:0:0:
168,168,88765,1,0,0:0:0:0:
168,168,89647,1,8,0:0:0:0:
168,168,90088,1,0,0:0:0:0:
168,168,90309,1,0,0:0:0:0:
168,168,90530,1,0,0:0:0:0:
168,168,90750,1,8,0:0:0:0:
168,168,90971,1,0,0:0:0:0:
168,168,91412,1,8,0:0:0:0:
168,168,91853,1,0,0:0:0:0:
168,168,92294,1,0,0:0:0:0:
168,168,92735,1,0,0:0:0:0:
168,168,93177,1,8,0:0:0:0:
168,168,93618,1,0,0:0:0:0:
168,168,93838,1,0,0:0:0:0:
168,168,94059,1,8,0:0:0:0:
168,168,94941,1,0,0:0:0:0:
168,168,95824,1,0,0:0:0:0:
