osu file format v14

[General]
AudioFilename: audio.mp3
AudioLeadIn: 0
PreviewTime: 62735
Countdown: 0
SampleSet: Soft
StackLeniency: 0.7
Mode: 3
LetterboxInBreaks: 0
SpecialStyle: 0
WidescreenStoryboard: 0

[Editor]
DistanceSpacing: 0.8
BeatDivisor: 6
GridSize: 32
TimelineZoom: 1.3

[Metadata]
Title:Jodoh Pasti Bertemu
TitleUnicode:Jodoh Pasti Bertemu
Artist:Afgan
ArtistUnicode:Afgan
Creator:-[Hotaru]-
Version:Normal
Source:
Tags:L1ve To Love Afgansyah Reza Cut Version Trinity Optima Production Bahasa Indonesia Indonesian
BeatmapID:924789
BeatmapSetID:428509

[Difficulty]
HPDrainRate:7
CircleSize:4
OverallDifficulty:7
ApproachRate:5
SliderMultiplier:1.60000000596046
SliderTickRate:1

[Events]
//Background and Video events
0,0,"20160712094958.png",0,0
//Break Periods
//Storyboard Layer 0 (Background)
//Storyboard Layer 1 (Fail)
//Storyboard Layer 2 (Pass)
//Storyboard Layer 3 (Foreground)
//Storyboard Sound Samples

[TimingPoints]
530,882.352941176471,4,2,1,40,1,0
64059,-100,4,2,1,40,0,1
95824,-100,4,2,1,40,0,0

[HitObjects]
448,192,530,5,0,0:0:0:0:
192,192,530,1,0,0:0:0:0:
320,192,971,1,0,0:0:0:0:
64,192,1412,128,0,1853:0:0:0:0:
192,192,1853,128,0,4059:0:0:0:0:
448,192,4059,1,0,0:0:0:0:
64,192,4059,1,0,0:0:0:0:
320,192,4500,1,0,0:0:0:0:
64,192,4941,128,0,5382:0:0:0:0:
192,192,5382,128,0,7588:0:0:0:0:
448,192,6706,128,0,7588:0:0:0:0:
64,192,7588,1,2,0:0:0:0:
320,192,7588,1,0,0:0:0:0:
192,192,8030,1,8,0:0:0:0:
320,192,8250,1,0,0:0:0:0:
192,192,8471,1,0,0:0:0:0:
448,192,8471,1,8,0:0:0:0:
64,192,8912,1,0,0:0:0:0:
320,192,8912,1,2,0:0:0:0:
448,192,9353,1,2,0:0:0:0:
192,192,9353,1,0,0:0:0:0:
320,192,9794,1,0,0:0:0:0:
64,192,10235,1,8,0:0:0:0:
448,192,10235,1,0,0:0:0:0:
320,192,10677,1,0,0:0:0:0:
192,192,10897,1,0,0:0:0:0:
64,192,11118,1,2,0:0:0:0:
320,192,11118,1,0,0:0:0:0:
192,192,11559,1,0,0:0:0:0:
64,192,12000,1,0,0:0:0:0:
448,192,12000,1,8,0:0:0:0:
320,192,12441,1,0,0:0:0:0:
192,192,12441,1,2,0:0:0:0:
448,192,12882,1,0,0:0:0:0:
64,192,12882,1,2,0:0:0:0:
192,192,13324,1,0,0:0:0:0:
64,192,13765,1,8,0:0:0:0:
448,192,13765,128,0,13985:0:0:0:0:
320,192,13985,128,0,14206:0:0:0:0:
192,192,14206,128,0,14427:0:0:0:0:
64,192,14427,128,0,14647:0:0:0:0:
320,192,14647,1,2,0:0:0:0:
448,192,14647,1,0,0:0:0:0:
320,192,15088,128,0,15530:0:0:0:0:
448,192,15530,1,8,0:0:0:0:
64,192,15530,128,0,15971:0:0:0:0:
320,192,15971,1,0,0:0:0:0:
192,192,15971,1,2,0:0:0:0:
64,192,16412,1,0,0:0:0:0:
448,192,16412,1,2,0:0:0:0:
320,192,16853,1,0,0:0:0:0:
192,192,17074,1,0,0:0:0:0:
448,192,17294,1,8,0:0:0:0:
64,192,17294,1,0,0:0:0:0:
320,192,17735,1,0,0:0:0:0:
64,192,17956,1,0,0:0:0:0:
448,192,18177,128,0,19059:0:0:0:0:
320,192,18177,1,8,0:0:0:0:
192,192,18618,1,0,0:0:0:0:
64,192,19059,1,0,0:0:0:0:
320,192,19059,1,8,0:0:0:0:
64,192,19500,1,0,0:0:0:0:
192,192,19500,1,2,0:0:0:0:
448,192,19941,1,0,0:0:0:0:
320,192,19941,1,2,0:0:0:0:
64,192,20382,1,0,0:0:0:0:
192,192,20603,1,0,0:0:0:0:
448,192,20824,128,8,21044:0:0:0:0:
320,192,21044,128,0,21265:0:0:0:0:
64,192,21265,128,0,21485:0:0:0:0:
192,192,21485,128,0,21706:0:0:0:0:
448,192,21706,1,0,0:0:0:0:
320,192,21706,1,2,0:0:0:0:
64,192,22147,1,0,0:0:0:0:
448,192,22588,1,0,0:0:0:0:
320,192,22588,1,8,0:0:0:0:
64,192,23030,1,0,0:0:0:0:
192,192,23030,1,2,0:0:0:0:
320,192,23471,1,2,0:0:0:0:
448,192,23471,1,0,0:0:0:0:
64,192,23912,1,0,0:0:0:0:
192,192,24132,1,0,0:0:0:0:
64,192,24353,1,0,0:0:0:0:
320,192,24353,1,8,0:0:0:0:
448,192,24794,128,0,25235:0:0:0:0:
320,192,25235,1,2,0:0:0:0:
192,192,25677,1,0,0:0:0:0:
64,192,26118,128,0,26559:0:0:0:0:
448,192,26118,1,8,0:0:0:0:
320,192,26559,128,0,27000:0:0:0:0:
192,192,26559,1,2,0:0:0:0:
448,192,27000,1,2,0:0:0:0:
64,192,27000,128,0,27882:0:0:0:0:
320,192,27441,1,0,0:0:0:0:
448,192,27882,1,0,0:0:0:0:
192,192,27882,1,8,0:0:0:0:
320,192,28324,1,0,0:0:0:0:
64,192,28765,1,0,0:0:0:0:
192,192,28765,1,2,0:0:0:0:
320,192,29206,1,0,0:0:0:0:
448,192,29647,1,8,0:0:0:0:
192,192,29647,1,0,0:0:0:0:
320,192,30088,1,2,0:0:0:0:
64,192,30088,1,0,0:0:0:0:
192,192,30530,1,0,0:0:0:0:
448,192,30530,1,2,0:0:0:0:
64,192,30971,1,0,0:0:0:0:
192,192,31191,1,0,0:0:0:0:
320,192,31412,1,8,0:0:0:0:
448,192,31412,1,0,0:0:0:0:
192,192,31853,128,0,32294:0:0:0:0:
64,192,32294,1,0,0:0:0:0:
448,192,32294,1,2,0:0:0:0:
448,192,32735,1,0,0:0:0:0:
320,192,32956,1,0,0:0:0:0:
192,192,33177,1,8,0:0:0:0:
64,192,33177,1,0,0:0:0:0:
448,192,33618,1,0,0:0:0:0:
320,192,33618,1,2,0:0:0:0:
64,192,34059,1,0,0:0:0:0:
192,192,34059,1,2,0:0:0:0:
320,192,34647,128,0,34941:0:0:0:0:
448,192,34941,1,2,0:0:0:0:
64,192,34941,1,0,0:0:0:0:
192,192,35530,128,0,35824:0:0:0:0:
448,192,35824,1,0,0:0:0:0:
64,192,35824,1,2,0:0:0:0:
320,192,36485,1,0,0:0:0:0:
192,192,36706,1,0,0:0:0:0:
448,192,36706,1,8,0:0:0:0:
64,192,37147,1,0,0:0:0:0:
192,192,37147,1,2,0:0:0:0:
320,192,37588,1,2,0:0:0:0:
448,192,37588,1,0,0:0:0:0:
192,192,38030,1,0,0:0:0:0:
64,192,38471,1,0,0:0:0:0:
320,192,38471,1,8,0:0:0:0:
448,192,38912,1,0,0:0:0:0:
192,192,39132,1,0,0:0:0:0:
448,192,39353,1,0,0:0:0:0:
64,192,39353,1,2,0:0:0:0:
448,192,39794,1,0,0:0:0:0:
320,192,39794,1,0,0:0:0:0:
192,192,40235,1,8,0:0:0:0:
64,192,40235,1,0,0:0:0:0:
448,192,40677,1,2,0:0:0:0:
320,192,40897,1,0,0:0:0:0:
192,192,41118,1,2,0:0:0:0:
64,192,41118,1,0,0:0:0:0:
448,192,41559,1,0,0:0:0:0:
64,192,42000,1,8,0:0:0:0:
192,192,42221,1,0,0:0:0:0:
320,192,42441,1,0,0:0:0:0:
448,192,42662,1,0,0:0:0:0:
64,192,42882,1,2,0:0:0:0:
192,192,42882,1,0,0:0:0:0:
448,192,43324,1,0,0:0:0:0:
192,192,43765,1,0,0:0:0:0:
320,192,43765,1,8,0:0:0:0:
448,192,44206,1,2,0:0:0:0:
64,192,44206,1,0,0:0:0:0:
320,192,44647,1,2,0:0:0:0:
192,192,44647,1,0,0:0:0:0:
64,192,45088,1,0,0:0:0:0:
448,192,45530,1,8,0:0:0:0:
320,192,45530,1,0,0:0:0:0:
192,192,45971,1,0,0:0:0:0:
320,192,46191,1,0,0:0:0:0:
64,192,46412,1,0,0:0:0:0:
448,192,46412,1,2,0:0:0:0:
192,192,46853,1,0,0:0:0:0:
320,192,47294,1,0,0:0:0:0:
448,192,47294,1,8,0:0:0:0:
192,192,47735,1,2,0:0:0:0:
64,192,47735,1,0,0:0:0:0:
320,192,47956,1,0,0:0:0:0:
64,192,48177,1,0,0:0:0:0:
448,192,48177,128,2,49059:0:0:0:0:
64,192,49059,1,0,0:0:0:0:
320,192,49059,128,2,49941:0:0:0:0:
192,192,49941,128,0,50824:0:0:0:0:
64,192,49941,1,2,0:0:0:0:
320,192,50382,1,0,0:0:0:0:
448,192,50824,1,8,0:0:0:0:
64,192,50824,1,0,0:0:0:0:
192,192,51265,1,2,0:0:0:0:
64,192,51265,1,0,0:0:0:0:
320,192,51706,1,0,0:0:0:0:
448,192,51706,128,2,52588:0:0:0:0:
64,192,52147,1,0,0:0:0:0:
192,192,52368,1,0,0:0:0:0:
64,192,52588,1,8,0:0:0:0:
320,192,52588,1,0,0:0:0:0:
320,192,53030,128,0,53471:0:0:0:0:
192,192,53471,1,0,0:0:0:0:
64,192,53471,1,0,0:0:0:0:
448,192,53912,1,0,0:0:0:0:
320,192,54353,1,8,0:0:0:0:
64,192,54353,128,0,55235:0:0:0:0:
192,192,54794,1,0,0:0:0:0:
448,192,54794,1,2,0:0:0:0:
320,192,55235,1,2,0:0:0:0:
192,192,55235,1,0,0:0:0:0:
448,192,55677,1,0,0:0:0:0:
320,192,55897,1,0,0:0:0:0:
64,192,56118,1,8,0:0:0:0:
448,192,56118,1,0,0:0:0:0:
192,192,56338,1,0,0:0:0:0:
320,192,56559,128,0,57000:0:0:0:0:
64,192,57000,1,0,0:0:0:0:
192,192,57000,1,2,0:0:0:0:
448,192,57441,1,0,0:0:0:0:
192,192,57882,1,8,0:0:0:0:
320,192,57882,1,0,0:0:0:0:
448,192,58324,1,2,0:0:0:0:
64,192,58324,1,0,0:0:0:0:
192,192,58765,1,2,0:0:0:0:
448,192,58765,1,0,0:0:0:0:
320,192,59206,1,0,0:0:0:0:
192,192,59647,1,0,0:0:0:0:
64,192,59647,1,8,0:0:0:0:
448,192,60088,128,0,60309:0:0:0:0:
320,192,60309,128,0,60530:0:0:0:0:
64,192,60530,1,2,0:0:0:0:
192,192,60971,1,0,0:0:0:0:
448,192,61191,1,0,0:0:0:0:
320,192,61412,1,8,0:0:0:0:
192,192,61632,1,0,0:0:0:0:
448,192,61853,1,2,0:0:0:0:
64,192,61853,1,0,0:0:0:0:
192,192,62074,1,0,0:0:0:0:
448,192,62294,1,2,0:0:0:0:
64,192,62294,1,0,0:0:0:0:
320,192,62515,1,0,0:0:0:0:
192,192,62735,1,0,0:0:0:0:
320,192,62956,1,0,0:0:0:0:
448,192,63177,5,2,0:0:0:0:
64,192,63177,1,0,0:0:0:0:
192,192,63618,1,0,0:0:0:0:
448,192,64059,1,0,0:0:0:0:
64,192,64059,1,8,0:0:0:0:
320,192,64059,1,2,0:0:0:0:
64,192,64500,1,0,0:0:0:0:
320,192,64721,1,0,0:0:0:0:
192,192,64941,1,0,0:0:0:0:
448,192,64941,1,8,0:0:0:0:
64,192,65382,1,0,0:0:0:0:
320,192,65382,1,2,0:0:0:0:
448,192,65824,1,2,0:0:0:0:
192,192,65824,1,0,0:0:0:0:
320,192,66044,1,0,0:0:0:0:
64,192,66265,1,0,0:0:0:0:
192,192,66485,1,0,0:0:0:0:
448,192,66706,1,8,0:0:0:0:
320,192,66706,1,0,0:0:0:0:
192,192,67147,1,0,0:0:0:0:
64,192,67368,1,0,0:0:0:0:
448,192,67588,128,0,68471:0:0:0:0:
320,192,67588,1,2,0:0:0:0:
64,192,68030,1,0,0:0:0:0:
192,192,68250,1,0,0:0:0:0:
64,192,68471,128,0,68912:0:0:0:0:
320,192,68471,1,8,0:0:0:0:
192,192,68912,128,0,69353:0:0:0:0:
448,192,68912,1,2,0:0:0:0:
320,192,69353,1,2,0:0:0:0:
64,192,69574,1,0,0:0:0:0:
448,192,69794,1,0,0:0:0:0:
192,192,70015,1,0,0:0:0:0:
64,192,70235,1,0,0:0:0:0:
320,192,70235,1,8,0:0:0:0:
192,192,70677,1,0,0:0:0:0:
448,192,71118,1,0,0:0:0:0:
64,192,71118,1,2,0:0:0:0:
192,192,71559,1,0,0:0:0:0:
64,192,72000,1,0,0:0:0:0:
320,192,72000,1,8,0:0:0:0:
192,192,72441,1,0,0:0:0:0:
448,192,72441,1,2,0:0:0:0:
320,192,72882,1,2,0:0:0:0:
64,192,72882,1,0,0:0:0:0:
448,192,73324,1,0,0:0:0:0:
64,192,73544,1,0,0:0:0:0:
448,192,73765,1,8,0:0:0:0:
192,192,73765,1,0,0:0:0:0:
320,192,74206,128,0,74647:0:0:0:0:
64,192,74647,1,2,0:0:0:0:
192,192,74647,1,0,0:0:0:0:
320,192,75088,1,0,0:0:0:0:
448,192,75088,128,0,75530:0:0:0:0:
64,192,75530,128,0,75971:0:0:0:0:
192,192,75530,1,8,0:0:0:0:
448,192,75971,1,2,0:0:0:0:
320,192,75971,128,0,76412:0:0:0:0:
64,192,76412,1,2,0:0:0:0:
192,192,76412,128,0,76853:0:0:0:0:
448,192,76853,1,0,0:0:0:0:
320,192,76853,128,0,77294:0:0:0:0:
64,192,77294,128,0,77735:0:0:0:0:
192,192,77294,1,2,0:0:0:0:
320,192,77735,128,0,78177:0:0:0:0:
448,192,78177,1,0,0:0:0:0:
64,192,78177,1,0,0:0:0:0:
192,192,78177,1,2,0:0:0:0:
448,192,78618,1,0,0:0:0:0:
192,192,78838,1,0,0:0:0:0:
320,192,79059,1,8,0:0:0:0:
64,192,79059,1,0,0:0:0:0:
448,192,79500,1,2,0:0:0:0:
64,192,79500,1,0,0:0:0:0:
192,192,79941,1,0,0:0:0:0:
320,192,79941,1,2,0:0:0:0:
64,192,80382,1,0,0:0:0:0:
448,192,80603,1,0,0:0:0:0:
320,192,80824,1,0,0:0:0:0:
192,192,80824,1,8,0:0:0:0:
448,192,81265,128,0,81706:0:0:0:0:
320,192,81706,128,0,82588:0:0:0:0:
192,192,81706,1,2,0:0:0:0:
64,192,81706,1,0,0:0:0:0:
192,192,82588,128,0,83471:0:0:0:0:
448,192,82588,1,2,0:0:0:0:
448,192,83471,128,0,84353:0:0:0:0:
320,192,83471,1,2,0:0:0:0:
64,192,83471,1,0,0:0:0:0:
64,192,83912,1,0,0:0:0:0:
192,192,84132,1,0,0:0:0:0:
64,192,84353,1,0,0:0:0:0:
320,192,84353,1,8,0:0:0:0:
192,192,84794,128,0,85235:0:0:0:0:
320,192,84794,1,2,0:0:0:0:
64,192,85235,1,0,0:0:0:0:
448,192,85235,1,0,0:0:0:0:
320,192,85235,1,2,0:0:0:0:
192,192,85677,1,0,0:0:0:0:
320,192,85897,1,0,0:0:0:0:
448,192,86118,1,8,0:0:0:0:
64,192,86118,1,0,0:0:0:0:
64,192,86559,1,0,0:0:0:0:
192,192,86559,1,2,0:0:0:0:
320,192,87000,1,2,0:0:0:0:
448,192,87000,1,0,0:0:0:0:
64,192,87441,128,0,87882:0:0:0:0:
192,192,87882,1,8,0:0:0:0:
448,192,87882,128,0,88765:0:0:0:0:
320,192,88324,128,0,88765:0:0:0:0:
192,192,88765,1,2,0:0:0:0:
64,192,89206,128,0,89647:0:0:0:0:
192,192,89206,1,0,0:0:0:0:
448,192,89647,128,0,90088:0:0:0:0:
320,192,89647,1,8,0:0:0:0:
64,192,90088,1,2,0:0:0:0:
192,192,90088,128,0,90530:0:0:0:0:
320,192,90530,1,2,0:0:0:0:
448,192,90530,128,0,90971:0:0:0:0:
192,192,90971,1,0,0:0:0:0:
64,192,90971,128,0,91412:0:0:0:0:
448,192,91412,1,8,0:0:0:0:
320,192,91412,128,0,91853:0:0:0:0:
448,192,91853,128,0,92294:0:0:0:0:
64,192,91853,1,0,0:0:0:0:
192,192,92074,1,0,0:0:0:0:
64,192,92294,1,0,0:0:0:0:
320,192,92294,1,2,0:0:0:0:
448,192,92735,1,0,0:0:0:0:
320,192,92956,1,0,0:0:0:0:
64,192,93177,1,0,0:0:0:0:
448,192,93177,1,8,0:0:0:0:
320,192,93618,1,2,0:0:0:0:
192,192,93618,1,0,0:0:0:0:
64,192,94059,1,0,0:0:0:0:
448,192,94059,1,2,0:0:0:0:
320,192,94500,1,0,0:0:0:0:
192,192,94721,1,0,0:0:0:0:
448,192,94941,1,8,0:0:0:0:
64,192,94941,1,0,0:0:0:0:
64,192,95382,128,0,95824:0:0:0:0:
320,192,95382,1,0,0:0:0:0:
448,192,95603,1,2,0:0:0:0:
192,192,95824,1,2,0:0:0:0:
320,192,95824,1,0,0:0:0:0:
