osu file format v14

[General]
AudioFilename: audio.mp3
AudioLeadIn: 0
PreviewTime: 101567
Countdown: 0
SampleSet: Soft
StackLeniency: 0.3
Mode: 0
LetterboxInBreaks: 0
WidescreenStoryboard: 1

[Editor]
Bookmarks: 46567,101395,123809
DistanceSpacing: 1
BeatDivisor: 4
GridSize: 4
TimelineZoom: 1.8

[Metadata]
Title:Woodfairies
TitleUnicode:Woodfairies
Artist:Aethoro
ArtistUnicode:Aethoro
Creator:verychill
Version:Dance
Source:
Tags:instrumental electronic ambient chill orchestral Spiritdance piano keysound knightc0re knightcore
BeatmapID:2715187
BeatmapSetID:1309729

[Difficulty]
HPDrainRate:5
CircleSize:5.8
OverallDifficulty:8.5
ApproachRate:8.7
SliderMultiplier:1.7
SliderTickRate:1

[Events]
//Background and Video events
0,0,"bg.jpg",0,0
//Break Periods
//Storyboard Layer 0 (Background)
//Storyboard Layer 1 (Fail)
//Storyboard Layer 2 (Pass)
//Storyboard Layer 3 (Foreground)
//Storyboard Layer 4 (Overlay)
//Storyboard Sound Samples

[TimingPoints]
1694,705.882352941176,7,2,1,45,1,0
41223,344.827586206897,4,2,1,45,1,0
46395,-100,4,2,99,5,0,0
46740,-111.111111111111,4,2,1,53,0,0
51912,-333.333333333333,4,2,1,53,0,0
52257,-111.111111111111,4,2,1,53,0,0
57257,-111.111111111111,4,2,1,56,0,0
57429,-111.111111111111,4,2,1,59,0,0
57602,-111.111111111111,4,2,1,62,0,0
57774,-111.111111111111,4,2,1,65,0,0
61912,-111.111111111111,4,2,57,65,0,0
62257,-111.111111111111,4,2,1,65,0,0
62947,-333.333333333333,4,2,1,65,0,0
63291,-111.111111111111,4,2,58,65,0,0
63636,-111.111111111111,4,2,1,65,0,0
65360,-111.111111111111,4,2,59,65,0,0
65533,-111.111111111111,4,2,63,65,0,0
65705,-111.111111111111,4,2,59,65,0,0
65878,-111.111111111111,4,2,62,65,0,0
66050,-111.111111111111,4,2,58,65,0,0
66395,-111.111111111111,4,2,1,65,0,0
68119,-111.111111111111,4,2,62,65,0,0
68291,-111.111111111111,4,2,59,65,0,0
68464,-111.111111111111,4,2,63,65,0,0
68636,-111.111111111111,4,2,60,65,0,0
68809,-111.111111111111,4,2,61,65,0,0
69154,-111.111111111111,4,2,1,65,0,0
70016,-111.111111111111,4,2,60,65,0,0
70188,-111.111111111111,4,2,61,65,0,0
70533,-111.111111111111,4,2,1,65,0,0
70705,-111.111111111111,4,2,59,65,0,0
70878,-111.111111111111,4,2,57,65,0,0
71050,-111.111111111111,4,2,1,65,0,0
71395,-111.111111111111,4,2,60,65,0,0
71567,-111.111111111111,4,2,61,65,0,0
71912,-111.111111111111,4,2,1,65,0,0
72774,-111.111111111111,4,2,64,65,0,0
72947,-111.111111111111,4,2,61,65,0,0
73291,-111.111111111111,4,2,1,65,0,0
73464,-111.111111111111,4,2,62,65,0,0
73636,-111.111111111111,4,2,59,65,0,0
73809,-111.111111111111,4,2,63,65,0,0
73981,-111.111111111111,4,2,59,65,0,0
74154,-111.111111111111,4,2,62,65,0,0
74326,-111.111111111111,4,2,58,65,0,0
74671,-111.111111111111,4,2,1,65,0,0
75533,-111.111111111111,4,2,65,65,0,0
75705,-111.111111111111,4,2,58,65,0,0
76050,-111.111111111111,4,2,1,65,0,0
76395,-111.111111111111,4,2,66,65,0,0
76567,-111.111111111111,4,2,58,65,0,0
76912,-111.111111111111,4,2,57,65,0,0
77085,-111.111111111111,4,2,58,65,0,0
77429,-111.111111111111,4,2,1,65,0,0
78464,-111.111111111111,4,2,67,65,0,0
78636,-111.111111111111,4,2,68,65,0,0
78809,-111.111111111111,4,2,66,65,0,0
78981,-111.111111111111,4,2,62,65,0,0
79154,-111.111111111111,4,2,59,65,0,0
79326,-111.111111111111,4,2,63,65,0,0
79498,-111.111111111111,4,2,60,65,0,0
79671,-111.111111111111,4,2,69,65,0,0
79843,-111.111111111111,4,2,61,65,0,0
80188,-111.111111111111,4,2,1,65,0,0
81050,-111.111111111111,4,2,60,65,0,0
81223,-111.111111111111,4,2,61,65,0,0
81567,-111.111111111111,4,2,1,65,0,0
81740,-111.111111111111,4,2,59,65,0,0
81912,-111.111111111111,4,2,57,65,0,0
82085,-111.111111111111,4,2,1,65,0,0
82429,-111.111111111111,4,2,60,65,0,0
82602,-111.111111111111,4,2,61,65,0,0
82947,-111.111111111111,4,2,1,65,0,0
83809,-111.111111111111,4,2,64,65,0,0
83981,-111.111111111111,4,2,61,65,0,0
84154,-111.111111111111,4,2,1,65,0,0
84498,-111.111111111111,4,2,62,65,0,0
84671,-111.111111111111,4,2,59,65,0,0
84843,-111.111111111111,4,2,63,65,0,0
85016,-111.111111111111,4,2,59,65,0,0
85188,-111.111111111111,4,2,62,65,0,0
85360,-111.111111111111,4,2,58,65,0,0
85705,-111.111111111111,4,2,1,65,0,0
86567,-111.111111111111,4,2,65,65,0,0
86740,-111.111111111111,4,2,58,65,0,0
87085,-111.111111111111,4,2,1,65,0,0
87429,-111.111111111111,4,2,66,65,0,0
87602,-111.111111111111,4,2,58,65,0,0
87774,-111.111111111111,4,2,1,65,0,0
87947,-111.111111111111,4,2,57,65,0,0
88119,-111.111111111111,4,2,58,65,0,0
88464,-111.111111111111,4,2,1,65,0,0
89498,-111.111111111111,4,2,67,65,0,0
89671,-111.111111111111,4,2,68,65,0,0
89843,-111.111111111111,4,2,66,65,0,0
90016,-111.111111111111,4,2,62,65,0,0
90188,-111.111111111111,4,2,59,65,0,0
90360,-111.111111111111,4,2,63,65,0,0
90533,-111.111111111111,4,2,60,65,0,0
90705,-111.111111111111,4,2,69,65,0,0
90878,-111.111111111111,4,2,1,65,0,0
92257,-111.111111111111,4,2,1,55,0,0
92947,-111.111111111111,4,2,1,45,0,0
93636,-111.111111111111,4,2,1,35,0,0
94326,-111.111111111111,4,2,1,25,0,0
95016,-111.111111111111,4,2,99,5,0,0
96395,-86.9565217391304,4,2,67,70,0,0
96567,-86.9565217391304,4,2,99,5,0,0
97429,-68.9655172413793,4,2,58,80,0,0
97602,-68.9655172413793,4,2,99,5,0,0
98464,-68.9655172413793,4,2,1,25,0,0
98809,-68.9655172413793,4,2,1,30,0,0
99154,-68.9655172413793,4,2,1,35,0,0
99498,-68.9655172413793,4,2,1,40,0,0
99843,-68.9655172413793,4,2,1,45,0,0
100188,-68.9655172413793,4,2,1,50,0,0
100533,-68.9655172413793,4,2,1,55,0,0
100878,-68.9655172413793,4,2,1,60,0,0
101223,-68.9655172413793,4,2,1,65,0,0
101395,-68.9655172413793,4,2,99,5,0,0
101567,-166.666666666667,4,2,17,45,0,0
101826,-166.666666666667,4,2,99,5,0,0
101912,-90.9090909090909,4,2,58,65,0,0
102257,-90.9090909090909,4,2,1,65,0,0
102947,-90.9090909090909,4,2,66,65,0,0
103119,-90.9090909090909,4,2,68,65,0,0
103291,-90.9090909090909,4,2,67,65,0,0
103636,-90.9090909090909,4,2,68,65,0,0
103809,-90.9090909090909,4,2,1,65,0,0
103981,-166.666666666667,4,2,66,65,0,0
104326,-125,4,2,62,65,0,0
104671,-71.4285714285714,4,2,63,65,0,0
105360,-90.9090909090909,4,2,59,65,0,0
105418,-90.9090909090909,4,2,63,65,0,0
105475,-90.9090909090909,4,2,59,65,0,0
105533,-90.9090909090909,4,2,63,65,0,0
105590,-90.9090909090909,4,2,59,65,0,0
105705,-90.9090909090909,4,2,62,65,0,0
105878,-90.9090909090909,4,2,57,65,0,0
106050,-90.9090909090909,4,2,58,65,0,0
106222,-90.9090909090909,4,2,1,65,0,0
106912,-90.9090909090909,4,2,65,65,0,0
107085,-90.9090909090909,4,2,70,65,0,0
107257,-90.9090909090909,4,2,58,65,0,0
108464,-90.9090909090909,4,2,66,65,0,0
108636,-90.9090909090909,4,2,68,65,0,0
108809,-90.9090909090909,4,2,67,65,0,0
109326,-90.9090909090909,4,2,68,65,0,0
109498,-90.9090909090909,4,2,66,65,0,0
109671,-90.9090909090909,4,2,62,65,0,0
109843,-90.9090909090909,4,2,68,65,0,0
110016,-90.9090909090909,4,2,67,65,0,0
110188,-90.9090909090909,4,2,70,65,0,0
110705,-90.9090909090909,4,2,66,65,0,0
110878,-90.9090909090909,4,2,58,65,0,0
111050,-90.9090909090909,4,2,62,65,0,0
111223,-90.9090909090909,4,2,57,65,0,0
111395,-90.9090909090909,4,2,60,65,0,0
111567,-90.9090909090909,4,2,61,65,0,0
111740,-90.9090909090909,4,2,60,65,0,0
111912,-90.9090909090909,4,2,61,65,0,0
112085,-90.9090909090909,4,2,69,65,0,0
112257,-90.9090909090909,4,2,71,65,0,0
112429,-90.9090909090909,4,2,72,65,0,0
112602,-90.9090909090909,4,2,60,65,0,0
112774,-90.9090909090909,4,2,62,65,0,0
112947,-90.9090909090909,4,2,63,65,0,0
113981,-90.9090909090909,4,2,60,65,0,0
114154,-90.9090909090909,4,2,63,65,0,0
114326,-90.9090909090909,4,2,59,65,0,0
114671,-90.9090909090909,4,2,63,65,0,0
115016,-90.9090909090909,4,2,59,65,0,0
115073,-90.9090909090909,4,2,63,65,0,0
115131,-90.9090909090909,4,2,59,65,0,0
115188,-90.9090909090909,4,2,63,65,0,0
115245,-90.9090909090909,4,2,59,65,0,0
115360,-90.9090909090909,4,2,62,65,0,0
115533,-90.9090909090909,4,2,57,65,0,0
115705,-90.9090909090909,4,2,58,65,0,0
116567,-90.9090909090909,4,2,65,65,0,0
116740,-90.9090909090909,4,2,58,65,0,0
116912,-90.9090909090909,4,2,62,65,0,0
117085,-90.9090909090909,4,2,66,65,0,0
117602,-90.9090909090909,4,2,73,65,0,0
117774,-90.9090909090909,4,2,66,65,0,0
117947,-90.9090909090909,4,2,58,65,0,0
118119,-90.9090909090909,4,2,68,65,0,0
118291,-90.9090909090909,4,2,67,65,0,0
118464,-90.9090909090909,4,2,70,65,0,0
119326,-90.9090909090909,4,2,65,65,0,0
119498,-90.9090909090909,4,2,70,65,0,0
119671,-90.9090909090909,4,2,58,65,0,0
119843,-90.9090909090909,4,2,67,65,0,0
120360,-90.9090909090909,4,2,68,65,0,0
120533,-90.9090909090909,4,2,66,65,0,0
120705,-90.9090909090909,4,2,62,65,0,0
120878,-90.9090909090909,4,2,68,65,0,0
121050,-90.9090909090909,4,2,67,65,0,0
121223,-90.9090909090909,4,2,70,65,0,0
121740,-90.9090909090909,4,2,66,65,0,0
121912,-90.9090909090909,4,2,58,65,0,0
122085,-90.9090909090909,4,2,59,65,0,0
122257,-90.9090909090909,4,2,63,65,0,0
122429,-90.9090909090909,4,2,60,65,0,0
122601,-90.9090909090909,4,2,61,65,0,0
123981,365.853658536585,4,2,10,52,1,0
123981,-142.857142857143,4,2,10,52,0,0
124163,-142.857142857143,4,2,12,52,0,0
124346,-142.857142857143,4,2,13,52,0,0
124529,-142.857142857143,4,2,17,52,0,0
124712,-142.857142857143,4,2,20,52,0,0
124895,-142.857142857143,4,2,25,52,0,0
125078,-142.857142857143,4,2,30,52,0,0
125261,-142.857142857143,4,2,36,52,0,0
125444,-142.857142857143,4,2,10,52,0,0
125627,-142.857142857143,4,2,12,52,0,0
125810,-142.857142857143,4,2,13,52,0,0
125993,-142.857142857143,4,2,17,52,0,0
126176,-142.857142857143,4,2,20,52,0,0
126450,-142.857142857143,4,2,40,52,0,0
126541,-142.857142857143,4,2,17,52,0,0
126724,-142.857142857143,4,2,13,52,0,0
126907,-100,4,2,42,52,0,0
127090,-100,4,2,44,52,0,0
127273,-100,4,2,30,52,0,0
127456,-100,4,2,25,52,0,0
127639,-142.857142857143,4,2,55,52,0,0
128005,-142.857142857143,4,2,1,25,0,0
128188,-166.666666666667,4,2,17,52,0,0
128371,-100,4,2,43,52,0,0
128737,-100,4,2,12,52,0,0
128920,-100,4,2,45,52,0,0
129102,-142.857142857143,4,2,37,52,0,0
129285,-142.857142857143,4,2,30,52,0,0
129468,-142.857142857143,4,2,25,52,0,0
129651,-142.857142857143,4,2,36,52,0,0
129834,-100,4,2,46,52,0,0
130200,-100,4,2,12,52,0,0
130383,-100,4,2,45,52,0,0
130566,-142.857142857143,4,2,17,52,0,0
130749,-142.857142857143,4,2,25,52,0,0
130931,-142.857142857143,4,2,30,52,0,0
131114,-142.857142857143,4,2,12,52,0,0
131297,-142.857142857143,4,2,47,52,0,0
131480,-100,4,2,10,52,0,0
131663,-100,4,2,12,52,0,0
131846,-100,4,2,45,52,0,0
132029,-100,4,2,18,52,0,0
132212,-100,4,2,38,52,0,0
132395,-100,4,2,26,52,0,0
132578,-100,4,2,31,52,0,0
132761,-113.636363636364,4,2,48,52,0,0
132944,-113.636363636364,4,2,10,52,0,0
133127,-113.636363636364,4,2,12,52,0,0
133310,-113.636363636364,4,2,45,52,0,0
133492,-142.857142857143,4,2,17,52,0,0
133676,-142.857142857143,4,2,25,52,0,0
133859,-142.857142857143,4,2,30,52,0,0
134041,-142.857142857143,4,2,12,52,0,0
134224,-100,4,2,21,52,0,0
134407,-100,4,2,41,52,0,0
134590,-100,4,2,32,52,0,0
134773,-100,4,2,27,52,0,0
134956,-100,4,2,14,52,0,0
135139,-100,4,2,38,52,0,0
135322,-100,4,2,28,52,0,0
135505,-100,4,2,33,52,0,0
135688,-86.9565217391304,4,2,11,52,0,0
135871,-86.9565217391304,4,2,12,52,0,0
136053,-125,4,2,13,52,0,0
136236,-125,4,2,17,52,0,0
136419,-125,4,2,20,52,0,0
136602,-125,4,2,25,52,0,0
136785,-125,4,2,30,52,0,0
136968,-125,4,2,39,52,0,0
137151,-100,4,2,11,52,0,0
137334,-100,4,2,12,52,0,0
137517,-100,4,2,13,52,0,0
137700,-100,4,2,18,52,0,0
137883,-125,4,2,22,52,0,0
137974,-125,4,2,99,5,0,0
138157,-125,4,2,40,52,0,0
138249,-125,4,2,17,52,0,0
138431,-125,4,2,15,52,0,0
138614,-100,4,2,56,52,0,0
138797,-100,4,2,44,52,0,0
138980,-100,4,2,30,52,0,0
139163,-100,4,2,25,52,0,0
139346,-100,4,2,36,52,0,0
139529,-100,4,2,12,52,0,0
139712,-100,4,2,45,52,0,0
139895,-100,4,2,19,52,0,0
140078,-100,4,2,56,52,0,0
140261,-100,4,2,44,52,0,0
140444,-100,4,2,12,52,0,0
140627,-100,4,2,23,52,0,0
140810,-100,4,2,34,52,0,0
140992,-100,4,2,29,52,0,0
141084,-100,4,2,50,52,0,0
141175,-100,4,2,16,52,0,0
141358,-100,4,2,24,52,0,0
141541,-113.636363636364,4,2,49,48,0,0
141907,-113.636363636364,4,2,12,48,0,0
142090,-113.636363636364,4,2,45,48,0,0
142273,-142.857142857143,4,2,17,48,0,0
142456,-142.857142857143,4,2,25,48,0,0
142639,-142.857142857143,4,2,30,48,0,0
142822,-142.857142857143,4,2,12,48,0,0
143005,-100,4,2,47,41,0,0
143188,-100,4,2,10,44,0,0
143371,-100,4,2,12,47,0,0
143554,-100,4,2,45,50,0,0
143737,375,4,2,51,53,1,0
143737,-100,4,2,51,53,0,0
143924,-125,4,2,52,53,0,0
144112,-125,4,2,25,53,0,0
144299,-125,4,2,35,53,0,0
144487,397.350993377483,4,2,48,53,1,0
144487,-142.857142857143,4,2,48,50,0,0
144685,-142.857142857143,4,2,10,48,0,0
144884,416.666666666667,4,2,12,46,1,0
144884,-166.666666666667,4,2,12,46,0,0
145090,-166.666666666667,4,2,45,44,0,0
145300,418.118466898955,4,2,17,42,1,0
145509,-100,4,2,25,40,0,0
145718,419.58041958042,4,2,30,38,1,0
145927,-100,4,2,12,36,0,0
146137,444.444444444444,4,2,21,42,1,0
146137,-200,4,2,21,44,0,0
146359,-200,4,2,41,46,0,0
146581,465.116279069767,4,2,32,48,1,0
146581,-153.846153846154,4,2,32,50,0,0
146813,-153.846153846154,4,2,27,52,0,0
147046,483.870967741935,4,2,14,54,1,0
147046,-125,4,2,14,56,0,0
147287,-125,4,2,38,52,0,0
147529,-125,4,2,53,46,0,0
147853,483.870967741935,4,2,54,40,1,0

[Colours]
Combo1 : 152,255,255
Combo2 : 135,95,75
Combo3 : 152,62,56
Combo4 : 179,207,82

[HitObjects]
256,192,41223,12,0,46395,0:2:0:0:
281,381,46740,5,0,3:2:0:0:
290,369,46912,1,0,0:2:0:0:
291,346,47085,1,0,0:2:0:0:
264,323,47257,1,0,0:2:0:0:
218,324,47429,1,0,1:2:0:0:
176,363,47602,1,0,0:2:0:0:
118,382,47774,1,0,0:2:0:0:
118,382,48119,5,0,3:2:0:0:
102,381,48291,1,0,0:2:0:0:
79,375,48464,1,0,0:2:0:0:
50,355,48636,1,0,0:2:0:0:
28,314,48809,1,0,1:2:0:0:
30,256,48981,1,0,0:2:0:0:
16,198,49154,5,0,3:2:0:0:
66,267,49326,1,0,0:2:0:0:
10,198,49498,21,0,3:2:0:0:
1,210,49671,1,0,0:2:0:0:
0,233,49843,1,0,0:2:0:0:
27,256,50016,1,0,0:2:0:0:
73,255,50188,1,0,1:2:0:0:
115,216,50360,1,0,0:2:0:0:
173,197,50533,1,0,0:2:0:0:
173,197,50878,5,0,3:2:0:0:
188,198,51050,1,0,0:2:0:0:
208,207,51223,1,0,0:2:0:0:
229,234,51395,1,0,0:2:0:0:
237,278,51567,1,0,1:2:0:0:
262,329,51740,1,0,0:2:0:0:
310,366,51912,6,0,P|327:374|342:378,1,25.4999992218018,0|0,3:2|0:2,0:2:0:0:
466,373,52257,21,0,3:2:0:0:
479,369,52429,1,0,0:2:0:0:
496,355,52602,1,0,0:2:0:0:
492,320,52774,1,0,0:2:0:0:
452,299,52947,1,0,1:2:0:0:
395,298,53119,1,0,0:2:0:0:
349,261,53291,1,0,0:2:0:0:
349,261,53636,5,0,3:2:0:0:
345,244,53809,1,0,0:2:0:0:
358,225,53981,1,0,0:2:0:0:
390,215,54154,1,0,0:2:0:0:
434,226,54326,1,0,1:2:0:0:
465,274,54498,1,0,0:2:0:0:
446,333,54671,5,0,3:2:0:0:
512,272,54843,1,0,0:2:0:0:
440,334,55016,21,0,3:2:0:0:
425,337,55188,1,0,0:2:0:0:
402,334,55360,1,0,0:2:0:0:
376,310,55533,1,0,0:2:0:0:
347,274,55705,1,0,1:2:0:0:
295,248,55878,1,0,0:2:0:0:
233,241,56050,1,0,0:2:0:0:
233,241,56395,5,0,3:2:0:0:
218,244,56567,1,0,0:2:0:0:
202,261,56740,1,0,0:2:0:0:
193,294,56912,1,0,0:2:0:0:
205,337,57085,1,0,1:2:0:0:
250,371,57257,5,4,0:3:0:0:
277,300,57429,1,4,0:3:0:0:
238,216,57602,1,4,0:3:0:0:
304,111,57774,21,8,3:3:0:0:
325,139,57947,1,2,0:2:0:0:
306,173,58119,1,2,0:2:0:0:
250,181,58291,1,2,0:2:0:0:
208,133,58464,1,0,1:2:0:0:
196,62,58636,1,2,0:2:0:0:
142,2,58809,1,2,0:2:0:0:
142,2,59154,5,0,3:2:0:0:
132,40,59326,1,2,0:2:0:0:
154,74,59498,1,2,0:2:0:0:
208,95,59671,1,2,0:2:0:0:
275,82,59843,1,0,1:2:0:0:
348,78,60016,1,2,0:2:0:0:
413,130,60188,5,2,3:2:0:0:
306,145,60360,1,2,0:2:0:0:
418,126,60533,21,0,3:2:0:0:
445,104,60705,1,2,0:2:0:0:
435,66,60878,1,2,0:2:0:0:
388,36,61050,1,2,0:2:0:0:
321,40,61223,1,0,1:2:0:0:
263,91,61395,1,2,0:2:0:0:
256,180,61567,1,2,0:2:0:0:
256,180,61912,6,0,B|244:211|269:234|258:255,1,76.4999976654053,2|0,3:2|0:2,0:2:0:0:
197,355,62257,1,2,0:2:0:0:
144,373,62429,1,2,0:2:0:0:
79,351,62602,1,0,1:2:0:0:
51,281,62774,1,2,0:2:0:0:
97,209,62947,6,0,P|115:205|131:205,1,25.4999992218018,2|0,3:2|0:2,0:2:0:0:
256,255,63291,22,0,B|244:224|269:201|258:179,1,76.4999976654053,2|0,3:2|0:2,0:2:0:0:
333,118,63636,1,2,0:2:0:0:
282,83,63809,1,2,0:2:0:0:
219,91,63981,1,0,1:2:0:0:
165,146,64154,1,2,0:2:0:0:
79,138,64326,1,2,0:2:0:0:
79,138,64671,5,0,3:2:0:0:
48,115,64843,1,2,0:2:0:0:
43,77,65016,1,2,0:2:0:0:
78,32,65188,1,2,0:2:0:0:
148,31,65360,5,2,1:2:0:0:
173,91,65533,1,2,0:2:0:0:
99,118,65705,1,2,3:2:0:0:
112,85,65878,1,2,0:2:0:0:
152,157,66050,22,0,B|181:171|206:148|227:161,1,76.4999976654053,2|0,3:2|0:2,0:2:0:0:
319,246,66395,1,2,0:2:0:0:
362,283,66567,1,2,0:2:0:0:
426,276,66740,1,0,1:2:0:0:
472,226,66912,1,2,0:2:0:0:
459,144,67085,1,2,0:2:0:0:
459,144,67429,5,0,3:2:0:0:
429,126,67602,1,2,0:2:0:0:
375,148,67774,1,2,0:2:0:0:
344,208,67947,1,2,0:2:0:0:
303,287,68119,5,2,1:2:0:0:
213,332,68291,1,2,0:2:0:0:
100,331,68464,1,2,0:2:0:0:
0,250,68636,1,2,0:2:0:0:
4,109,68809,6,0,B|18:133|48:124|73:139,1,76.4999976654053,2|0,3:2|0:2,0:2:0:0:
217,214,69154,1,2,0:0:0:0:
172,257,69326,1,2,0:2:0:0:
105,257,69498,1,0,1:2:0:0:
52,200,69671,1,2,0:2:0:0:
70,114,69843,1,2,0:2:0:0:
185,59,70016,37,2,0:2:0:0:
70,114,70188,2,0,B|55:138|25:129|1:143,2,76.4999976654053,2|0|0,3:2|0:2|0:2,0:2:0:0:
185,59,70705,5,2,0:2:0:0:
226,210,70878,2,0,B|223:237|252:248|264:273,1,76.4999976654053,2|0,1:2|0:2,0:2:0:0:
261,154,71223,1,2,3:2:0:0:
185,59,71395,37,2,0:2:0:0:
116,215,71567,2,0,B|88:224|92:255|73:276,1,76.4999976654053,2|0,3:2|0:2,0:2:0:0:
114,116,71912,1,2,0:0:0:0:
148,165,72085,1,2,0:2:0:0:
203,201,72257,1,0,1:2:0:0:
273,210,72429,1,2,0:2:0:0:
355,194,72602,1,2,0:2:0:0:
382,47,72774,5,2,0:2:0:0:
355,194,72947,2,0,B|386:182|409:207|430:196,1,76.4999976654053,2|0,3:2|0:2,0:2:0:0:
320,78,73291,1,2,0:2:0:0:
382,47,73464,37,2,0:2:0:0:
451,63,73636,1,2,1:2:0:0:
445,126,73808,1,2,0:2:0:0:
373,141,73981,1,2,3:2:0:0:
385,109,74153,1,2,0:2:0:0:
430,193,74326,22,0,B|354:199,1,76.4999976654053,2|0,3:2|0:2,0:2:0:0:
239,246,74671,1,2,0:2:0:0:
234,307,74843,1,2,0:2:0:0:
273,364,75016,1,0,1:2:0:0:
344,384,75188,1,2,0:2:0:0:
429,384,75360,1,2,0:2:0:0:
333,327,75533,5,2,0:2:0:0:
429,384,75705,2,0,B|440:362|440:362|477:358|486:336,1,76.4999976654053,2|0,3:2|0:2,0:2:0:0:
436,261,76050,1,2,0:2:0:0:
377,255,76223,1,2,0:2:0:0:
333,327,76395,37,2,1:2:0:0:
284,233,76567,2,0,B|284:206|284:206|257:180|261:158,1,76.4999976654053,2|0,0:0|3:2,0:2:0:0:
333,327,76912,5,2,0:2:0:0:
241,384,77085,2,0,B|224:369|224:369|189:378|175:362,1,76.4999976654053,2|0,3:2|0:2,0:2:0:0:
210,257,77429,37,2,0:2:0:0:
268,256,77602,1,2,0:2:0:0:
319,217,77774,1,0,1:2:0:0:
343,152,77947,1,2,0:2:0:0:
318,75,78119,1,2,0:2:0:0:
318,75,78464,5,2,3:2:0:0:
350,108,78636,1,2,0:2:0:0:
344,163,78809,1,2,0:2:0:0:
284,199,78981,1,2,0:2:0:0:
214,159,79154,5,2,1:2:0:0:
216,71,79326,1,2,0:2:0:0:
296,0,79498,1,2,3:2:0:0:
419,0,79671,1,2,0:2:0:0:
512,111,79843,6,0,B|489:117|482:132|482:132|466:122|440:134,1,76.4999976654053,2|0,3:2|0:2,0:2:0:0:
291,206,80188,1,2,0:0:0:0:
332,260,80360,1,2,0:2:0:0:
405,263,80532,1,0,1:2:0:0:
458,202,80705,1,2,0:2:0:0:
442,114,80877,1,2,0:2:0:0:
309,72,81050,37,2,0:2:0:0:
442,114,81223,2,0,B|462:124|478:113|478:113|485:129|508:135,2,76.4999976654053,2|0|0,3:2|0:2|0:2,0:2:0:0:
309,72,81739,5,2,0:2:0:0:
273,218,81912,2,0,B|261:239|272:254|272:254|256:261|250:284,1,76.4999976654053,2|0,1:2|0:2,0:2:0:0:
244,151,82257,1,2,3:2:0:0:
309,72,82429,37,2,0:2:0:0:
142,21,82602,2,0,B|119:9|104:20|104:20|97:4|74:0,1,76.4999976654053,2|0,3:2|0:2,0:2:0:0:
60,102,82947,1,2,0:0:0:0:
119,101,83119,1,2,0:2:0:0:
177,131,83291,1,0,1:2:0:0:
203,199,83464,1,2,0:2:0:0:
168,272,83636,1,2,0:2:0:0:
21,278,83809,5,2,0:2:0:0:
168,272,83981,2,0,B|170:295|155:306|155:306|167:318|165:342,1,76.4999976654053,2|0,3:2|0:2,0:2:0:0:
87,227,84326,1,2,0:2:0:0:
21,278,84499,37,2,0:2:0:0:
31,371,84671,1,2,1:2:0:0:
94,365,84843,1,2,0:2:0:0:
109,293,85016,1,2,3:2:0:0:
77,305,85188,1,2,0:2:0:0:
170,344,85360,22,0,B|166:266,1,76.4999976654053,2|0,3:2|0:2,0:2:0:0:
278,147,85705,1,2,0:2:0:0:
262,202,85878,1,2,0:2:0:0:
197,215,86050,1,0,1:2:0:0:
146,164,86223,1,2,0:2:0:0:
171,82,86395,1,2,0:2:0:0:
66,132,86567,5,2,0:2:0:0:
171,82,86740,2,0,B|185:62|185:62|173:27|189:9,1,76.4999976654053,2|0,3:2|0:2,0:2:0:0:
75,0,87085,1,2,0:2:0:0:
22,46,87257,1,2,0:2:0:0:
66,132,87429,37,2,1:2:0:0:
60,240,87602,2,0,B|52:259|52:259|16:270|10:294,1,76.4999976654053,2|0,0:2|3:2,0:2:0:0:
66,132,87947,5,2,0:2:0:0:
178,214,88119,2,0,B|202:217|202:217|220:248|242:248,1,76.4999976654053,2|0,3:2|0:2,0:2:0:0:
377,273,88464,37,2,0:2:0:0:
335,226,88636,1,2,0:2:0:0:
336,159,88809,1,0,1:2:0:0:
384,110,88981,1,2,0:2:0:0:
467,113,89154,1,2,0:2:0:0:
467,113,89498,21,2,3:2:0:0:
505,94,89671,1,2,0:2:0:0:
512,37,89843,1,2,0:2:0:0:
439,0,90016,1,2,0:2:0:0:
375,63,90188,1,2,1:2:0:0:
417,159,90360,1,2,0:2:0:0:
376,272,90533,5,2,3:2:0:0:
301,119,90705,1,2,3:2:0:0:
488,201,90878,1,4,0:1:0:0:
256,192,90964,12,0,95016,0:2:0:0:
275,235,96395,38,0,B|260:195|260:195|250:188|250:188|236:147,1,97.7500018644333,2|0,3:2|0:2,0:2:0:0:
269,134,97429,6,0,B|253:185|253:185|258:201|258:201|244:252,1,123.250003761292,2|0,3:2|0:2,0:2:0:0:
256,192,98464,12,0,101395,0:2:0:0:
103,271,101567,38,0,B|82:267|62:249|62:249|78:258|94:253,1,76.4999976654053,2|0,0:2|0:2,0:2:0:0:
89,165,101912,22,0,P|80:256|122:338,1,187.000005706787,2|0,3:2|0:2,0:2:0:0:
86,159,102429,2,0,P|69:249|104:335,1,187.000005706787,0|0,3:2|0:2,0:2:0:0:
224,327,102946,1,2,0:2:0:0:
216,257,103118,1,2,0:2:0:0:
314,155,103291,6,0,P|408:141|491:195,1,187.000005706787,2|2,3:2|0:2,0:2:0:0:
309,151,103809,1,0,3:0:0:0:
399,201,103981,38,0,P|421:212|444:249,1,50.9999984436036,2|0,0:2|0:2,0:2:0:0:
376,269,104326,6,0,P|362:299|328:318,1,68,2|0,3:2|0:2,0:2:0:0:
150,249,104671,38,0,P|147:149|265:65,1,237.999992736817,2|0,3:2|0:2,0:2:0:0:
146,255,105188,1,2,3:2:0:0:
42,169,105360,2,0,L|44:200,4,31.1666676177979,2|2|2|2|2,0:2|0:2|0:2|0:2|0:2,0:2:0:0:
61,139,105704,1,2,0:2:0:0:
145,22,105878,1,2,0:2:0:0:
7,33,106050,6,0,P|50:54|95:62,1,93.5000028533936,2|0,3:2|0:2,0:2:0:0:
145,22,106395,1,0,0:2:0:0:
0,36,106567,2,0,P|37:65|81:77,1,93.5000028533936,2|0,3:2|0:2,0:2:0:0:
263,88,106912,5,2,1:2:0:0:
134,162,107085,1,2,1:2:0:0:
197,206,107257,1,2,3:2:0:0:
327,186,107429,22,0,P|327:94|278:15,1,187.000005706787,2|0,3:2|0:2,0:2:0:0:
331,193,107947,2,0,P|339:101|297:19,1,187.000005706787,0|0,3:2|0:2,0:2:0:0:
164,43,108464,1,2,0:2:0:0:
216,88,108636,1,2,0:2:0:0:
265,215,108809,6,0,P|261:311|194:383,1,187.000005706787,2|0,3:2|0:2,0:2:0:0:
262,206,109326,1,2,3:2:0:0:
319,126,109498,1,2,0:2:0:0:
405,107,109671,1,2,0:2:0:0:
475,131,109843,1,2,3:2:0:0:
510,179,110016,1,2,0:2:0:0:
505,211,110188,38,0,P|414:228|328:194,1,187.000005706787,2|0,3:2|0:2,0:2:0:0:
512,214,110705,1,2,3:2:0:0:
507,242,110878,37,2,0:2:0:0:
483,275,111050,1,2,0:2:0:0:
428,298,111223,1,2,0:2:0:0:
360,294,111395,1,2,0:2:0:0:
285,268,111567,37,2,3:2:0:0:
170,279,111739,1,2,0:2:0:0:
280,273,111911,5,2,0:2:0:0:
160,288,112085,1,2,3:2:0:0:
80,384,112257,37,2,0:2:0:0:
203,342,112428,1,2,0:2:0:0:
225,267,112602,1,2,3:2:0:0:
178,215,112773,1,2,0:2:0:0:
154,219,112947,6,0,B|149:237|118:250|118:250|108:299|142:317|109:385,1,187.000005706787,2|0,3:2|0:2,0:2:0:0:
152,212,113464,2,0,B|156:193|187:180|187:180|197:131|163:113|196:45,1,187.000005706787,0|0,3:2|0:2,0:2:0:0:
31,0,113981,1,2,0:2:0:0:
102,45,114154,1,2,0:2:0:0:
27,150,114325,38,0,B|50:136|87:147|87:147|100:154|118:152,1,93.5000028533936,2|0,3:2|0:2,0:2:0:0:
319,70,114670,2,0,B|306:83|292:85|292:85|257:100|248:126,1,93.5000028533936,2|0,0:2|3:2,0:2:0:0:
205,247,115016,2,0,L|210:277,4,31.1666676177979,2|2|2|2|2,0:2|0:2|0:2|0:2|0:2,0:2:0:0:
232,218,115360,1,2,3:2:0:0:
321,309,115533,1,2,0:2:0:0:
467,208,115705,6,0,B|489:252|441:249|434:293|465:321|465:321|479:349|478:384,1,187.000005706787,2|0,3:2|0:2,0:2:0:0:
470,200,116222,2,0,P|422:178|366:170,1,93.5000028533936,0|0,3:1|0:2,0:2:0:0:
323,273,116566,37,2,0:2:0:0:
363,331,116739,1,2,0:2:0:0:
406,254,116911,1,2,0:2:0:0:
470,381,117085,6,0,B|452:334|499:341|510:298|483:267|483:267|470:237|475:203,1,187.000005706787,2|0,3:2|0:2,0:2:0:0:
465,384,117601,1,2,3:2:0:0:
364,355,117774,1,2,0:2:0:0:
282,204,117946,37,2,1:2:0:0:
247,327,118118,1,2,1:2:0:0:
168,371,118291,1,2,3:2:0:0:
68,373,118464,6,0,P|90:330|97:285,1,93.5000028533936,2|0,3:2|0:2,0:2:0:0:
168,371,118809,1,0,0:2:0:0:
75,380,118981,2,0,P|105:343|117:298,1,93.5000028533936,0|0,3:2|0:2,0:2:0:0:
95,192,119325,37,2,0:2:0:0:
153,163,119497,1,2,0:2:0:0:
229,176,119670,1,2,0:2:0:0:
299,243,119843,6,0,P|324:283|336:327,1,93.5000028533936,2|0,3:2|0:2,0:2:0:0:
381,228,120187,1,0,0:2:0:0:
303,234,120360,37,2,3:2:0:0:
390,247,120532,1,2,0:2:0:0:
469,221,120704,1,2,0:2:0:0:
500,153,120877,1,2,3:2:0:0:
482,87,121049,1,2,0:2:0:0:
427,64,121222,6,0,P|381:79|344:105,1,93.5000028533936,2|0,3:2|0:2,0:2:0:0:
353,19,121566,1,0,0:2:0:0:
426,53,121739,37,2,3:2:0:0:
334,30,121912,1,2,0:2:0:0:
240,67,122084,1,2,0:2:0:0:
168,166,122256,5,2,3:2:0:0:
23,143,122428,1,2,3:2:0:0:
0,0,122601,1,2,3:2:0:0:
254,208,123981,6,0,P|243:155|241:130,1,59.4999981842042,6|2,0:2|0:2,0:2:0:0:
140,147,124346,1,2,0:2:0:0:
173,193,124529,1,2,0:2:0:0:
149,252,124712,2,0,P|101:273|87:270,2,59.4999981842042,10|2|2,0:2|0:2|0:2,0:2:0:0:
254,208,125261,2,0,P|279:210|311:238,1,59.4999981842042,2|2,0:2|0:2,0:2:0:0:
347,314,125627,5,2,0:2:0:0:
373,340,125810,1,2,0:2:0:0:
418,345,125993,1,2,0:2:0:0:
490,277,126176,2,0,P|480:214|469:201,1,59.4999981842042,10|2,0:2|0:2,0:2:0:0:
477,212,126450,1,2,0:2:0:0:
469,208,126541,1,2,0:2:0:0:
378,207,126724,1,2,0:2:0:0:
295,294,126907,37,2,0:2:0:0:
279,310,127090,1,2,0:2:0:0:
244,314,127273,1,2,0:2:0:0:
206,286,127456,1,2,0:2:0:0:
199,189,127639,2,0,P|236:162|316:175,1,118.999996368408,10|0,0:2|0:2,0:2:0:0:
206,286,128188,1,2,0:2:0:0:
122,214,128371,6,0,P|133:117|63:59,1,170,2|2,0:2|0:2,0:2:0:0:
217,99,128919,1,2,0:2:0:0:
306,168,129102,2,0,P|345:166|376:135,1,59.4999981842042,10|2,0:2|0:2,0:2:0:0:
377,59,129468,1,2,0:2:0:0:
317,17,129651,1,2,0:2:0:0:
217,99,129834,38,0,P|225:213|234:274,1,170,2|2,0:2|0:2,0:2:0:0:
326,238,130383,1,2,0:2:0:0:
417,269,130566,2,0,P|450:295|471:332,2,59.4999981842042,10|2|2,0:2|0:2|0:2,0:2:0:0:
326,238,131114,1,2,0:2:0:0:
232,268,131297,5,2,0:2:0:0:
230,304,131480,1,2,0:2:0:0:
214,324,131663,1,2,0:2:0:0:
201,328,131846,1,2,0:2:0:0:
191,326,132029,5,10,0:2:0:0:
257,304,132212,1,2,0:2:0:0:
340,332,132395,1,2,0:2:0:0:
436,301,132578,1,2,0:2:0:0:
490,181,132761,22,0,P|467:142|432:117,1,74.8000022827149,2|2,0:2|0:2,0:2:0:0:
346,105,133127,1,2,0:2:0:0:
279,148,133310,1,2,0:2:0:0:
217,126,133493,2,0,P|199:102|188:74,1,59.4999981842042,10|2,0:2|0:2,0:2:0:0:
261,62,133859,2,0,P|265:32|277:5,1,59.4999981842042,2|2,0:2|0:2,0:2:0:0:
279,148,134224,5,2,0:2:0:0:
278,171,134407,1,2,0:2:0:0:
264,205,134590,1,2,0:2:0:0:
231,236,134773,1,2,0:2:0:0:
168,255,134956,5,10,0:2:0:0:
88,246,135139,1,2,0:2:0:0:
26,181,135322,1,2,0:2:0:0:
13,78,135505,1,2,0:2:0:0:
111,0,135688,6,0,P|159:21|175:69,1,97.7500018644333,2|2,0:2|0:2,0:2:0:0:
129,179,136054,2,0,P|112:154|128:102,1,68,2|2,0:2|0:2,0:2:0:0:
232,175,136420,1,10,0:2:0:0:
208,231,136602,1,2,0:2:0:0:
151,263,136785,1,2,0:2:0:0:
62,201,136968,37,2,0:2:0:0:
65,309,137151,2,0,P|38:372|16:395,1,85,2|2,0:2|0:2,0:2:0:0:
0,262,137517,1,2,0:0:0:0:
62,201,137700,5,2,0:2:0:0:
6,107,137883,2,0,P|3:88|6:73,1,34,10|0,0:2|0:0,0:0:0:0:
81,24,138157,1,2,0:2:0:0:
81,24,138249,1,2,0:2:0:0:
127,83,138432,1,2,0:2:0:0:
197,202,138615,38,0,P|158:184|116:178,1,85,2|2,0:2|0:2,0:2:0:0:
63,236,138980,2,0,P|70:277|89:315,1,85,2|2,0:2|0:2,0:2:0:0:
203,355,139346,1,10,0:2:0:0:
237,303,139529,1,2,0:2:0:0:
302,291,139712,1,2,0:2:0:0:
364,374,139895,5,2,0:2:0:0:
382,257,140078,2,0,P|373:206|341:178,2,85,2|2|2,0:2|0:2|0:2,0:2:0:0:
364,374,140627,37,2,0:2:0:0:
453,377,140810,1,10,0:2:0:0:
511,339,140993,1,2,0:2:0:0:
511,330,141085,1,2,0:2:0:0:
509,322,141175,1,2,0:2:0:0:
442,295,141358,1,2,0:2:0:0:
285,323,141541,22,0,P|242:262|232:189,1,149.60000456543,2|2,0:2|0:2,0:2:0:0:
254,101,142090,1,2,0:2:0:0:
233,25,142273,2,0,P|203:33|178:50,1,59.4999981842042,10|2,0:2|0:2,0:2:0:0:
122,84,142639,2,0,P|141:105|170:116,1,59.4999981842042,2|2,0:2|0:2,0:2:0:0:
254,101,143005,5,2,0:2:0:0:
265,86,143188,1,2,0:2:0:0:
290,71,143371,1,2,0:2:0:0:
327,69,143554,1,2,0:2:0:0:
383,118,143737,37,10,0:2:0:0:
426,20,143924,2,0,P|438:51|437:85,1,68,2|2,0:2|0:0,0:0:0:0:
383,118,144299,5,2,0:2:0:0:
477,129,144487,2,0,P|455:149|428:162,1,59.4999981842042,2|2,0:2|0:2,0:2:0:0:
354,181,144884,38,0,P|375:194|388:216,1,50.9999984436036,2|2,0:2|0:2,0:0:0:0:
399,300,145300,1,10,0:2:0:0:
391,323,145509,1,2,0:2:0:0:
377,338,145718,1,2,0:2:0:0:
362,345,145927,1,2,0:2:0:0:
352,346,146137,6,0,P|316:340|296:326,1,42.5,2|2,0:2|0:2,0:2:0:0:
204,382,146581,38,0,P|194:355|194:328,1,55.2499974708558,2|2,0:2|0:2,0:2:0:0:
113,222,147046,6,0,P|80:229|46:224,2,68,2|2|2,0:2|0:2|0:2,0:2:0:0:
256,192,147853,21,6,0:2:0:0:
