osu file format v14

[General]
AudioFilename: audio.mp3
AudioLeadIn: 0
PreviewTime: 31472
Countdown: 0
SampleSet: Soft
StackLeniency: 0.7
Mode: 3
LetterboxInBreaks: 0
EpilepsyWarning: 1
SpecialStyle: 0
WidescreenStoryboard: 1

[Editor]
Bookmarks: 46867,57901,91005,102039,113074,122729
DistanceSpacing: 1.5
BeatDivisor: 2
GridSize: 4
TimelineZoom: 2.2

[Metadata]
Title:Woodfairies
TitleUnicode:Woodfairies
Artist:Aethoro
ArtistUnicode:Aethoro
Creator:Protastic101
Version:7K Easy
Source:
Tags:FA featured artist mg mpg mappers' guild instrumental folk epic orchestral chill piano LN long note spiritdance spirit dance atmospheric ambient track 7 story wood fairies HyBer
BeatmapID:4288130
BeatmapSetID:2052811

[Difficulty]
HPDrainRate:7
CircleSize:7
OverallDifficulty:6.8
ApproachRate:5
SliderMultiplier:1.4
SliderTickRate:1

[Events]
//Background and Video events
0,0,"woodfairies7.jpg",0,0
//Break Periods
2,40848,45667
//Storyboard Layer 0 (Background)
//Storyboard Layer 1 (Fail)
//Storyboard Layer 2 (Pass)
//Storyboard Layer 3 (Foreground)
//Storyboard Layer 4 (Overlay)
//Storyboard Sound Samples
Sample,47216,0,"M_D4.wav",40
Sample,47560,0,"M_C#4.wav",40
Sample,47905,0,"M_E4.wav",40
Sample,48422,0,"M_F#4.wav",40
Sample,48595,0,"M_D4.wav",40
Sample,48940,0,"M_C#4.wav",40
Sample,49974,0,"M_D4.wav",40
Sample,50319,0,"M_C#4.wav",40
Sample,50664,0,"M_E4.wav",40
Sample,51354,0,"M_D4.wav",40
Sample,51698,0,"M_C#4.wav",40
Sample,52216,0,"M_F#3.wav",40
Sample,52733,0,"M_D4.wav",40
Sample,53078,0,"M_C#4.wav",40
Sample,53422,0,"M_E4.wav",40
Sample,54112,0,"M_D4.wav",40
Sample,54457,0,"M_C#4.wav",40
Sample,54974,0,"M_A4.wav",40
Sample,55319,0,"M_F#4.wav",40
Sample,55491,0,"M_D4.wav",40
Sample,55836,0,"M_C#4.wav",40
Sample,56181,0,"M_E4.wav",40
Sample,56871,0,"M_D4.wav",40
Sample,57216,0,"M_C#4.wav",40
Sample,57733,0,"M_A4.wav",40
Sample,58250,0,"M_D4.wav",40
Sample,58250,0,"F_B4.wav",40
Sample,58595,0,"F_A4.wav",40
Sample,58595,0,"M_C#4.wav",40
Sample,58940,0,"M_E4.wav",40
Sample,58940,0,"F_C#5.wav",40
Sample,59629,0,"F_B4.wav",40
Sample,59629,0,"M_D4.wav",40
Sample,59974,0,"M_C#4.wav",40
Sample,59974,0,"F_A4.wav",40
Sample,60147,0,"M_D4.wav",40
Sample,60319,0,"M_E4.wav",40
Sample,60491,0,"M_A4.wav",40
Sample,60664,0,"F_F#4.wav",40
Sample,61009,0,"F_B4.wav",40
Sample,61009,0,"M_D4.wav",40
Sample,61354,0,"M_C#4.wav",40
Sample,61354,0,"F_A4.wav",40
Sample,61698,0,"F_C#5.wav",40
Sample,61698,0,"M_E4.wav",40
Sample,62043,0,"P_B5.wav",60
Sample,62388,0,"M_D4.wav",40
Sample,62388,0,"F_B4.wav",40
Sample,62733,0,"M_C#4.wav",40
Sample,62733,0,"F_A4.wav",40
Sample,62733,0,"P_E5.wav",60
Sample,63078,0,"M_E4.wav",40
Sample,63250,0,"F_D5.wav",40
Sample,63250,0,"M_F#3.wav",40
Sample,63422,0,"P_F#5.wav",60
Sample,63767,0,"M_D4.wav",40
Sample,63767,0,"F_B4.wav",40
Sample,64112,0,"F_A4.wav",40
Sample,64112,0,"M_C#4.wav",40
Sample,64457,0,"M_E4.wav",40
Sample,64457,0,"F_C#5.wav",40
Sample,65147,0,"F_B4.wav",40
Sample,65147,0,"M_D4.wav",40
Sample,65491,0,"M_C#4.wav",40
Sample,65491,0,"P_C#6.wav",60
Sample,65491,0,"F_A4.wav",40
Sample,65664,0,"M_D4.wav",40
Sample,65836,0,"F_C#5.wav",40
Sample,65836,0,"M_E4.wav",40
Sample,66009,0,"F_E4.wav",40
Sample,66009,0,"M_A4.wav",40
Sample,66181,0,"P_F#5.wav",60
Sample,66526,0,"M_D4.wav",40
Sample,66526,0,"F_B4.wav",40
Sample,66871,0,"F_A4.wav",40
Sample,66871,0,"M_C#4.wav",40
Sample,67216,0,"M_E4.wav",40
Sample,67216,0,"F_C#5.wav",40
Sample,67905,0,"M_D4.wav",40
Sample,67905,0,"P_D5.wav",60
Sample,67905,0,"F_B4.wav",40
Sample,68250,0,"F_A4.wav",40
Sample,68250,0,"M_C#4.wav",40
Sample,68250,0,"P_A5.wav",60
Sample,68422,0,"M_D4.wav",40
Sample,68595,0,"F_C#5.wav",40
Sample,68595,0,"P_D6.wav",60
Sample,68595,0,"M_E4.wav",40
Sample,68767,0,"M_A4.wav",40
Sample,68940,0,"M_B3.wav",40
Sample,69285,0,"F_B4.wav",40
Sample,69285,0,"M_D4.wav",40
Sample,69629,0,"M_C#4.wav",40
Sample,69629,0,"F_A4.wav",40
Sample,69974,0,"F_C#5.wav",40
Sample,69974,0,"M_E4.wav",40
Sample,70319,0,"M_B3.wav",40
Sample,70491,0,"M_F#4.wav",40
Sample,70664,0,"F_B4.wav",40
Sample,70664,0,"M_D4.wav",40
Sample,71009,0,"P_B5.wav",60
Sample,71009,0,"F_A4.wav",40
Sample,71009,0,"M_C#4.wav",40
Sample,71354,0,"M_E4.wav",40
Sample,71526,0,"F_E4.wav",40
Sample,71526,0,"M_A4.wav",40
Sample,71698,0,"M_B3.wav",40
Sample,72043,0,"M_D4.wav",40
Sample,72043,0,"F_B4.wav",40
Sample,72388,0,"F_A4.wav",40
Sample,72388,0,"M_C#4.wav",40
Sample,72733,0,"M_E4.wav",40
Sample,72733,0,"F_C#5.wav",40
Sample,73078,0,"M_B3.wav",40
Sample,73422,0,"F_B4.wav",40
Sample,73422,0,"M_D4.wav",40
Sample,73767,0,"P_C#6.wav",60
Sample,73767,0,"F_A4.wav",40
Sample,73767,0,"M_C#4.wav",40
Sample,73940,0,"M_D4.wav",40
Sample,74112,0,"F_C#5.wav",40
Sample,74112,0,"M_E4.wav",40
Sample,74285,0,"F_D5.wav",40
Sample,74285,0,"M_F#3.wav",40
Sample,74457,0,"M_G3.wav",40
Sample,74802,0,"M_D4.wav",40
Sample,74802,0,"F_B4.wav",40
Sample,75147,0,"F_A4.wav",40
Sample,75147,0,"M_C#4.wav",40
Sample,75491,0,"M_E4.wav",40
Sample,75491,0,"F_C#5.wav",40
Sample,75836,0,"M_G3.wav",40
Sample,76181,0,"F_B4.wav",40
Sample,76181,0,"M_D4.wav",40
Sample,76526,0,"P_E6.wav",60
Sample,76526,0,"M_C#4.wav",40
Sample,76526,0,"F_A4.wav",40
Sample,76698,0,"M_D4.wav",40
Sample,76871,0,"M_E4.wav",40
Sample,77043,0,"F_E4.wav",40
Sample,77043,0,"M_A4.wav",40
Sample,77216,0,"M_G3.wav",40
Sample,77388,0,"M_F#4.wav",40
Sample,77560,0,"M_D4.wav",40
Sample,77560,0,"F_B4.wav",40
Sample,77905,0,"F_A4.wav",40
Sample,77905,0,"M_C#4.wav",40
Sample,78250,0,"M_E4.wav",40
Sample,78250,0,"F_C#5.wav",40
Sample,78595,0,"M_G3.wav",40
Sample,78767,0,"M_F#4.wav",40
Sample,78940,0,"F_B4.wav",40
Sample,78940,0,"P_E6.wav",60
Sample,78940,0,"M_D4.wav",40
Sample,79285,0,"M_C#4.wav",40
Sample,79285,0,"P_C#6.wav",60
Sample,79285,0,"F_A4.wav",40
Sample,79457,0,"M_D4.wav",40
Sample,79629,0,"F_C#5.wav",40
Sample,79629,0,"M_E4.wav",40
Sample,79802,0,"M_A4.wav",40
Sample,79802,0,"F_D5.wav",40
Sample,79802,0,"M_A4.wav",40
Sample,79974,0,"M_B3.wav",40
Sample,80147,0,"M_F#4.wav",40
Sample,80319,0,"M_D4.wav",40
Sample,80319,0,"F_B4.wav",40
Sample,80664,0,"F_A4.wav",40
Sample,80664,0,"M_C#4.wav",40
Sample,81009,0,"M_E4.wav",40
Sample,81009,0,"F_C#5.wav",40
Sample,81354,0,"M_B3.wav",40
Sample,81698,0,"F_B4.wav",40
Sample,81698,0,"M_D4.wav",40
Sample,82043,0,"M_C#4.wav",40
Sample,82043,0,"P_B5.wav",60
Sample,82043,0,"F_A4.wav",40
Sample,82388,0,"M_E4.wav",40
Sample,82560,0,"M_A4.wav",40
Sample,82560,0,"F_E4.wav",40
Sample,82733,0,"M_B3.wav",40
Sample,83078,0,"M_D4.wav",40
Sample,83078,0,"F_B4.wav",40
Sample,83422,0,"F_A4.wav",40
Sample,83422,0,"M_C#4.wav",40
Sample,83767,0,"M_E4.wav",40
Sample,83767,0,"F_C#5.wav",40
Sample,84112,0,"M_B3.wav",40
Sample,84457,0,"F_B4.wav",40
Sample,84457,0,"M_D4.wav",40
Sample,84802,0,"F_A4.wav",40
Sample,84802,0,"P_C#6.wav",60
Sample,84802,0,"M_C#4.wav",40
Sample,84974,0,"M_D4.wav",40
Sample,85147,0,"F_C#5.wav",40
Sample,85147,0,"M_E4.wav",40
Sample,85319,0,"F_D5.wav",40
Sample,85319,0,"M_F#3.wav",40
Sample,85491,0,"M_G3.wav",40
Sample,85664,0,"M_F#4.wav",40
Sample,85836,0,"F_B4.wav",40
Sample,85836,0,"M_D4.wav",40
Sample,86181,0,"M_C#4.wav",40
Sample,86181,0,"F_A4.wav",40
Sample,86526,0,"F_C#5.wav",40
Sample,86526,0,"M_E4.wav",40
Sample,86871,0,"M_G3.wav",40
Sample,87216,0,"M_D4.wav",40
Sample,87216,0,"F_B4.wav",40
Sample,87560,0,"M_C#4.wav",40
Sample,87560,0,"F_A4.wav",40
Sample,87560,0,"P_E6.wav",60
Sample,87733,0,"M_D4.wav",40
Sample,87905,0,"M_E4.wav",40
Sample,88078,0,"M_A4.wav",40
Sample,88078,0,"F_E4.wav",40
Sample,88250,0,"M_G3.wav",40
Sample,88595,0,"M_D4.wav",40
Sample,88595,0,"F_B4.wav",40
Sample,88940,0,"F_A4.wav",40
Sample,88940,0,"M_C#4.wav",40
Sample,89285,0,"M_E4.wav",40
Sample,89285,0,"F_C#5.wav",40
Sample,89629,0,"M_G3.wav",40
Sample,89802,0,"M_F#4.wav",40
Sample,89802,0,"F_D5.wav",40
Sample,89974,0,"M_D4.wav",40
Sample,89974,0,"P_E6.wav",60
Sample,89974,0,"F_B4.wav",40
Sample,90319,0,"F_A4.wav",40
Sample,90319,0,"P_C#7.wav",60
Sample,90319,0,"M_C#4.wav",40
Sample,90491,0,"M_D4.wav",40
Sample,90664,0,"M_E4.wav",40
Sample,90664,0,"F_C#5.wav",40
Sample,90836,0,"F_D5.wav",40
Sample,90836,0,"M_A4.wav",40
Sample,96526,0,"M_B3.wav",40
Sample,97560,0,"M_F#5.wav",40
Sample,101698,0,"M_E4.wav",40
Sample,102043,0,"M_B3.wav",40
Sample,103078,0,"M_F#4.wav",40
Sample,103422,0,"M_B3.wav",40
Sample,104457,0,"M_E4.wav",40
Sample,104802,0,"M_B3.wav",40
Sample,105319,0,"M_A4.wav",40
Sample,105664,0,"M_E4.wav",40
Sample,105836,0,"P_A6.wav",60
Sample,106181,0,"M_B3.wav",40
Sample,107043,0,"M_D4.wav",40
Sample,107043,0,"P_F#5.wav",60
Sample,107216,0,"M_E4.wav",40
Sample,107216,0,"P_B5.wav",60
Sample,107560,0,"M_B3.wav",40
Sample,108595,0,"M_F#4.wav",40
Sample,108940,0,"M_B3.wav",40
Sample,109457,0,"M_A4.wav",40
Sample,109974,0,"M_E4.wav",40
Sample,110319,0,"M_B3.wav",40
Sample,110836,0,"M_A4.wav",40
Sample,111354,0,"M_F#4.wav",40
Sample,111698,0,"M_B3.wav",40
Sample,112216,0,"M_A4.wav",40
Sample,112733,0,"M_E4.wav",40
Sample,112905,0,"M_F#4.wav",40
Sample,113078,0,"M_B4.wav",40
Sample,114112,0,"M_F#5.wav",40
Sample,114457,0,"M_B4.wav",40
Sample,115319,0,"M_D5.wav",40
Sample,115491,0,"M_E5.wav",40
Sample,115836,0,"M_B4.wav",40
Sample,116698,0,"M_E5.wav",40
Sample,117043,0,"M_B4.wav",40
Sample,117216,0,"M_B4.wav",40
Sample,117733,0,"M_A5.wav",40
Sample,118078,0,"P_F#6.wav",60
Sample,118078,0,"M_D5.wav",40
Sample,118250,0,"P_D6.wav",60
Sample,118250,0,"M_E5.wav",40
Sample,118595,0,"M_B4.wav",40
Sample,119457,0,"M_E5.wav",40
Sample,119974,0,"M_B4.wav",40
Sample,120491,0,"M_A5.wav",40
Sample,121009,0,"M_E5.wav",40
Sample,121354,0,"M_B4.wav",40
Sample,121871,0,"M_A5.wav",40
Sample,122388,0,"M_F#5.wav",40
Sample,122560,0,"M_B4.wav",40
Sample,122733,0,"M_A4.wav",40
Sample,129966,0,"P_B5.wav",60
Sample,132161,0,"P_F#5.wav",60
Sample,132527,0,"P_D5.wav",60
Sample,134722,0,"P_C#5.wav",60
Sample,135088,0,"P_E5.wav",60
Sample,135454,0,"P_D5.wav",60
Sample,138015,0,"P_C#6.wav",60
Sample,138564,0,"P_E5.wav",60
Sample,140027,0,"P_F#5.wav",60
Sample,140942,0,"P_C#5.wav",60
Sample,141125,0,"P_D5.wav",60
Sample,141308,0,"P_E5.wav",60
Sample,143885,0,"P_F#5.wav",60
Sample,144072,0,"P_D5.wav",60
Sample,144447,0,"P_A4.wav",60
Sample,146729,0,"P_C#5.wav",60
Sample,147194,0,"P_E5.wav",60
Sample,147677,0,"P_D5.wav",60

[TimingPoints]
1825,705.882352941176,7,2,1,25,1,0
1825,-48.780487804878,4,2,1,25,0,0
41354,344.827586206897,4,2,1,50,1,0
91009,-100,4,2,1,25,0,0
102043,-100,4,2,1,50,0,0
124113,365.853658536585,4,2,1,25,1,0
124113,-94.3396226415094,4,2,1,25,0,0
143885,375,4,2,1,25,1,0
143885,-91.743119266055,4,2,1,25,0,0
144635,397.350993377483,4,2,1,25,1,0
144635,-86.9565217391304,4,2,1,25,0,0
145032,416.666666666667,4,2,1,25,1,0
145032,-82.6446280991736,4,2,1,25,0,0
145448,418.118466898955,4,2,1,25,1,0
145448,-81.9672131147541,4,2,1,25,0,0
145866,419.58041958042,4,2,1,25,1,0
145866,-81.9672131147541,4,2,1,25,0,0
146285,444.444444444444,4,2,1,25,1,0
146285,-77.5193798449612,4,2,1,25,0,0
146729,465.116279069767,4,2,1,25,1,0
146729,-74.0740740740741,4,2,1,25,0,0
147194,483.870967741935,4,2,1,25,1,0
147194,-71.4285714285714,4,2,1,25,0,0
148001,483.870967741935,4,2,1,25,1,0
148001,-71.4285714285714,4,2,1,25,0,0

[HitObjects]
36,192,1824,128,0,2177:0:0:0:0:
256,192,2177,128,0,2530:0:0:0:0:
182,192,2530,128,0,2883:0:0:0:0:
475,192,2883,128,0,3236:0:0:0:0:
109,192,3236,128,0,3589:0:0:0:0:
256,192,3589,128,0,3942:0:0:0:0:
329,192,3942,128,0,4295:0:0:0:0:
402,192,4295,128,0,6413:0:0:0:0:
36,192,6766,128,0,7119:0:0:0:0:
402,192,7119,128,0,7472:0:0:0:0:
475,192,7472,128,0,7824:0:0:0:0:
182,192,7824,128,0,8177:0:0:0:0:
256,192,8177,128,0,8530:0:0:0:0:
475,192,8530,128,0,8883:0:0:0:0:
329,192,8883,128,0,9236:0:0:0:0:
36,192,9236,128,0,11354:0:0:0:0:
402,192,11707,128,0,12060:0:0:0:0:
256,192,12060,128,0,12413:0:0:0:0:
109,192,12413,128,0,12766:0:0:0:0:
36,192,12766,128,0,13119:0:0:0:0:
182,192,13119,128,0,13472:0:0:0:0:
329,192,13472,128,0,13824:0:0:0:0:
475,192,13824,128,0,14177:0:0:0:0:
256,192,14177,128,0,16295:0:0:0:0:
109,192,16648,128,0,17001:0:0:0:0:
182,192,17001,128,0,17354:0:0:0:0:
256,192,17354,128,0,17707:0:0:0:0:
402,192,17707,128,0,18060:0:0:0:0:
36,192,18060,128,0,18413:0:0:0:0:
329,192,18413,128,0,18766:0:0:0:0:
109,192,18766,128,0,19119:0:0:0:0:
475,192,19119,128,0,21236:0:0:0:0:
256,192,21589,128,0,21942:0:0:0:0:
182,192,21942,128,0,22295:0:0:0:0:
329,192,22295,128,0,22648:0:0:0:0:
36,192,22648,128,0,23001:0:0:0:0:
475,192,23001,128,0,23354:0:0:0:0:
329,192,23354,128,0,23707:0:0:0:0:
182,192,23707,128,0,24060:0:0:0:0:
109,192,24060,128,0,26177:0:0:0:0:
402,192,26530,128,0,26883:0:0:0:0:
36,192,26883,128,0,27236:0:0:0:0:
109,192,27236,128,0,27589:0:0:0:0:
256,192,27589,128,0,27942:0:0:0:0:
475,192,27942,128,0,28295:0:0:0:0:
109,192,28295,128,0,28648:0:0:0:0:
402,192,28648,128,0,29001:0:0:0:0:
36,192,29001,128,0,31119:0:0:0:0:
36,192,31472,128,0,31824:0:0:0:0:
109,192,31824,128,0,32177:0:0:0:0:
182,192,32177,128,0,32530:0:0:0:0:
475,192,32530,128,0,32883:0:0:0:0:
402,192,32883,128,0,33236:0:0:0:0:
329,192,33236,128,0,33589:0:0:0:0:
256,192,33589,128,0,33942:0:0:0:0:
182,192,33942,128,0,36060:0:0:0:0:
329,192,36413,128,0,36766:0:0:0:0:
182,192,36766,128,0,37119:0:0:0:0:
475,192,37119,128,0,37472:0:0:0:0:
36,192,37472,128,0,37824:0:0:0:0:
109,192,37824,128,0,38177:0:0:0:0:
475,192,38177,128,0,38530:0:0:0:0:
329,192,38530,128,0,38883:0:0:0:0:
256,192,38883,128,0,40648:0:0:0:0:
475,192,46871,5,0,0:0:0:0:
36,192,46871,1,0,0:0:0:40:M_B3.wav
109,192,47216,1,8,0:0:0:0:
402,192,47560,1,8,0:0:0:0:
109,192,47905,1,8,0:0:0:0:
36,192,48250,1,2,0:0:0:0:
475,192,48250,1,0,0:0:0:40:M_B3.wav
182,192,48422,1,4,0:0:0:0:
402,192,48595,1,8,0:0:0:0:
109,192,48940,1,8,0:0:0:0:
256,192,49285,1,2,0:0:0:0:
402,192,49285,128,0,49629:0:0:0:40:M_E4.wav
36,192,49629,1,10,0:0:0:0:
109,192,49629,1,0,0:0:0:40:M_B3.wav
475,192,49974,1,8,0:0:0:0:
36,192,50319,1,8,0:0:0:0:
475,192,50664,1,8,0:0:0:0:
402,192,51009,1,2,0:0:0:0:
475,192,51009,1,0,0:0:0:40:M_B3.wav
36,192,51354,1,8,0:0:0:0:
475,192,51698,1,8,0:0:0:0:
36,192,52043,1,2,0:0:0:0:
182,192,52043,1,0,0:0:0:40:M_E4.wav
256,192,52216,1,8,0:0:0:0:
329,192,52388,1,10,0:0:0:0:
402,192,52388,1,0,0:0:0:40:M_G3.wav
182,192,52733,1,8,0:0:0:0:
402,192,53078,1,8,0:0:0:0:
182,192,53422,1,8,0:0:0:0:
109,192,53767,1,2,0:0:0:0:
182,192,53767,1,0,0:0:0:40:M_G3.wav
329,192,54112,1,8,0:0:0:0:
109,192,54457,1,8,0:0:0:0:
329,192,54802,1,2,0:0:0:0:
475,192,54802,1,0,0:0:0:40:M_E4.wav
256,192,54974,1,8,0:0:0:0:
36,192,55147,1,10,0:0:0:0:
109,192,55147,1,0,0:0:0:40:M_G3.wav
256,192,55319,1,4,0:0:0:0:
402,192,55491,1,8,0:0:0:0:
36,192,55836,1,8,0:0:0:0:
402,192,56181,1,8,0:0:0:0:
109,192,56526,1,2,0:0:0:0:
182,192,56526,1,0,0:0:0:40:M_G3.wav
329,192,56871,1,8,0:0:0:0:
109,192,57216,1,8,0:0:0:0:
329,192,57560,1,2,0:0:0:0:
402,192,57560,1,0,0:0:0:40:M_E4.wav
256,192,57733,1,2,0:0:0:0:
109,192,57905,1,2,0:0:0:0:
182,192,57905,1,0,0:0:0:40:M_B3.wav
475,192,58250,128,8,58595:0:0:0:0:
256,192,58595,1,8,0:0:0:0:
36,192,58940,128,8,59285:0:0:0:0:
182,192,59285,1,2,0:0:0:0:
475,192,59285,1,0,0:0:0:40:M_B3.wav
402,192,59629,128,8,59974:0:0:0:0:
329,192,59974,1,8,0:0:0:0:
109,192,60319,128,2,60664:0:0:0:0:
182,192,60319,1,0,0:0:0:40:F_C#5.wav
329,192,60664,1,2,0:0:0:0:
475,192,60664,1,0,0:0:0:40:M_B3.wav
256,192,61009,128,8,61354:0:0:0:0:
36,192,61354,1,8,0:0:0:0:
256,192,61698,128,8,62043:0:0:0:0:
402,192,62043,1,2,0:0:0:0:
475,192,62043,1,0,0:0:0:40:M_B3.wav
109,192,62388,128,8,62733:0:0:0:0:
182,192,62733,1,8,0:0:0:0:
402,192,63078,1,2,0:0:0:0:
475,192,63078,1,0,0:0:0:40:F_C#5.wav
329,192,63250,1,8,0:0:0:0:
36,192,63422,1,2,0:0:0:0:
256,192,63422,1,0,0:0:0:40:M_G3.wav
109,192,63767,128,8,64112:0:0:0:0:
402,192,64112,1,8,0:0:0:0:
475,192,64457,128,8,64802:0:0:0:0:
36,192,64802,1,2,0:0:0:0:
182,192,64802,1,0,0:0:0:40:M_G3.wav
329,192,65147,128,8,65491:0:0:0:0:
402,192,65491,128,8,65836:0:0:0:0:
36,192,65836,1,2,0:0:0:0:
182,192,65836,128,0,66181:0:0:0:60:P_C#6.wav
329,192,66181,1,2,0:0:0:0:
475,192,66181,1,0,0:0:0:40:M_G3.wav
36,192,66526,128,8,66871:0:0:0:0:
402,192,66871,1,8,0:0:0:0:
109,192,67216,128,8,67560:0:0:0:0:
256,192,67560,1,2,0:0:0:0:
329,192,67560,1,0,0:0:0:40:M_G3.wav
475,192,67905,128,8,68250:0:0:0:0:
109,192,68250,128,8,68595:0:0:0:0:
402,192,68595,128,8,68940:0:0:0:0:
182,192,68940,1,2,0:0:0:0:
256,192,68940,1,0,0:0:0:60:P_F#6.wav
109,192,69285,128,8,69629:0:0:0:0:
475,192,69629,1,8,0:0:0:0:
329,192,69974,128,8,70319:0:0:0:0:
36,192,70319,1,2,0:0:0:0:
109,192,70319,1,0,0:0:0:60:P_F#6.wav
182,192,70664,1,8,0:0:0:0:
182,192,71009,1,8,0:0:0:0:
36,192,71354,1,2,0:0:0:0:
475,192,71354,1,0,0:0:0:40:F_C#5.wav
256,192,71698,1,2,0:0:0:0:
475,192,71698,1,0,0:0:0:60:P_F#6.wav
36,192,72043,128,8,72388:0:0:0:0:
109,192,72388,1,8,0:0:0:0:
402,192,72733,128,8,73078:0:0:0:0:
182,192,73078,1,2,0:0:0:0:
256,192,73078,1,0,0:0:0:60:P_F#6.wav
329,192,73422,128,8,73767:0:0:0:0:
109,192,73767,128,8,74112:0:0:0:0:
402,192,74112,128,2,74457:0:0:0:0:
475,192,74112,1,0,0:0:0:60:P_C#6.wav
109,192,74457,1,2,0:0:0:0:
182,192,74457,1,0,0:0:0:60:P_F#5.wav
36,192,74802,128,8,75147:0:0:0:0:
329,192,75147,1,8,0:0:0:0:
256,192,75491,128,8,75836:0:0:0:0:
402,192,75836,1,2,0:0:0:0:
475,192,75836,1,0,0:0:0:60:P_F#6.wav
109,192,76181,128,8,76526:0:0:0:0:
402,192,76526,128,8,76871:0:0:0:0:
36,192,76871,128,2,77216:0:0:0:0:
182,192,76871,1,0,0:0:0:40:F_C#5.wav
256,192,77216,1,2,0:0:0:0:
329,192,77216,1,0,0:0:0:60:P_F#6.wav
475,192,77560,128,8,77905:0:0:0:0:
109,192,77905,1,8,0:0:0:0:
182,192,78250,128,8,78595:0:0:0:0:
109,192,78595,128,2,78940:0:0:0:0:
256,192,78595,1,0,0:0:0:60:P_C#6.wav
329,192,78940,128,8,79285:0:0:0:0:
402,192,79285,128,8,79629:0:0:0:0:
182,192,79629,1,2,0:0:0:0:
475,192,79629,128,0,79974:0:0:0:60:P_E6.wav
36,192,79974,1,2,0:0:0:0:
109,192,79974,1,0,0:0:0:60:P_F#6.wav
182,192,80319,128,8,80664:0:0:0:0:
256,192,80664,1,8,0:0:0:0:
329,192,81009,128,8,81354:0:0:0:0:
36,192,81354,1,2,0:0:0:0:
109,192,81354,1,0,0:0:0:60:P_F#6.wav
402,192,81698,1,8,0:0:0:0:
402,192,82043,1,8,0:0:0:0:
256,192,82388,1,2,0:0:0:0:
475,192,82388,1,0,0:0:0:40:F_C#5.wav
109,192,82733,1,2,0:0:0:0:
256,192,82733,1,0,0:0:0:60:P_F#6.wav
182,192,83078,128,8,83422:0:0:0:0:
475,192,83422,1,8,0:0:0:0:
402,192,83767,128,8,84112:0:0:0:0:
36,192,84112,1,2,0:0:0:0:
329,192,84112,1,0,0:0:0:60:P_F#6.wav
109,192,84457,128,8,84802:0:0:0:0:
475,192,84802,128,8,85147:0:0:0:0:
182,192,85147,1,2,0:0:0:0:
256,192,85147,128,0,85491:0:0:0:60:P_C#6.wav
329,192,85491,1,2,0:0:0:0:
402,192,85491,1,0,0:0:0:60:P_F#5.wav
36,192,85836,128,8,86181:0:0:0:0:
182,192,86181,1,8,0:0:0:0:
475,192,86526,1,8,0:0:0:0:
109,192,86871,1,2,0:0:0:0:
475,192,86871,1,0,0:0:0:60:P_F#6.wav
256,192,87216,128,8,87560:0:0:0:0:
402,192,87560,1,8,0:0:0:0:
36,192,87905,1,2,0:0:0:0:
402,192,87905,1,0,0:0:0:40:F_C#5.wav
109,192,88250,1,2,0:0:0:0:
182,192,88250,1,0,0:0:0:60:P_F#6.wav
475,192,88595,128,8,88940:0:0:0:0:
329,192,88940,1,8,0:0:0:0:
109,192,89285,128,8,89629:0:0:0:0:
36,192,89629,128,2,89974:0:0:0:0:
475,192,89629,1,0,0:0:0:60:P_C#6.wav
182,192,89974,128,8,90319:0:0:0:0:
329,192,90319,128,8,90664:0:0:0:0:
182,192,90664,1,2,0:0:0:0:
475,192,90664,128,0,91009:0:0:0:60:P_E7.wav
182,192,91009,1,2,0:0:0:0:
402,192,91009,1,0,0:0:0:40:M_B3.wav
256,192,91354,1,0,0:0:0:40:M_F#4.wav
109,192,91526,1,0,0:0:0:40:M_A4.wav
256,192,92043,1,0,0:0:0:40:M_F#4.wav
475,192,92388,1,0,0:0:0:40:M_B3.wav
256,192,92733,1,0,0:0:0:40:M_F#4.wav
109,192,92905,1,0,0:0:0:40:M_A4.wav
256,192,93422,1,0,0:0:0:40:M_E4.wav
475,192,93767,1,0,0:0:0:40:M_B3.wav
256,192,94112,1,0,0:0:0:40:M_F#4.wav
109,192,94285,1,0,0:0:0:40:M_A4.wav
256,192,94802,1,0,0:0:0:40:M_F#4.wav
475,192,95147,1,0,0:0:0:40:M_B3.wav
256,192,95491,1,0,0:0:0:40:M_F#4.wav
36,192,95664,1,0,0:0:0:40:M_A4.wav
256,192,96181,1,0,0:0:0:40:M_E4.wav
36,192,96526,1,2,0:0:0:0:
109,192,96526,1,0,0:0:0:40:M_C#5.wav
402,192,97560,1,2,0:0:0:0:
475,192,97560,1,0,0:0:0:40:M_F#4.wav
109,192,97905,1,0,0:0:0:40:M_B3.wav
329,192,98250,1,0,0:0:0:40:M_F#4.wav
182,192,98422,1,0,0:0:0:40:M_A4.wav
256,192,98940,1,0,0:0:0:40:M_E4.wav
475,192,99285,1,0,0:0:0:40:M_B3.wav
402,192,99629,1,0,0:0:0:40:M_F#4.wav
329,192,99802,1,0,0:0:0:40:M_A4.wav
256,192,100319,1,0,0:0:0:40:M_F#4.wav
36,192,100664,1,0,0:0:0:40:M_B3.wav
109,192,101009,1,0,0:0:0:40:M_F#4.wav
182,192,101181,1,0,0:0:0:40:M_A4.wav
329,192,101698,128,0,102043:0:0:0:60:P_F#5.wav
36,192,102043,1,2,0:0:0:0:
475,192,102043,1,0,0:0:0:60:P_F#6.wav
36,192,102560,1,2,0:0:0:0:
475,192,102560,1,0,0:0:0:40:M_A4.wav
109,192,103078,128,0,103422:0:0:0:60:P_E6.wav
256,192,103422,1,2,0:0:0:0:
329,192,103422,1,0,0:0:0:60:P_C#6.wav
256,192,103940,1,2,0:0:0:0:
329,192,103940,1,0,0:0:0:40:M_A4.wav
109,192,104112,1,0,0:0:0:60:P_E6.wav
36,192,104457,1,2,0:0:0:0:
402,192,104457,1,0,0:0:0:60:P_A6.wav
109,192,104802,1,2,0:0:0:0:
475,192,104802,1,0,0:0:0:60:P_D7.wav
109,192,105319,1,2,0:0:0:0:
475,192,105319,1,0,0:0:0:60:P_D7.wav
182,192,105491,128,0,105836:0:0:0:60:P_C#7.wav
329,192,105836,128,0,106181:0:0:0:40:M_F#4.wav
109,192,106181,1,2,0:0:0:0:
402,192,106181,1,0,0:0:0:60:P_F#6.wav
109,192,106698,1,2,0:0:0:0:
402,192,106698,1,0,0:0:0:40:M_A4.wav
36,192,107043,1,8,0:0:0:0:
475,192,107216,1,10,0:0:0:0:
36,192,107560,1,2,0:0:0:0:
109,192,107560,1,0,0:0:0:60:P_F#6.wav
36,192,108078,1,2,0:0:0:0:
109,192,108078,1,0,0:0:0:40:M_A4.wav
182,192,108595,128,0,108940:0:0:0:60:P_E6.wav
256,192,108940,1,2,0:0:0:0:
475,192,108940,1,0,0:0:0:60:P_C#6.wav
256,192,109457,1,2,0:0:0:0:
475,192,109457,1,0,0:0:0:60:P_D6.wav
36,192,109974,1,2,0:0:0:0:
109,192,109974,1,0,0:0:0:60:P_D6.wav
36,192,110319,1,2,0:0:0:0:
256,192,110319,1,0,0:0:0:60:P_B5.wav
36,192,110836,1,2,0:0:0:0:
256,192,110836,1,0,0:0:0:60:P_E6.wav
402,192,111009,128,0,111354:0:0:0:60:P_F#6.wav
109,192,111354,128,0,111698:0:0:0:60:P_B6.wav
36,192,111698,1,2,0:0:0:0:
475,192,111698,1,0,0:0:0:60:P_F#7.wav
36,192,112216,1,2,0:0:0:0:
475,192,112216,1,0,0:0:0:60:P_A7.wav
182,192,112733,1,2,0:0:0:0:
329,192,112733,1,0,0:0:0:60:P_E7.wav
109,192,113078,1,2,0:0:0:0:
402,192,113078,1,0,0:0:0:60:P_D6.wav
109,192,113595,1,2,0:0:0:0:
402,192,113595,1,0,0:0:0:40:M_A5.wav
329,192,114112,128,0,114457:0:0:0:60:P_E6.wav
109,192,114457,1,2,0:0:0:0:
182,192,114457,1,0,0:0:0:60:P_C#6.wav
109,192,114974,1,2,0:0:0:0:
182,192,114974,1,0,0:0:0:40:M_A5.wav
256,192,115147,128,0,115491:0:0:0:60:P_C#7.wav
36,192,115491,1,2,0:0:0:0:
329,192,115491,1,0,0:0:0:60:P_A6.wav
109,192,115836,1,2,0:0:0:0:
402,192,115836,1,0,0:0:0:60:P_F#6.wav
109,192,116354,1,2,0:0:0:0:
402,192,116354,1,0,0:0:0:40:M_A5.wav
182,192,116698,128,0,117216:0:0:0:60:P_E6.wav
36,192,117216,1,2,0:0:0:0:
256,192,117216,1,0,0:0:0:60:P_E6.wav
36,192,117733,1,2,0:0:0:0:
256,192,117733,1,0,0:0:0:60:P_A5.wav
402,192,118078,1,8,0:0:0:0:
109,192,118250,1,10,0:0:0:0:
256,192,118595,1,2,0:0:0:0:
475,192,118595,1,0,0:0:0:60:P_B5.wav
256,192,119112,1,2,0:0:0:0:
475,192,119112,1,0,0:0:0:40:M_A5.wav
329,192,119457,128,0,119974:0:0:0:60:P_F#5.wav
109,192,119974,1,2,0:0:0:0:
475,192,119974,1,0,0:0:0:60:P_C#6.wav
109,192,120491,1,2,0:0:0:0:
475,192,120491,1,0,0:0:0:60:P_D6.wav
182,192,121009,1,2,0:0:0:0:
402,192,121009,1,0,0:0:0:60:P_D6.wav
36,192,121354,1,2,0:0:0:0:
402,192,121354,1,0,0:0:0:60:P_B5.wav
36,192,121871,1,2,0:0:0:0:
402,192,121871,1,0,0:0:0:60:P_E6.wav
182,192,122043,128,0,122388:0:0:0:60:P_F#6.wav
256,192,122388,1,0,0:0:0:60:P_D7.wav
329,192,122560,1,0,0:0:0:60:P_E7.wav
109,192,122733,128,2,123078:0:0:0:0:
402,192,122733,1,0,0:0:0:60:P_F#7.wav
36,192,124113,1,0,0:0:0:60:P_D4.wav
329,192,124113,1,0,0:0:0:0:
475,192,124478,1,0,0:0:0:60:P_E5.wav
109,192,124844,1,0,0:0:0:60:P_C#6.wav
182,192,125210,1,0,0:0:0:60:P_C#5.wav
256,192,125576,1,0,0:0:0:60:P_D4.wav
475,192,125576,1,0,0:0:0:0:
329,192,125942,1,0,0:0:0:60:P_E5.wav
402,192,126308,1,0,0:0:0:60:P_C#6.wav
36,192,126582,1,0,0:0:0:60:P_D6.wav
402,192,126856,1,0,0:0:0:60:P_E5.wav
109,192,127039,1,0,0:0:0:60:P_B3.wav
475,192,127039,1,0,0:0:0:0:
402,192,127405,1,0,0:0:0:60:P_C#5.wav
182,192,127771,1,0,0:0:0:60:P_A5.wav
109,192,128137,1,0,0:0:0:60:P_B4.wav
402,192,128503,1,0,0:0:0:60:P_B3.wav
475,192,128503,1,0,0:0:0:40:P_B6.wav
256,192,128869,1,0,0:0:0:60:P_A4.wav
36,192,129234,1,0,0:0:0:60:P_E6.wav
109,192,129234,1,0,0:0:0:60:P_F#5.wav
402,192,129600,1,0,0:0:0:60:P_D5.wav
36,192,129966,1,0,0:0:0:60:P_G3.wav
256,192,129966,1,0,0:0:0:60:P_F#6.wav
182,192,130332,1,0,0:0:0:60:P_A4.wav
109,192,130698,1,0,0:0:0:60:P_F#5.wav
256,192,131064,1,0,0:0:0:60:P_C#5.wav
182,192,131430,1,0,0:0:0:60:P_G3.wav
475,192,131430,1,0,0:0:0:0:
402,192,131795,1,0,0:0:0:60:P_A4.wav
182,192,132161,1,0,0:0:0:60:P_C#7.wav
182,192,132527,1,0,0:0:0:60:P_C#7.wav
109,192,132893,1,0,0:0:0:60:P_G3.wav
329,192,132893,1,0,0:0:0:60:P_F#6.wav
402,192,133259,1,0,0:0:0:60:P_A4.wav
36,192,133625,1,0,0:0:0:60:P_F#5.wav
475,192,133991,1,0,0:0:0:60:P_C#5.wav
109,192,134356,1,0,0:0:0:60:P_A4.wav
182,192,134356,1,0,0:0:0:60:P_C#5.wav
402,192,134722,1,0,0:0:0:60:P_E5.wav
256,192,135088,1,0,0:0:0:60:P_C#7.wav
109,192,135454,1,0,0:0:0:60:P_E7.wav
36,192,135820,1,0,0:0:0:60:P_D4.wav
256,192,135820,1,0,0:0:0:60:P_F#7.wav
475,192,136186,1,0,0:0:0:60:P_E5.wav
109,192,136552,1,0,0:0:0:60:P_C#6.wav
256,192,136917,1,0,0:0:0:60:P_C#5.wav
329,192,137283,1,0,0:0:0:60:P_D4.wav
475,192,137283,1,0,0:0:0:60:P_F#7.wav
182,192,137649,1,0,0:0:0:60:P_E5.wav
36,192,138015,1,0,0:0:0:60:P_B6.wav
475,192,138289,1,0,0:0:0:60:P_D6.wav
36,192,138564,1,0,0:0:0:60:P_E7.wav
182,192,138747,1,0,0:0:0:60:P_B3.wav
402,192,138747,1,0,0:0:0:60:P_F#7.wav
256,192,139112,1,0,0:0:0:60:P_C#5.wav
36,192,139478,1,0,0:0:0:60:P_A5.wav
182,192,139844,1,0,0:0:0:60:P_B4.wav
475,192,140027,1,0,0:0:0:60:P_B7.wav
36,192,140210,1,0,0:0:0:60:P_B3.wav
109,192,140210,1,0,0:0:0:60:P_F#7.wav
182,192,140576,1,0,0:0:0:60:P_A4.wav
329,192,140942,1,0,0:0:0:60:P_C#7.wav
36,192,141125,1,0,0:0:0:60:P_C#7.wav
329,192,141308,1,0,0:0:0:60:P_C#7.wav
109,192,141673,1,0,0:0:0:60:P_G3.wav
475,192,141673,1,0,0:0:0:60:P_F#6.wav
182,192,142039,1,0,0:0:0:60:P_A4.wav
402,192,142405,1,0,0:0:0:60:P_F#5.wav
256,192,142771,1,0,0:0:0:60:P_C#5.wav
36,192,143137,1,0,0:0:0:60:P_G3.wav
475,192,143137,1,0,0:0:0:0:
329,192,143503,1,0,0:0:0:60:P_A4.wav
402,192,143885,1,0,0:0:0:60:P_E6.wav
36,192,144072,1,0,0:0:0:60:P_F#6.wav
109,192,144447,1,0,0:0:0:60:P_B6.wav
329,192,144635,1,0,0:0:0:60:P_G3.wav
402,192,144635,1,0,0:0:0:60:P_F#6.wav
109,192,145032,1,0,0:0:0:60:P_A4.wav
182,192,145448,1,0,0:0:0:60:P_F#5.wav
256,192,145866,1,0,0:0:0:60:P_C#5.wav
109,192,146285,1,0,0:0:0:60:P_A4.wav
402,192,146285,1,0,0:0:0:60:P_C#5.wav
36,192,146729,1,0,0:0:0:60:P_E5.wav
475,192,147194,1,0,0:0:0:60:P_C#7.wav
182,192,147677,1,0,0:0:0:60:P_E7.wav
109,192,148000,1,0,0:0:0:60:P_A7.wav
402,192,148000,1,0,0:0:0:60:P_C#5.wav
