osu file format v14

[General]
AudioFilename: audio.mp3
AudioLeadIn: 0
PreviewTime: 31472
Countdown: 0
SampleSet: Soft
StackLeniency: 0.7
Mode: 3
LetterboxInBreaks: 0
EpilepsyWarning: 1
SpecialStyle: 0
WidescreenStoryboard: 1

[Editor]
Bookmarks: 46867,57901,91005,102039,113074,122729
DistanceSpacing: 1.5
BeatDivisor: 4
GridSize: 4
TimelineZoom: 2.1

[Metadata]
Title:Woodfairies
TitleUnicode:Woodfairies
Artist:Aethoro
ArtistUnicode:Aethoro
Creator:Protastic101
Version:5K Advanced
Source:
Tags:FA featured artist mg mpg mappers' guild instrumental folk epic orchestral chill piano LN long note spiritdance spirit dance atmospheric ambient track 7 story wood fairies HyBer
BeatmapID:4290037
BeatmapSetID:2052811

[Difficulty]
HPDrainRate:7.3
CircleSize:5
OverallDifficulty:7
ApproachRate:5
SliderMultiplier:1.4
SliderTickRate:1

[Events]
//Background and Video events
0,0,"woodfairies7.jpg",0,0
//Break Periods
2,41201,45671
//Storyboard Layer 0 (Background)
//Storyboard Layer 1 (Fail)
//Storyboard Layer 2 (Pass)
//Storyboard Layer 3 (Foreground)
//Storyboard Layer 4 (Overlay)
//Storyboard Sound Samples
Sample,47216,0,"M_D4.wav",40
Sample,47560,0,"M_C#4.wav",40
Sample,47905,0,"M_E4.wav",40
Sample,48422,0,"M_F#4.wav",40
Sample,48595,0,"M_D4.wav",40
Sample,48940,0,"M_C#4.wav",40
Sample,49974,0,"M_D4.wav",40
Sample,50319,0,"M_C#4.wav",40
Sample,50664,0,"M_E4.wav",40
Sample,51354,0,"M_D4.wav",40
Sample,51698,0,"M_C#4.wav",40
Sample,52733,0,"M_D4.wav",40
Sample,53078,0,"M_C#4.wav",40
Sample,53422,0,"M_E4.wav",40
Sample,54112,0,"M_D4.wav",40
Sample,54457,0,"M_C#4.wav",40
Sample,55319,0,"M_F#4.wav",40
Sample,55836,0,"M_C#4.wav",40
Sample,56181,0,"M_E4.wav",40
Sample,56871,0,"M_D4.wav",40
Sample,57216,0,"M_C#4.wav",40
Sample,58078,0,"M_F#4.wav",40
Sample,58250,0,"M_D4.wav",40
Sample,58595,0,"M_C#4.wav",40
Sample,58767,0,"M_D4.wav",40
Sample,58940,0,"M_E4.wav",40
Sample,59457,0,"M_F#4.wav",40
Sample,59629,0,"M_D4.wav",40
Sample,59974,0,"M_C#4.wav",40
Sample,60147,0,"M_D4.wav",40
Sample,60147,0,"M_D4.wav",40
Sample,60319,0,"M_E4.wav",40
Sample,60491,0,"M_A4.wav",40
Sample,60664,0,"F_F#4.wav",40
Sample,60836,0,"M_F#4.wav",40
Sample,61009,0,"M_D4.wav",40
Sample,61354,0,"M_C#4.wav",40
Sample,61526,0,"M_D4.wav",40
Sample,61698,0,"M_E4.wav",40
Sample,62043,0,"P_B5.wav",60
Sample,62216,0,"M_F#4.wav",40
Sample,62388,0,"M_D4.wav",40
Sample,62733,0,"M_C#4.wav",40
Sample,62733,0,"P_E5.wav",60
Sample,62905,0,"M_D4.wav",40
Sample,63078,0,"M_E4.wav",40
Sample,63250,0,"M_F#3.wav",40
Sample,63422,0,"P_F#5.wav",60
Sample,63595,0,"M_F#4.wav",40
Sample,63767,0,"M_D4.wav",40
Sample,64112,0,"M_C#4.wav",40
Sample,64285,0,"M_D4.wav",40
Sample,64457,0,"M_E4.wav",40
Sample,64974,0,"M_F#4.wav",40
Sample,65147,0,"M_D4.wav",40
Sample,65491,0,"F_A4.wav",40
Sample,65491,0,"M_C#4.wav",40
Sample,65664,0,"M_D4.wav",40
Sample,65664,0,"F_B4.wav",40
Sample,65836,0,"F_C#5.wav",40
Sample,65836,0,"M_E4.wav",40
Sample,66009,0,"F_E4.wav",40
Sample,66009,0,"M_A4.wav",40
Sample,66181,0,"P_F#5.wav",60
Sample,66354,0,"M_F#4.wav",40
Sample,66526,0,"M_D4.wav",40
Sample,66871,0,"M_C#4.wav",40
Sample,67043,0,"M_D4.wav",40
Sample,67216,0,"M_E4.wav",40
Sample,67733,0,"M_F#4.wav",40
Sample,67905,0,"M_D4.wav",40
Sample,67905,0,"F_B4.wav",40
Sample,68078,0,"F_F#4.wav",40
Sample,68250,0,"F_A4.wav",40
Sample,68250,0,"M_C#4.wav",40
Sample,68422,0,"M_D4.wav",40
Sample,68422,0,"P_C#6.wav",60
Sample,68595,0,"M_E4.wav",40
Sample,68595,0,"F_C#5.wav",40
Sample,68767,0,"M_A4.wav",40
Sample,68767,0,"F_D5.wav",40
Sample,68940,0,"M_B3.wav",40
Sample,69285,0,"M_D4.wav",40
Sample,69457,0,"F_F#4.wav",40
Sample,69629,0,"M_C#4.wav",40
Sample,69802,0,"M_D4.wav",40
Sample,69974,0,"M_E4.wav",40
Sample,70319,0,"M_B3.wav",40
Sample,70491,0,"M_F#4.wav",40
Sample,70664,0,"M_D4.wav",40
Sample,70836,0,"F_F#4.wav",40
Sample,71009,0,"F_A4.wav",40
Sample,71009,0,"M_C#4.wav",40
Sample,71354,0,"M_E4.wav",40
Sample,71526,0,"M_A4.wav",40
Sample,71526,0,"F_E4.wav",40
Sample,71698,0,"M_B3.wav",40
Sample,72043,0,"M_D4.wav",40
Sample,72216,0,"F_F#4.wav",40
Sample,72388,0,"M_C#4.wav",40
Sample,72560,0,"M_D4.wav",40
Sample,72733,0,"M_E4.wav",40
Sample,73078,0,"M_B3.wav",40
Sample,73422,0,"M_D4.wav",40
Sample,73595,0,"F_F#4.wav",40
Sample,73767,0,"F_A4.wav",40
Sample,73767,0,"M_C#4.wav",40
Sample,73940,0,"M_D4.wav",40
Sample,73940,0,"F_B4.wav",40
Sample,74112,0,"M_E4.wav",40
Sample,74112,0,"F_C#5.wav",40
Sample,74285,0,"F_D5.wav",40
Sample,74285,0,"M_F#3.wav",40
Sample,74457,0,"M_G3.wav",40
Sample,74802,0,"M_D4.wav",40
Sample,74974,0,"M_B3.wav",40
Sample,75147,0,"M_C#4.wav",40
Sample,75319,0,"M_D4.wav",40
Sample,75491,0,"M_E4.wav",40
Sample,75836,0,"M_G3.wav",40
Sample,76181,0,"M_D4.wav",40
Sample,76354,0,"M_B3.wav",40
Sample,76526,0,"F_A4.wav",40
Sample,76526,0,"M_C#4.wav",40
Sample,76698,0,"F_B4.wav",40
Sample,76698,0,"M_D4.wav",40
Sample,76871,0,"M_E4.wav",40
Sample,77043,0,"M_A4.wav",40
Sample,77043,0,"F_E4.wav",40
Sample,77216,0,"M_G3.wav",40
Sample,77388,0,"M_F#4.wav",40
Sample,77560,0,"M_D4.wav",40
Sample,77733,0,"M_B3.wav",40
Sample,77905,0,"M_C#4.wav",40
Sample,78250,0,"M_E4.wav",40
Sample,78595,0,"M_G3.wav",40
Sample,78767,0,"F_D5.wav",40
Sample,78767,0,"M_F#4.wav",40
Sample,78940,0,"M_D4.wav",40
Sample,78940,0,"F_B4.wav",40
Sample,79112,0,"F_F#4.wav",40
Sample,79285,0,"F_A4.wav",40
Sample,79285,0,"M_C#4.wav",40
Sample,79457,0,"M_D4.wav",40
Sample,79457,0,"F_B4.wav",40
Sample,79629,0,"F_C#5.wav",40
Sample,79629,0,"M_E4.wav",40
Sample,79802,0,"M_A4.wav",40
Sample,79802,0,"F_D5.wav",40
Sample,79802,0,"M_A4.wav",40
Sample,79974,0,"M_B3.wav",40
Sample,80147,0,"M_F#4.wav",40
Sample,80319,0,"M_D4.wav",40
Sample,80491,0,"M_B3.wav",40
Sample,80664,0,"M_C#4.wav",40
Sample,80836,0,"M_D4.wav",40
Sample,81009,0,"M_E4.wav",40
Sample,81354,0,"M_B3.wav",40
Sample,81698,0,"M_D4.wav",40
Sample,81871,0,"F_F#4.wav",40
Sample,82043,0,"M_C#4.wav",40
Sample,82043,0,"F_A4.wav",40
Sample,82216,0,"M_D4.wav",40
Sample,82388,0,"M_E4.wav",40
Sample,82560,0,"M_A4.wav",40
Sample,82560,0,"F_E4.wav",40
Sample,82733,0,"M_B3.wav",40
Sample,83078,0,"M_D4.wav",40
Sample,83250,0,"M_B3.wav",40
Sample,83422,0,"M_C#4.wav",40
Sample,83595,0,"M_D4.wav",40
Sample,83767,0,"M_E4.wav",40
Sample,84112,0,"M_B3.wav",40
Sample,84457,0,"M_D4.wav",40
Sample,84629,0,"F_F#4.wav",40
Sample,84802,0,"M_C#4.wav",40
Sample,84802,0,"F_A4.wav",40
Sample,84974,0,"F_B4.wav",40
Sample,84974,0,"M_D4.wav",40
Sample,85147,0,"F_C#5.wav",40
Sample,85147,0,"M_E4.wav",40
Sample,85319,0,"M_F#3.wav",40
Sample,85319,0,"F_D5.wav",40
Sample,85491,0,"M_G3.wav",40
Sample,85664,0,"M_F#4.wav",40
Sample,85836,0,"M_D4.wav",40
Sample,86009,0,"M_B3.wav",40
Sample,86181,0,"M_C#4.wav",40
Sample,86354,0,"M_D4.wav",40
Sample,86526,0,"M_E4.wav",40
Sample,86871,0,"M_G3.wav",40
Sample,87216,0,"M_D4.wav",40
Sample,87388,0,"M_B3.wav",40
Sample,87560,0,"M_C#4.wav",40
Sample,87560,0,"F_A4.wav",40
Sample,87733,0,"M_D4.wav",40
Sample,87733,0,"F_B4.wav",40
Sample,87905,0,"M_E4.wav",40
Sample,88078,0,"M_A4.wav",40
Sample,88078,0,"F_E4.wav",40
Sample,88250,0,"M_G3.wav",40
Sample,88595,0,"M_D4.wav",40
Sample,88767,0,"M_B3.wav",40
Sample,88940,0,"M_C#4.wav",40
Sample,89112,0,"M_D4.wav",40
Sample,89285,0,"M_E4.wav",40
Sample,89802,0,"F_D5.wav",40
Sample,89802,0,"P_D6.wav",60
Sample,89802,0,"M_F#4.wav",40
Sample,89974,0,"F_B4.wav",40
Sample,89974,0,"M_D4.wav",40
Sample,90147,0,"F_F#4.wav",40
Sample,90319,0,"F_A4.wav",40
Sample,90319,0,"M_C#4.wav",40
Sample,90491,0,"M_D4.wav",40
Sample,90491,0,"F_B4.wav",40
Sample,90664,0,"F_C#5.wav",40
Sample,90664,0,"M_E4.wav",40
Sample,90836,0,"M_A4.wav",40
Sample,90836,0,"F_D5.wav",40
Sample,96526,0,"M_B3.wav",40
Sample,97560,0,"M_F#5.wav",40
Sample,101698,0,"M_E4.wav",40
Sample,102043,0,"M_B3.wav",40
Sample,103078,0,"M_F#4.wav",40
Sample,103250,0,"M_B3.wav",40
Sample,103422,0,"M_B3.wav",40
Sample,103767,0,"M_F#4.wav",40
Sample,104457,0,"M_E4.wav",40
Sample,104802,0,"M_B3.wav",40
Sample,105319,0,"M_A4.wav",40
Sample,105664,0,"M_E4.wav",40
Sample,105836,0,"P_A6.wav",60
Sample,106009,0,"M_B3.wav",40
Sample,106181,0,"M_B3.wav",40
Sample,107043,0,"M_D4.wav",40
Sample,107216,0,"M_E4.wav",40
Sample,107388,0,"M_F#4.wav",40
Sample,107560,0,"M_B3.wav",40
Sample,108595,0,"M_F#4.wav",40
Sample,108767,0,"M_B3.wav",40
Sample,108940,0,"M_B3.wav",40
Sample,109457,0,"M_A4.wav",40
Sample,109802,0,"M_D4.wav",40
Sample,109974,0,"M_E4.wav",40
Sample,110147,0,"M_F#4.wav",40
Sample,110319,0,"M_B3.wav",40
Sample,110836,0,"M_A4.wav",40
Sample,111181,0,"M_E4.wav",40
Sample,111354,0,"M_F#4.wav",40
Sample,111526,0,"M_B3.wav",40
Sample,111698,0,"M_B3.wav",40
Sample,111871,0,"M_B4.wav",40
Sample,112043,0,"M_F#4.wav",40
Sample,112216,0,"M_A4.wav",40
Sample,112560,0,"M_D4.wav",40
Sample,112733,0,"M_E4.wav",40
Sample,112905,0,"M_F#4.wav",40
Sample,113078,0,"M_B4.wav",40
Sample,114112,0,"M_F#5.wav",40
Sample,114285,0,"M_B4.wav",40
Sample,114457,0,"M_B4.wav",40
Sample,114802,0,"M_F#5.wav",40
Sample,115319,0,"M_D5.wav",40
Sample,115491,0,"M_E5.wav",40
Sample,115664,0,"M_F#5.wav",40
Sample,115836,0,"M_B4.wav",40
Sample,116698,0,"M_E5.wav",40
Sample,116871,0,"M_F#5.wav",40
Sample,117043,0,"M_B4.wav",40
Sample,117043,0,"M_B4.wav",40
Sample,117216,0,"M_B4.wav",40
Sample,117733,0,"M_A5.wav",40
Sample,118078,0,"M_D5.wav",40
Sample,118250,0,"M_E5.wav",40
Sample,118422,0,"M_F#5.wav",40
Sample,118595,0,"M_B4.wav",40
Sample,119457,0,"M_E5.wav",40
Sample,119629,0,"M_F#5.wav",40
Sample,119802,0,"M_B4.wav",40
Sample,119974,0,"M_B4.wav",40
Sample,120491,0,"M_A5.wav",40
Sample,120836,0,"M_D5.wav",40
Sample,121009,0,"M_E5.wav",40
Sample,121181,0,"M_F#5.wav",40
Sample,121354,0,"M_B4.wav",40
Sample,121871,0,"M_A5.wav",40
Sample,122216,0,"M_E5.wav",40
Sample,122388,0,"M_F#5.wav",40
Sample,122560,0,"M_B4.wav",40
Sample,122733,0,"M_A4.wav",40
Sample,125393,0,"P_D4.wav",30
Sample,129783,0,"P_A5.wav",60
Sample,129966,0,"P_B5.wav",60
Sample,132344,0,"P_A5.wav",60
Sample,132527,0,"P_D5.wav",60
Sample,132710,0,"P_C#5.wav",60
Sample,134539,0,"P_E4.wav",60
Sample,134722,0,"P_C#5.wav",60
Sample,134905,0,"P_D5.wav",60
Sample,135271,0,"P_A5.wav",60
Sample,135454,0,"P_D5.wav",60
Sample,135637,0,"P_C#5.wav",60
Sample,137100,0,"P_A5.wav",60
Sample,137832,0,"P_F#5.wav",60
Sample,138564,0,"P_E5.wav",60
Sample,140027,0,"P_F#5.wav",60
Sample,140759,0,"P_B4.wav",60
Sample,141125,0,"P_D5.wav",60
Sample,141308,0,"P_E5.wav",60
Sample,141491,0,"P_C#5.wav",60
Sample,144072,0,"P_D5.wav",60
Sample,144447,0,"P_A4.wav",60
Sample,146507,0,"P_E4.wav",60
Sample,146729,0,"P_C#5.wav",60
Sample,146961,0,"P_D5.wav",60
Sample,147435,0,"P_A5.wav",60
Sample,147677,0,"P_D5.wav",60

[TimingPoints]
1825,705.882352941176,7,2,1,25,1,0
1825,-48.780487804878,4,2,1,25,0,0
41354,344.827586206897,4,2,1,50,1,0
91009,-100,4,2,1,25,0,0
102043,-100,4,2,1,50,0,0
124113,365.853658536585,4,2,1,25,1,0
124113,-94.3396226415094,4,2,1,25,0,0
143885,375,4,2,1,25,1,0
143885,-91.743119266055,4,2,1,25,0,0
144635,397.350993377483,4,2,1,25,1,0
144635,-86.9565217391304,4,2,1,25,0,0
145032,416.666666666667,4,2,1,25,1,0
145032,-82.6446280991736,4,2,1,25,0,0
145448,418.118466898955,4,2,1,25,1,0
145448,-81.9672131147541,4,2,1,25,0,0
145866,419.58041958042,4,2,1,25,1,0
145866,-81.9672131147541,4,2,1,25,0,0
146285,444.444444444444,4,2,1,25,1,0
146285,-77.5193798449612,4,2,1,25,0,0
146729,465.116279069767,4,2,1,25,1,0
146729,-74.0740740740741,4,2,1,25,0,0
147194,483.870967741935,4,2,1,25,1,0
147194,-71.4285714285714,4,2,1,25,0,0
148001,483.870967741935,4,2,1,25,1,0
148001,-71.4285714285714,4,2,1,25,0,0

[HitObjects]
51,192,1824,128,0,2177:0:0:0:0:
153,192,2177,128,0,2530:0:0:0:0:
256,192,2530,128,0,2883:0:0:0:0:
460,192,2883,128,0,3236:0:0:0:0:
358,192,3236,128,0,3589:0:0:0:0:
256,192,3589,128,0,3942:0:0:0:0:
153,192,3942,128,0,4295:0:0:0:0:
51,192,4295,128,0,6413:0:0:0:0:
460,192,6766,128,0,7119:0:0:0:0:
358,192,7119,128,0,7472:0:0:0:0:
256,192,7472,128,0,7824:0:0:0:0:
51,192,7824,128,0,8177:0:0:0:0:
153,192,8177,128,0,8530:0:0:0:0:
256,192,8530,128,0,8883:0:0:0:0:
358,192,8883,128,0,9236:0:0:0:0:
460,192,9236,128,0,11354:0:0:0:0:
460,192,11707,128,0,12060:0:0:0:0:
256,192,12060,128,0,12413:0:0:0:0:
51,192,12413,128,0,12766:0:0:0:0:
153,192,12766,128,0,13119:0:0:0:0:
358,192,13119,128,0,13472:0:0:0:0:
51,192,13472,128,0,13824:0:0:0:0:
460,192,13824,128,0,14177:0:0:0:0:
256,192,14177,128,0,16295:0:0:0:0:
51,192,16648,128,0,17001:0:0:0:0:
256,192,17001,128,0,17354:0:0:0:0:
460,192,17354,128,0,17707:0:0:0:0:
358,192,17707,128,0,18060:0:0:0:0:
153,192,18060,128,0,18413:0:0:0:0:
460,192,18413,128,0,18766:0:0:0:0:
51,192,18766,128,0,19119:0:0:0:0:
256,192,19119,128,0,21236:0:0:0:0:
153,192,21589,128,0,21942:0:0:0:0:
256,192,21942,128,0,22295:0:0:0:0:
358,192,22295,128,0,22648:0:0:0:0:
51,192,22648,128,0,23001:0:0:0:0:
460,192,23001,128,0,23354:0:0:0:0:
358,192,23354,128,0,23707:0:0:0:0:
153,192,23707,128,0,24060:0:0:0:0:
256,192,24060,128,0,26177:0:0:0:0:
358,192,26530,128,0,26883:0:0:0:0:
256,192,26883,128,0,27236:0:0:0:0:
153,192,27236,128,0,27589:0:0:0:0:
460,192,27589,128,0,27942:0:0:0:0:
51,192,27942,128,0,28295:0:0:0:0:
153,192,28295,128,0,28648:0:0:0:0:
358,192,28648,128,0,29001:0:0:0:0:
256,192,29001,128,0,31119:0:0:0:0:
460,192,31472,128,0,31824:0:0:0:0:
153,192,31824,128,0,32177:0:0:0:0:
51,192,32177,128,0,32530:0:0:0:0:
358,192,32530,128,0,32883:0:0:0:0:
256,192,32883,128,0,33236:0:0:0:0:
153,192,33236,128,0,33589:0:0:0:0:
51,192,33589,128,0,33942:0:0:0:0:
460,192,33942,128,0,36060:0:0:0:0:
51,192,36413,128,0,36766:0:0:0:0:
358,192,36766,128,0,37119:0:0:0:0:
460,192,37119,128,0,37472:0:0:0:0:
153,192,37472,128,0,37824:0:0:0:0:
256,192,37824,128,0,38177:0:0:0:0:
358,192,38177,128,0,38530:0:0:0:0:
460,192,38530,128,0,38883:0:0:0:0:
51,192,38883,128,0,40648:0:0:0:0:
256,192,46871,5,0,4:0:0:40:M_B3.wav
460,192,46871,1,0,0:0:0:0:
51,192,47043,128,0,47216:0:0:0:40:M_F#4.wav
358,192,47216,128,8,47388:0:0:0:0:
153,192,47388,128,0,47560:0:0:0:40:M_B3.wav
256,192,47560,128,8,47733:0:0:0:0:
358,192,47733,128,0,47905:0:0:0:40:M_D4.wav
153,192,47905,128,8,48250:0:0:0:0:
51,192,48250,1,2,0:0:0:0:
460,192,48250,128,0,48422:0:0:0:40:M_B3.wav
256,192,48422,128,4,48595:0:0:0:0:
51,192,48595,128,8,48767:0:0:0:0:
153,192,48767,128,0,48940:0:0:0:40:M_B3.wav
358,192,48940,128,8,49112:0:0:0:0:
256,192,49112,128,0,49285:0:0:0:40:M_D4.wav
51,192,49285,128,2,49457:0:0:0:0:
153,192,49285,1,0,0:0:0:40:M_E4.wav
256,192,49457,1,8,0:0:0:0:
358,192,49457,1,0,0:0:0:40:M_A4.wav
256,192,49629,128,10,49802:0:0:0:0:
358,192,49629,1,0,0:0:0:40:M_B3.wav
460,192,49802,128,0,49974:0:0:0:40:M_F#4.wav
153,192,49974,128,8,50147:0:0:0:0:
358,192,50147,128,0,50319:0:0:0:40:M_B3.wav
51,192,50319,128,8,50491:0:0:0:0:
256,192,50491,128,0,50664:0:0:0:40:M_D4.wav
460,192,50664,128,8,51009:0:0:0:0:
51,192,51009,128,2,51181:0:0:0:0:
153,192,51009,1,0,0:0:0:40:M_B3.wav
460,192,51181,128,0,51354:0:0:0:40:M_F#4.wav
153,192,51354,128,8,51526:0:0:0:0:
256,192,51526,128,0,51698:0:0:0:40:M_B3.wav
460,192,51698,128,8,51871:0:0:0:0:
51,192,51871,128,0,52043:0:0:0:40:M_D4.wav
358,192,52043,128,2,52216:0:0:0:0:
460,192,52043,128,0,52216:0:0:0:40:M_E4.wav
51,192,52216,1,8,0:0:0:0:
153,192,52216,1,0,0:0:0:40:M_F#3.wav
51,192,52388,1,10,0:0:0:0:
153,192,52388,128,0,52560:0:0:0:40:M_G3.wav
256,192,52560,128,0,52733:0:0:0:40:M_F#4.wav
358,192,52733,128,8,52905:0:0:0:0:
51,192,52905,128,0,53078:0:0:0:40:M_B3.wav
256,192,53078,128,8,53250:0:0:0:0:
460,192,53250,128,0,53422:0:0:0:40:M_D4.wav
153,192,53422,128,8,53767:0:0:0:0:
256,192,53767,128,2,53940:0:0:0:0:
358,192,53767,1,0,0:0:0:40:M_G3.wav
51,192,53940,128,0,54112:0:0:0:40:M_F#4.wav
460,192,54112,128,8,54285:0:0:0:0:
358,192,54285,128,0,54457:0:0:0:40:M_B3.wav
256,192,54457,128,8,54629:0:0:0:0:
153,192,54629,128,0,54802:0:0:0:40:M_D4.wav
51,192,54802,128,2,54974:0:0:0:0:
460,192,54802,1,0,0:0:0:40:M_E4.wav
256,192,54974,1,8,0:0:0:0:
358,192,54974,1,0,0:0:0:40:M_A4.wav
256,192,55147,128,10,55319:0:0:0:0:
358,192,55147,1,0,0:0:0:40:M_G3.wav
153,192,55319,128,4,55491:0:0:0:0:
51,192,55491,128,8,55664:0:0:0:0:
460,192,55491,1,0,0:0:0:40:M_D4.wav
358,192,55664,128,0,55836:0:0:0:40:M_B3.wav
256,192,55836,128,8,56009:0:0:0:0:
153,192,56009,128,0,56181:0:0:0:40:M_D4.wav
358,192,56181,128,8,56526:0:0:0:0:
51,192,56526,1,2,0:0:0:0:
460,192,56526,128,0,56698:0:0:0:40:M_G3.wav
153,192,56698,128,0,56871:0:0:0:40:M_F#4.wav
358,192,56871,128,8,57043:0:0:0:0:
51,192,57043,128,0,57216:0:0:0:40:M_B3.wav
153,192,57216,128,8,57388:0:0:0:0:
256,192,57388,128,0,57560:0:0:0:40:M_D4.wav
51,192,57560,1,2,0:0:0:0:
460,192,57560,1,0,0:0:0:40:M_E4.wav
51,192,57733,1,2,0:0:0:0:
460,192,57733,1,0,0:0:0:40:M_A4.wav
153,192,57905,128,2,58078:0:0:0:0:
358,192,57905,1,0,0:0:0:40:M_B3.wav
256,192,58078,128,0,58250:0:0:0:40:F_D5.wav
51,192,58250,1,8,0:0:0:0:
460,192,58250,128,0,58422:0:0:0:40:F_B4.wav
153,192,58595,1,8,0:0:0:0:
358,192,58595,128,0,58767:0:0:0:40:F_A4.wav
460,192,58767,128,0,58940:0:0:0:40:F_B4.wav
51,192,58940,1,8,0:0:0:0:
256,192,58940,128,0,59285:0:0:0:40:F_C#5.wav
51,192,59285,1,2,0:0:0:0:
153,192,59285,128,0,59457:0:0:0:40:M_B3.wav
358,192,59457,128,0,59629:0:0:0:40:F_D5.wav
51,192,59629,128,8,59802:0:0:0:0:
460,192,59629,1,0,0:0:0:40:F_B4.wav
51,192,59974,128,8,60147:0:0:0:0:
153,192,59974,1,0,0:0:0:40:F_A4.wav
256,192,60147,128,0,60319:0:0:0:40:F_B4.wav
358,192,60319,1,2,0:0:0:0:
460,192,60319,128,0,60491:0:0:0:40:F_C#5.wav
51,192,60491,1,8,0:0:0:0:
153,192,60491,128,0,60664:0:0:0:40:F_E4.wav
256,192,60664,128,2,60836:0:0:0:0:
460,192,60664,1,0,0:0:0:40:M_B3.wav
358,192,60836,128,0,61009:0:0:0:40:F_D5.wav
51,192,61009,128,8,61181:0:0:0:0:
153,192,61009,1,0,0:0:0:40:F_B4.wav
256,192,61354,128,8,61526:0:0:0:0:
358,192,61354,1,0,0:0:0:40:F_A4.wav
460,192,61526,128,0,61698:0:0:0:40:F_B4.wav
51,192,61698,128,8,62043:0:0:0:0:
153,192,61698,1,0,0:0:0:40:F_C#5.wav
256,192,62043,1,2,0:0:0:0:
358,192,62043,128,0,62216:0:0:0:40:M_B3.wav
153,192,62216,128,0,62388:0:0:0:40:F_D5.wav
51,192,62388,128,8,62560:0:0:0:0:
460,192,62388,1,0,0:0:0:40:F_B4.wav
153,192,62733,1,8,0:0:0:0:
256,192,62733,128,0,62905:0:0:0:40:F_A4.wav
358,192,62905,128,0,63078:0:0:0:40:F_B4.wav
51,192,63078,1,2,0:0:0:0:
460,192,63078,1,0,0:0:0:40:F_C#5.wav
153,192,63250,128,8,63422:0:0:0:0:
358,192,63250,1,0,0:0:0:40:F_D5.wav
51,192,63422,128,2,63595:0:0:0:0:
256,192,63422,1,0,0:0:0:40:M_G3.wav
460,192,63595,128,0,63767:0:0:0:40:F_D5.wav
153,192,63767,1,8,0:0:0:0:
358,192,63767,128,0,63940:0:0:0:40:F_B4.wav
51,192,64112,128,8,64285:0:0:0:0:
256,192,64112,1,0,0:0:0:40:F_A4.wav
460,192,64285,128,0,64457:0:0:0:40:F_B4.wav
256,192,64457,128,8,64802:0:0:0:0:
358,192,64457,1,0,0:0:0:40:F_C#5.wav
153,192,64802,1,2,0:0:0:0:
460,192,64802,128,0,64974:0:0:0:40:M_G3.wav
51,192,64974,128,0,65147:0:0:0:40:F_D5.wav
256,192,65147,128,8,65319:0:0:0:0:
358,192,65147,1,0,0:0:0:40:F_B4.wav
51,192,65491,1,8,0:0:0:0:
153,192,65491,128,0,65664:0:0:0:60:P_C#6.wav
256,192,65664,128,0,65836:0:0:0:60:P_D6.wav
358,192,65836,128,2,66009:0:0:0:0:
460,192,65836,1,0,0:0:0:60:P_C#6.wav
51,192,66009,128,8,66181:0:0:0:0:
153,192,66009,1,0,0:0:0:60:P_A5.wav
256,192,66181,1,2,0:0:0:0:
460,192,66181,128,0,66354:0:0:0:40:M_G3.wav
358,192,66354,128,0,66526:0:0:0:40:F_D5.wav
51,192,66526,1,8,0:0:0:0:
153,192,66526,128,0,66698:0:0:0:40:F_B4.wav
358,192,66871,1,8,0:0:0:0:
460,192,66871,128,0,67043:0:0:0:40:F_A4.wav
256,192,67043,128,0,67216:0:0:0:40:F_B4.wav
51,192,67216,1,8,0:0:0:0:
358,192,67216,128,0,67560:0:0:0:40:F_C#5.wav
153,192,67560,1,2,0:0:0:0:
256,192,67560,128,0,67733:0:0:0:40:M_G3.wav
51,192,67733,128,0,67905:0:0:0:40:F_D5.wav
256,192,67905,1,8,0:0:0:0:
358,192,67905,128,0,68078:0:0:0:60:P_D5.wav
460,192,68078,128,0,68250:0:0:0:60:P_E5.wav
51,192,68250,1,8,0:0:0:0:
153,192,68250,128,0,68422:0:0:0:60:P_A5.wav
460,192,68422,128,0,68595:0:0:0:40:F_B4.wav
256,192,68595,128,8,68767:0:0:0:0:
358,192,68595,1,0,0:0:0:60:P_D6.wav
51,192,68767,128,0,68940:0:0:0:60:P_E6.wav
153,192,68940,128,2,69285:0:0:0:0:
460,192,68940,1,0,0:0:0:60:P_F#6.wav
256,192,69285,1,8,0:0:0:0:
460,192,69285,1,0,0:0:0:40:F_B4.wav
358,192,69457,128,0,69629:0:0:0:40:M_B3.wav
51,192,69629,128,8,69802:0:0:0:0:
153,192,69629,1,0,0:0:0:40:F_A4.wav
460,192,69802,128,0,69974:0:0:0:40:F_B4.wav
153,192,69974,128,8,70147:0:0:0:0:
256,192,69974,1,0,0:0:0:40:F_C#5.wav
358,192,70147,1,0,0:0:0:60:P_E6.wav
51,192,70319,128,2,70664:0:0:0:0:
358,192,70319,1,0,0:0:0:60:P_F#6.wav
153,192,70664,128,8,70836:0:0:0:0:
460,192,70664,1,0,0:0:0:40:F_B4.wav
256,192,70836,1,0,0:0:0:60:P_C#6.wav
256,192,71009,128,8,71354:0:0:0:0:
460,192,71009,1,0,0:0:0:60:P_B5.wav
51,192,71354,1,2,0:0:0:0:
460,192,71354,128,0,71526:0:0:0:40:F_C#5.wav
51,192,71526,128,8,71698:0:0:0:0:
358,192,71526,1,0,0:0:0:60:P_E6.wav
153,192,71698,1,2,0:0:0:0:
358,192,71698,128,0,72043:0:0:0:60:P_F#6.wav
51,192,72043,1,8,0:0:0:0:
460,192,72043,1,0,0:0:0:40:F_B4.wav
153,192,72216,128,8,72388:0:0:0:0:
256,192,72388,128,8,72560:0:0:0:0:
460,192,72388,1,0,0:0:0:40:F_A4.wav
51,192,72560,128,0,72733:0:0:0:40:F_B4.wav
358,192,72733,1,8,0:0:0:0:
460,192,72733,128,0,72905:0:0:0:40:F_C#5.wav
153,192,72905,1,0,0:0:0:60:P_B6.wav
153,192,73078,128,2,73422:0:0:0:0:
358,192,73078,1,0,0:0:0:60:P_F#6.wav
256,192,73422,1,8,0:0:0:0:
460,192,73422,1,0,0:0:0:40:F_B4.wav
51,192,73595,128,0,73767:0:0:0:60:P_A5.wav
358,192,73767,1,8,0:0:0:0:
460,192,73767,128,0,73940:0:0:0:60:P_C#6.wav
153,192,73940,128,0,74112:0:0:0:60:P_D6.wav
51,192,74112,1,2,0:0:0:0:
358,192,74112,128,0,74285:0:0:0:60:P_C#6.wav
153,192,74285,128,8,74457:0:0:0:0:
460,192,74285,1,0,0:0:0:60:P_A5.wav
51,192,74457,128,2,74802:0:0:0:0:
256,192,74457,1,0,0:0:0:60:P_F#5.wav
358,192,74802,1,8,0:0:0:0:
460,192,74802,1,0,0:0:0:40:F_B4.wav
153,192,74974,128,0,75147:0:0:0:40:F_F#4.wav
51,192,75147,1,8,0:0:0:0:
358,192,75147,128,0,75319:0:0:0:40:F_A4.wav
256,192,75319,128,0,75491:0:0:0:40:F_B4.wav
51,192,75491,128,8,75664:0:0:0:0:
153,192,75491,1,0,0:0:0:40:F_C#5.wav
460,192,75664,1,0,0:0:0:60:P_F#5.wav
153,192,75836,1,2,0:0:0:0:
460,192,75836,128,0,76181:0:0:0:60:P_F#6.wav
51,192,76181,1,8,0:0:0:0:
256,192,76181,1,0,0:0:0:40:F_B4.wav
358,192,76354,128,0,76526:0:0:0:40:F_F#4.wav
51,192,76526,1,8,0:0:0:0:
460,192,76526,128,0,76698:0:0:0:60:P_E6.wav
51,192,76698,128,0,76871:0:0:0:60:P_F#6.wav
153,192,76871,1,2,0:0:0:0:
358,192,76871,1,0,0:0:0:40:F_C#5.wav
256,192,77043,128,8,77216:0:0:0:0:
460,192,77043,1,0,0:0:0:60:P_B6.wav
51,192,77216,1,2,0:0:0:0:
460,192,77216,128,0,77560:0:0:0:60:P_F#6.wav
51,192,77560,1,8,0:0:0:0:
153,192,77560,1,0,0:0:0:40:F_B4.wav
358,192,77733,128,0,77905:0:0:0:40:F_F#4.wav
153,192,77905,128,8,78078:0:0:0:0:
256,192,77905,1,0,0:0:0:40:F_A4.wav
358,192,78078,1,0,0:0:0:40:F_B4.wav
460,192,78078,128,0,78250:0:0:0:40:M_D4.wav
51,192,78250,128,8,78595:0:0:0:0:
153,192,78250,1,0,0:0:0:40:F_C#5.wav
358,192,78595,1,2,0:0:0:0:
460,192,78595,128,0,78767:0:0:0:60:P_C#6.wav
256,192,78767,128,0,78940:0:0:0:60:P_D6.wav
51,192,78940,128,8,79112:0:0:0:0:
153,192,78940,1,0,0:0:0:60:P_E6.wav
460,192,79112,128,0,79285:0:0:0:60:P_A6.wav
153,192,79285,128,8,79457:0:0:0:0:
256,192,79285,1,0,0:0:0:60:P_C#6.wav
358,192,79457,128,0,79629:0:0:0:60:P_D6.wav
51,192,79629,128,2,79802:0:0:0:0:
153,192,79629,1,0,0:0:0:60:P_E6.wav
358,192,79802,1,8,0:0:0:0:
460,192,79802,128,0,79974:0:0:0:60:P_A6.wav
51,192,79974,1,2,0:0:0:0:
256,192,79974,128,0,80319:0:0:0:60:P_F#6.wav
153,192,80319,1,8,0:0:0:0:
358,192,80319,1,0,0:0:0:40:F_B4.wav
460,192,80491,128,0,80664:0:0:0:40:F_F#4.wav
51,192,80664,1,8,0:0:0:0:
153,192,80664,128,0,80836:0:0:0:40:F_A4.wav
358,192,80836,128,0,81009:0:0:0:40:F_B4.wav
51,192,81009,1,8,0:0:0:0:
256,192,81009,128,0,81181:0:0:0:40:F_C#5.wav
153,192,81181,1,0,0:0:0:60:P_E6.wav
153,192,81354,128,2,81698:0:0:0:0:
358,192,81354,1,0,0:0:0:60:P_F#6.wav
256,192,81698,1,8,0:0:0:0:
460,192,81698,128,0,81871:0:0:0:40:F_B4.wav
358,192,81871,1,0,0:0:0:60:P_C#6.wav
51,192,82043,1,8,0:0:0:0:
358,192,82043,128,0,82216:0:0:0:60:P_B5.wav
153,192,82216,128,0,82388:0:0:0:40:F_B4.wav
256,192,82388,1,2,0:0:0:0:
358,192,82388,1,0,0:0:0:40:F_C#5.wav
51,192,82560,128,8,82733:0:0:0:0:
460,192,82560,1,0,0:0:0:60:P_E6.wav
256,192,82733,1,2,0:0:0:0:
460,192,82733,128,0,83078:0:0:0:60:P_F#6.wav
153,192,83078,128,8,83250:0:0:0:0:
358,192,83078,1,0,0:0:0:40:F_B4.wav
51,192,83250,128,0,83422:0:0:0:40:F_F#4.wav
358,192,83422,128,8,83595:0:0:0:0:
460,192,83422,1,0,0:0:0:40:F_A4.wav
153,192,83595,128,0,83767:0:0:0:40:F_B4.wav
256,192,83767,128,8,83940:0:0:0:0:
358,192,83767,1,0,0:0:0:40:F_C#5.wav
51,192,83940,1,0,0:0:0:60:P_B6.wav
51,192,84112,128,2,84457:0:0:0:0:
358,192,84112,1,0,0:0:0:60:P_F#6.wav
256,192,84457,128,8,84629:0:0:0:0:
460,192,84457,1,0,0:0:0:40:F_B4.wav
153,192,84629,128,0,84802:0:0:0:60:P_A5.wav
358,192,84802,128,8,84974:0:0:0:0:
460,192,84802,1,0,0:0:0:60:P_C#6.wav
256,192,84974,128,0,85147:0:0:0:60:P_D6.wav
51,192,85147,1,2,0:0:0:0:
153,192,85147,1,0,0:0:0:60:P_C#6.wav
358,192,85319,1,8,0:0:0:0:
460,192,85319,128,0,85491:0:0:0:60:P_A5.wav
153,192,85491,1,2,0:0:0:0:
256,192,85491,128,0,85836:0:0:0:60:P_F#5.wav
51,192,85836,1,8,0:0:0:0:
358,192,85836,128,0,86009:0:0:0:40:F_B4.wav
153,192,86009,128,0,86181:0:0:0:40:F_F#4.wav
51,192,86181,128,8,86354:0:0:0:0:
460,192,86181,1,0,0:0:0:40:F_A4.wav
256,192,86354,128,0,86526:0:0:0:40:F_B4.wav
153,192,86526,128,8,86698:0:0:0:0:
460,192,86526,1,0,0:0:0:40:F_C#5.wav
358,192,86698,1,0,0:0:0:60:P_F#5.wav
51,192,86871,1,2,0:0:0:0:
358,192,86871,128,0,87216:0:0:0:60:P_F#6.wav
256,192,87216,128,8,87388:0:0:0:0:
460,192,87216,1,0,0:0:0:40:F_B4.wav
51,192,87388,1,0,0:0:0:40:F_F#4.wav
153,192,87560,128,8,87733:0:0:0:0:
358,192,87560,1,0,0:0:0:60:P_E6.wav
358,192,87733,128,0,87905:0:0:0:60:P_F#6.wav
51,192,87905,1,2,0:0:0:0:
256,192,87905,1,0,0:0:0:40:F_C#5.wav
153,192,88078,1,8,0:0:0:0:
460,192,88078,128,0,88250:0:0:0:60:P_B6.wav
153,192,88250,128,2,88595:0:0:0:0:
358,192,88250,1,0,0:0:0:60:P_F#6.wav
51,192,88595,1,8,0:0:0:0:
460,192,88595,128,0,88767:0:0:0:40:F_B4.wav
358,192,88767,128,0,88940:0:0:0:40:F_F#4.wav
153,192,88940,1,8,0:0:0:0:
256,192,88940,128,0,89112:0:0:0:40:F_A4.wav
460,192,89112,128,0,89285:0:0:0:40:F_B4.wav
51,192,89285,128,8,89629:0:0:0:0:
358,192,89285,1,0,0:0:0:40:F_C#5.wav
153,192,89629,1,2,0:0:0:0:
256,192,89629,128,0,89802:0:0:0:60:P_C#6.wav
460,192,89629,1,0,0:0:0:40:M_G3.wav
358,192,89802,128,4,89974:0:0:0:0:
153,192,89974,128,8,90147:0:0:0:0:
460,192,89974,1,0,0:0:0:60:P_E6.wav
51,192,90147,128,0,90319:0:0:0:60:P_A6.wav
256,192,90319,128,8,90491:0:0:0:0:
460,192,90319,1,0,0:0:0:60:P_C#7.wav
358,192,90491,128,0,90664:0:0:0:60:P_D7.wav
51,192,90664,1,2,0:0:0:0:
153,192,90664,128,0,90836:0:0:0:60:P_E7.wav
256,192,90836,1,8,0:0:0:0:
460,192,90836,128,0,91009:0:0:0:60:P_A7.wav
153,192,91009,1,2,0:0:0:0:
256,192,91009,1,0,0:0:0:40:M_B3.wav
51,192,91181,1,0,0:0:0:40:M_B4.wav
256,192,91354,1,0,0:0:0:40:M_F#4.wav
358,192,91526,1,0,0:0:0:40:M_A4.wav
460,192,91871,1,0,0:0:0:40:M_E4.wav
256,192,92043,1,0,0:0:0:40:M_F#4.wav
51,192,92216,1,0,0:0:0:40:M_A3.wav
153,192,92388,1,0,0:0:0:40:M_B3.wav
460,192,92560,1,0,0:0:0:40:M_B4.wav
51,192,92733,1,0,0:0:0:40:M_F#4.wav
358,192,92905,1,0,0:0:0:40:M_A4.wav
460,192,93250,1,0,0:0:0:40:M_D4.wav
153,192,93422,1,0,0:0:0:40:M_E4.wav
358,192,93595,1,0,0:0:0:40:M_F#4.wav
256,192,93767,1,0,0:0:0:40:M_B3.wav
460,192,93940,1,0,0:0:0:40:M_B4.wav
51,192,94112,1,0,0:0:0:40:M_F#4.wav
358,192,94285,1,0,0:0:0:40:M_A4.wav
460,192,94629,1,0,0:0:0:40:M_E4.wav
256,192,94802,1,0,0:0:0:40:M_F#4.wav
51,192,94974,1,0,0:0:0:40:M_A3.wav
153,192,95147,1,0,0:0:0:40:M_B3.wav
460,192,95319,1,0,0:0:0:40:M_B4.wav
51,192,95491,1,0,0:0:0:40:M_F#4.wav
358,192,95664,1,0,0:0:0:40:M_A4.wav
460,192,96009,1,0,0:0:0:40:M_D4.wav
153,192,96181,1,0,0:0:0:40:M_E4.wav
358,192,96354,1,0,0:0:0:40:M_F#4.wav
51,192,96526,1,2,0:0:0:0:
460,192,96526,1,0,0:0:0:40:M_C#5.wav
358,192,96698,1,0,0:0:0:40:M_B4.wav
51,192,96871,1,0,0:0:0:40:M_F#4.wav
358,192,97043,1,0,0:0:0:40:M_A4.wav
153,192,97388,1,0,0:0:0:40:M_E4.wav
51,192,97560,1,2,0:0:0:0:
256,192,97560,1,0,0:0:0:40:M_F#4.wav
460,192,97733,1,0,0:0:0:40:M_A3.wav
358,192,97905,1,0,0:0:0:40:M_B3.wav
460,192,98078,1,0,0:0:0:40:M_B4.wav
51,192,98250,1,0,0:0:0:40:M_F#4.wav
358,192,98422,1,0,0:0:0:40:M_A4.wav
460,192,98767,1,0,0:0:0:40:M_D4.wav
256,192,98940,1,0,0:0:0:40:M_E4.wav
153,192,99112,1,0,0:0:0:40:M_F#4.wav
51,192,99285,1,0,0:0:0:40:M_B3.wav
460,192,99457,1,0,0:0:0:40:M_B4.wav
51,192,99629,1,0,0:0:0:40:M_F#4.wav
358,192,99802,1,0,0:0:0:40:M_A4.wav
460,192,100147,1,0,0:0:0:40:M_E4.wav
153,192,100319,1,0,0:0:0:40:M_F#4.wav
358,192,100491,1,0,0:0:0:40:M_A3.wav
51,192,100664,1,0,0:0:0:40:M_B3.wav
460,192,100836,1,0,0:0:0:40:M_B4.wav
51,192,101009,1,0,0:0:0:40:M_F#4.wav
358,192,101181,1,0,0:0:0:40:M_A4.wav
460,192,101526,1,0,0:0:0:40:M_D4.wav
256,192,101698,128,0,102043:0:0:0:60:P_F#5.wav
153,192,102043,128,2,102216:0:0:0:0:
460,192,102043,1,0,0:0:0:60:P_F#6.wav
153,192,102560,1,2,0:0:0:0:
460,192,102560,128,0,102733:0:0:0:40:M_A4.wav
358,192,103078,128,0,103250:0:0:0:60:P_E6.wav
51,192,103250,128,0,103422:0:0:0:60:P_D6.wav
256,192,103422,128,2,103595:0:0:0:0:
460,192,103422,1,0,0:0:0:60:P_C#6.wav
153,192,103767,128,0,103940:0:0:0:60:P_D6.wav
256,192,103940,1,2,0:0:0:0:
460,192,103940,128,0,104112:0:0:0:40:M_A4.wav
51,192,104112,128,0,104285:0:0:0:60:P_E6.wav
153,192,104457,1,2,0:0:0:0:
460,192,104457,128,0,104629:0:0:0:60:P_A6.wav
153,192,104802,128,2,104974:0:0:0:0:
256,192,104802,1,0,0:0:0:60:P_D7.wav
153,192,105319,1,2,0:0:0:0:
256,192,105319,1,0,0:0:0:60:P_D7.wav
460,192,105491,128,0,105836:0:0:0:60:P_C#7.wav
153,192,105836,128,0,106009:0:0:0:40:M_F#4.wav
358,192,106009,128,0,106181:0:0:0:60:P_B6.wav
51,192,106181,1,2,0:0:0:0:
256,192,106181,128,0,106354:0:0:0:60:P_F#6.wav
51,192,106698,128,2,106871:0:0:0:0:
256,192,106698,1,0,0:0:0:40:M_A4.wav
358,192,107043,1,8,0:0:0:0:
460,192,107043,1,0,0:0:0:60:P_F#5.wav
358,192,107216,1,10,0:0:0:0:
460,192,107216,1,0,0:0:0:60:P_B5.wav
153,192,107388,1,0,0:0:0:60:P_F#6.wav
51,192,107560,128,2,107733:0:0:0:0:
153,192,107560,1,0,0:0:0:60:P_F#6.wav
51,192,108078,1,2,0:0:0:0:
153,192,108078,128,0,108250:0:0:0:40:M_A4.wav
460,192,108595,128,0,108767:0:0:0:60:P_E6.wav
358,192,108767,128,0,108940:0:0:0:60:P_D6.wav
153,192,108940,1,2,0:0:0:0:
256,192,108940,128,0,109112:0:0:0:60:P_C#6.wav
153,192,109457,1,2,0:0:0:0:
256,192,109457,128,0,109629:0:0:0:60:P_D6.wav
358,192,109629,128,0,109802:0:0:0:60:P_E6.wav
153,192,109802,128,0,109974:0:0:0:60:P_A6.wav
51,192,109974,1,2,0:0:0:0:
460,192,109974,128,0,110147:0:0:0:60:P_D6.wav
256,192,110147,128,0,110319:0:0:0:60:P_C#6.wav
51,192,110319,1,2,0:0:0:0:
460,192,110319,128,0,110491:0:0:0:60:P_B5.wav
51,192,110836,128,2,111009:0:0:0:0:
460,192,110836,1,0,0:0:0:60:P_E6.wav
153,192,111009,128,0,111181:0:0:0:60:P_F#6.wav
460,192,111181,128,0,111354:0:0:0:60:P_A6.wav
256,192,111354,128,0,111526:0:0:0:60:P_B6.wav
51,192,111526,128,0,111698:0:0:0:60:P_E7.wav
358,192,111698,128,2,111871:0:0:0:0:
460,192,111698,1,0,0:0:0:60:P_F#7.wav
153,192,111871,128,0,112043:0:0:0:60:P_E7.wav
256,192,112043,128,0,112216:0:0:0:60:P_F#7.wav
358,192,112216,1,2,0:0:0:0:
460,192,112216,128,0,112388:0:0:0:60:P_A7.wav
51,192,112388,128,0,112560:0:0:0:60:P_D8.wav
256,192,112560,128,0,112733:0:0:0:60:P_C#8.wav
153,192,112733,1,2,0:0:0:0:
460,192,112733,1,0,0:0:0:60:P_E7.wav
358,192,112905,128,0,113078:0:0:0:60:P_A6.wav
51,192,113078,1,2,0:0:0:0:
256,192,113078,128,0,113940:0:0:0:60:P_D6.wav
358,192,113595,1,2,0:0:0:0:
460,192,113595,1,0,0:0:0:40:M_A5.wav
153,192,113940,1,0,0:0:0:40:M_E5.wav
358,192,114112,128,0,114285:0:0:0:60:P_E6.wav
51,192,114285,128,0,114457:0:0:0:60:P_D6.wav
153,192,114457,128,2,114629:0:0:0:0:
358,192,114457,1,0,0:0:0:60:P_C#6.wav
256,192,114802,128,0,114974:0:0:0:60:P_D6.wav
153,192,114974,1,2,0:0:0:0:
358,192,114974,128,0,115147:0:0:0:40:M_A5.wav
51,192,115147,128,0,115491:0:0:0:60:P_C#7.wav
153,192,115491,1,2,0:0:0:0:
460,192,115491,128,0,115664:0:0:0:60:P_A6.wav
256,192,115664,128,0,115836:0:0:0:60:P_B6.wav
51,192,115836,1,2,0:0:0:0:
358,192,115836,128,0,116009:0:0:0:60:P_F#6.wav
51,192,116354,128,2,116526:0:0:0:0:
460,192,116354,1,0,0:0:0:40:M_A5.wav
153,192,116698,128,0,116871:0:0:0:60:P_E6.wav
358,192,116871,128,0,117043:0:0:0:60:P_F#6.wav
460,192,117043,128,0,117216:0:0:0:60:P_A6.wav
51,192,117216,128,2,117388:0:0:0:0:
256,192,117216,1,0,0:0:0:60:P_E6.wav
51,192,117733,1,2,0:0:0:0:
256,192,117733,128,0,117905:0:0:0:60:P_A5.wav
460,192,117905,128,0,118078:0:0:0:60:P_E6.wav
51,192,118078,1,8,0:0:0:0:
153,192,118078,1,0,0:0:0:60:P_F#6.wav
51,192,118250,1,10,0:0:0:0:
153,192,118250,1,0,0:0:0:60:P_D6.wav
358,192,118422,1,0,0:0:0:60:P_C#6.wav
51,192,118595,1,2,0:0:0:0:
358,192,118595,128,0,118767:0:0:0:60:P_B5.wav
51,192,119112,128,2,119285:0:0:0:0:
358,192,119112,1,0,0:0:0:40:M_A5.wav
460,192,119457,128,0,119629:0:0:0:60:P_F#5.wav
358,192,119629,128,0,119802:0:0:0:60:P_B5.wav
256,192,119802,128,0,119974:0:0:0:60:P_F#6.wav
153,192,119974,128,2,120147:0:0:0:0:
460,192,119974,1,0,0:0:0:60:P_C#6.wav
153,192,120491,1,2,0:0:0:0:
460,192,120491,128,0,120664:0:0:0:60:P_D6.wav
51,192,120664,128,0,120836:0:0:0:60:P_E6.wav
256,192,120836,128,0,121009:0:0:0:60:P_A6.wav
153,192,121009,1,2,0:0:0:0:
358,192,121009,1,0,0:0:0:60:P_D6.wav
460,192,121181,128,0,121354:0:0:0:60:P_C#6.wav
51,192,121354,1,2,0:0:0:0:
153,192,121354,128,0,121526:0:0:0:60:P_B5.wav
51,192,121871,128,2,122043:0:0:0:0:
153,192,121871,1,0,0:0:0:60:P_E6.wav
256,192,122043,128,0,122216:0:0:0:60:P_F#6.wav
460,192,122216,128,0,122388:0:0:0:60:P_C#7.wav
51,192,122388,128,0,122560:0:0:0:60:P_D7.wav
256,192,122560,128,0,122733:0:0:0:60:P_E7.wav
51,192,122733,128,2,123078:0:0:0:0:
460,192,122733,1,0,0:0:0:60:P_F#7.wav
51,192,124113,1,0,0:0:0:60:P_D4.wav
460,192,124113,1,0,0:0:0:0:
153,192,124295,1,0,0:0:0:60:P_A4.wav
358,192,124478,1,0,0:0:0:60:P_E5.wav
256,192,124661,1,0,0:0:0:60:P_F#5.wav
51,192,124844,1,0,0:0:0:60:P_C#6.wav
358,192,124844,1,0,0:0:0:0:
153,192,125027,1,0,0:0:0:60:P_D5.wav
256,192,125210,1,0,0:0:0:60:P_C#5.wav
460,192,125393,1,0,0:0:0:60:P_A5.wav
51,192,125576,1,0,0:0:0:60:P_D4.wav
153,192,125576,1,0,0:0:0:0:
460,192,125759,1,0,0:0:0:60:P_A4.wav
256,192,125942,1,0,0:0:0:60:P_E5.wav
51,192,126125,1,0,0:0:0:60:P_F#5.wav
153,192,126308,1,0,0:0:0:60:P_C#6.wav
256,192,126308,1,0,0:0:0:0:
460,192,126491,1,0,0:0:0:60:P_C#6.wav
358,192,126582,1,0,0:0:0:60:P_D6.wav
256,192,126673,1,0,0:0:0:60:P_F#5.wav
153,192,126856,1,0,0:0:0:60:P_E5.wav
256,192,127039,1,0,0:0:0:60:P_B3.wav
460,192,127039,1,0,0:0:0:0:
51,192,127222,1,0,0:0:0:60:P_F#4.wav
153,192,127405,1,0,0:0:0:60:P_C#5.wav
256,192,127588,1,0,0:0:0:60:P_D5.wav
358,192,127771,1,0,0:0:0:60:P_A5.wav
460,192,127771,1,0,0:0:0:0:
51,192,127954,1,0,0:0:0:60:P_A4.wav
256,192,128137,1,0,0:0:0:60:P_B4.wav
153,192,128320,1,0,0:0:0:60:P_F#5.wav
51,192,128503,1,0,0:0:0:60:P_B3.wav
460,192,128503,1,0,0:0:0:40:P_B6.wav
153,192,128686,1,0,0:0:0:60:P_F#4.wav
256,192,128869,1,0,0:0:0:60:P_A4.wav
460,192,129052,1,0,0:0:0:60:P_B4.wav
51,192,129234,1,0,0:0:0:60:P_E6.wav
358,192,129234,1,0,0:0:0:60:P_F#5.wav
256,192,129417,1,0,0:0:0:60:P_C#5.wav
153,192,129600,1,0,0:0:0:60:P_D5.wav
460,192,129783,1,0,0:0:0:60:P_E6.wav
51,192,129966,1,0,0:0:0:60:P_G3.wav
256,192,129966,1,0,0:0:0:60:P_F#6.wav
460,192,130149,1,0,0:0:0:60:P_D4.wav
51,192,130332,1,0,0:0:0:60:P_A4.wav
153,192,130515,1,0,0:0:0:60:P_B4.wav
256,192,130698,1,0,0:0:0:60:P_F#5.wav
358,192,130698,1,0,0:0:0:0:
460,192,130881,1,0,0:0:0:60:P_D5.wav
153,192,131064,1,0,0:0:0:60:P_C#5.wav
51,192,131247,1,0,0:0:0:60:P_A4.wav
256,192,131430,1,0,0:0:0:60:P_G3.wav
358,192,131430,1,0,0:0:0:0:
51,192,131613,1,0,0:0:0:60:P_D4.wav
256,192,131795,1,0,0:0:0:60:P_A4.wav
358,192,131978,1,0,0:0:0:60:P_B4.wav
51,192,132161,1,0,0:0:0:60:P_C#7.wav
460,192,132161,1,0,0:0:0:60:P_F#5.wav
153,192,132344,1,0,0:0:0:60:P_D7.wav
51,192,132527,1,0,0:0:0:60:P_C#7.wav
358,192,132710,1,0,0:0:0:60:P_A6.wav
51,192,132893,1,0,0:0:0:60:P_G3.wav
153,192,132893,1,0,0:0:0:60:P_F#6.wav
358,192,133076,1,0,0:0:0:60:P_D4.wav
256,192,133259,1,0,0:0:0:60:P_A4.wav
460,192,133442,1,0,0:0:0:60:P_B4.wav
153,192,133625,1,0,0:0:0:60:P_F#5.wav
256,192,133625,1,0,0:0:0:0:
51,192,133808,1,0,0:0:0:60:P_D5.wav
460,192,133991,1,0,0:0:0:60:P_C#5.wav
256,192,134173,1,0,0:0:0:60:P_A4.wav
51,192,134356,1,0,0:0:0:60:P_A4.wav
460,192,134356,1,0,0:0:0:60:P_C#5.wav
358,192,134539,1,0,0:0:0:60:P_D5.wav
51,192,134722,1,0,0:0:0:60:P_E5.wav
153,192,134905,1,0,0:0:0:60:P_A6.wav
256,192,135088,1,0,0:0:0:60:P_C#7.wav
460,192,135088,1,0,0:0:0:60:P_E5.wav
358,192,135271,1,0,0:0:0:60:P_D7.wav
51,192,135454,1,0,0:0:0:60:P_E7.wav
460,192,135637,1,0,0:0:0:60:P_A7.wav
51,192,135820,1,0,0:0:0:60:P_D4.wav
153,192,135820,1,0,0:0:0:60:P_F#7.wav
460,192,136003,1,0,0:0:0:60:P_A4.wav
256,192,136186,1,0,0:0:0:60:P_E5.wav
153,192,136369,1,0,0:0:0:60:P_F#5.wav
256,192,136552,1,0,0:0:0:60:P_C#6.wav
358,192,136552,1,0,0:0:0:0:
460,192,136734,1,0,0:0:0:60:P_D5.wav
51,192,136917,1,0,0:0:0:60:P_C#5.wav
460,192,137100,1,0,0:0:0:60:P_E7.wav
256,192,137283,1,0,0:0:0:60:P_D4.wav
460,192,137283,1,0,0:0:0:60:P_F#7.wav
153,192,137466,1,0,0:0:0:60:P_A4.wav
358,192,137649,1,0,0:0:0:60:P_E5.wav
51,192,137832,1,0,0:0:0:60:P_C#7.wav
51,192,138015,1,0,0:0:0:60:P_B6.wav
256,192,138015,1,0,0:0:0:60:P_C#6.wav
153,192,138198,1,0,0:0:0:60:P_C#6.wav
256,192,138289,1,0,0:0:0:60:P_D6.wav
358,192,138381,1,0,0:0:0:60:P_F#5.wav
153,192,138564,1,0,0:0:0:60:P_E7.wav
51,192,138747,1,0,0:0:0:60:P_B3.wav
153,192,138747,1,0,0:0:0:60:P_F#7.wav
460,192,138930,1,0,0:0:0:60:P_F#4.wav
358,192,139112,1,0,0:0:0:60:P_C#5.wav
153,192,139295,1,0,0:0:0:60:P_D5.wav
51,192,139478,1,0,0:0:0:60:P_A5.wav
460,192,139478,1,0,0:0:0:0:
256,192,139661,1,0,0:0:0:60:P_A4.wav
153,192,139844,1,0,0:0:0:60:P_B4.wav
358,192,140027,1,0,0:0:0:60:P_B7.wav
51,192,140210,1,0,0:0:0:60:P_B3.wav
358,192,140210,1,0,0:0:0:60:P_F#7.wav
153,192,140393,1,0,0:0:0:60:P_F#4.wav
256,192,140576,1,0,0:0:0:60:P_A4.wav
51,192,140759,1,0,0:0:0:60:P_A6.wav
358,192,140942,1,0,0:0:0:60:P_C#7.wav
460,192,140942,1,0,0:0:0:60:P_C#5.wav
153,192,141125,1,0,0:0:0:60:P_C#7.wav
256,192,141216,1,0,0:0:0:60:P_D7.wav
460,192,141308,1,0,0:0:0:60:P_C#7.wav
153,192,141491,1,0,0:0:0:60:P_A6.wav
51,192,141673,1,0,0:0:0:60:P_G3.wav
358,192,141673,1,0,0:0:0:60:P_F#6.wav
256,192,141856,1,0,0:0:0:60:P_D4.wav
153,192,142039,1,0,0:0:0:60:P_A4.wav
460,192,142222,1,0,0:0:0:60:P_B4.wav
256,192,142405,1,0,0:0:0:60:P_F#5.wav
358,192,142405,1,0,0:0:0:0:
51,192,142588,1,0,0:0:0:60:P_D5.wav
153,192,142771,1,0,0:0:0:60:P_C#5.wav
256,192,142954,1,0,0:0:0:60:P_A4.wav
153,192,143137,1,0,0:0:0:60:P_G3.wav
460,192,143137,1,0,0:0:0:0:
358,192,143320,1,0,0:0:0:60:P_D4.wav
256,192,143503,1,0,0:0:0:60:P_A4.wav
460,192,143686,1,0,0:0:0:60:P_B4.wav
51,192,143885,1,0,0:0:0:60:P_E6.wav
153,192,143885,1,0,0:0:0:60:P_F#5.wav
358,192,144072,1,0,0:0:0:60:P_F#6.wav
51,192,144260,1,0,0:0:0:60:P_C#5.wav
460,192,144447,1,0,0:0:0:60:P_B6.wav
153,192,144635,1,0,0:0:0:60:P_G3.wav
358,192,144635,1,0,0:0:0:60:P_F#6.wav
51,192,144833,1,0,0:0:0:60:P_D4.wav
256,192,145032,1,0,0:0:0:60:P_A4.wav
358,192,145240,1,0,0:0:0:60:P_B4.wav
153,192,145448,1,0,0:0:0:60:P_F#5.wav
460,192,145448,1,0,0:0:0:0:
256,192,145657,1,0,0:0:0:60:P_D5.wav
51,192,145866,1,0,0:0:0:60:P_C#5.wav
460,192,146075,1,0,0:0:0:60:P_A4.wav
153,192,146285,1,0,0:0:0:60:P_A4.wav
358,192,146285,1,0,0:0:0:60:P_C#5.wav
51,192,146507,1,0,0:0:0:60:P_D5.wav
256,192,146729,1,0,0:0:0:60:P_E5.wav
153,192,146961,1,0,0:0:0:60:P_A5.wav
358,192,147194,1,0,0:0:0:60:P_C#7.wav
460,192,147194,1,0,0:0:0:60:P_E5.wav
51,192,147435,1,0,0:0:0:60:P_D7.wav
256,192,147677,1,0,0:0:0:60:P_E7.wav
358,192,148000,1,0,0:0:0:60:P_A7.wav
460,192,148000,1,0,0:0:0:60:P_C#5.wav
