osu file format v14

[General]
AudioFilename: audio.mp3
AudioLeadIn: 0
PreviewTime: 89010
Countdown: 0
SampleSet: Soft
StackLeniency: 0.7
Mode: 3
LetterboxInBreaks: 0
SpecialStyle: 0
WidescreenStoryboard: 1

[Editor]
Bookmarks: 11053,21488,52792,63227,84096,89350,112828,121139,142008
DistanceSpacing: 1.5
BeatDivisor: 16
GridSize: 4
TimelineZoom: 3.599999

[Metadata]
Title:Snowy
TitleUnicode:Snowy
Artist:Aethoro
ArtistUnicode:Aethoro
Creator:xBomb72
Version:Hard
Source:
Tags:FA Featured Artist MG MPG Mappers' Guild instrumental folk orchestral epic ambient chill holiday ln long note
BeatmapID:4452868
BeatmapSetID:2119716

[Difficulty]
HPDrainRate:7.5
CircleSize:10
OverallDifficulty:7
ApproachRate:5
SliderMultiplier:1.4
SliderTickRate:1

[Events]
//Background and Video events
0,0,"stijn-verplancke-tsStT0oQhY8-unsplash.jpg",0,0
//Break Periods
//Storyboard Layer 0 (Background)
//Storyboard Layer 1 (Fail)
//Storyboard Layer 2 (Pass)
//Storyboard Layer 3 (Foreground)
//Storyboard Layer 4 (Overlay)
//Storyboard Sound Samples

[TimingPoints]
313,326.086956521739,4,2,1,25,1,0
2921,329.670329670329,4,2,1,25,1,0
2921,-98.91304348,4,2,1,25,0,0
3580,333.333333333333,4,2,1,25,1,8
3580,-97.82608696,4,2,1,25,0,0
4246,342.857142857143,4,2,1,25,1,0
4246,-95.10869565,4,2,1,25,0,0
4931,387.096774193547,4,2,1,25,1,8
4931,-84.23913043,4,2,1,25,0,0
5705,387.096774193547,4,2,1,25,1,0
5705,-84.23913043,4,2,1,25,0,0
5836,326.086956521739,4,2,1,25,1,8
88676,337.078651685393,4,2,1,25,1,8
88676,-96.73913043,4,2,1,25,0,0
89350,326.086956521739,4,2,1,25,1,0
114784,327.868852459016,4,2,1,25,1,8
114784,-99.45652174,4,2,1,25,0,0
115439,357.142857142856,4,2,1,25,1,0
115439,-91.30434783,4,2,1,25,0,0
116153,320.855614973262,4,2,1,25,1,8
116153,-101.6304348,4,2,1,25,0,0
116794,333.333333333333,4,2,1,25,1,0
116794,-98.0392156862745,4,2,1,25,0,0
117460,308.08729139923,4,2,1,25,1,8
117460,-105.8423913,4,2,1,25,0,0
117768,371.517027863776,4,2,1,25,1,8
117768,-87.77173913,4,2,1,25,0,0
118139,599.221012683512,4,2,1,25,1,0
118139,-54.3478260869565,4,2,1,25,0,0
118738,735.294117647059,4,2,1,25,1,0
118738,-44.34782609,4,2,1,25,0,0
119473,736.196319018405,4,2,1,25,1,0
119473,-44.29347826,4,2,1,25,0,0
120209,875.912408759124,4,2,1,25,1,0
120209,-37.22826087,4,2,1,25,0,0
121084,326.086956521739,4,2,1,25,1,0
121139,326.086956521739,4,2,1,25,1,8

[HitObjects]
230,192,313,5,0,0:0:0:0:
486,192,313,1,0,0:0:0:0:
332,192,639,1,0,0:0:0:0:
435,192,802,1,0,0:0:0:0:
128,192,965,1,0,0:0:0:0:
76,192,1291,1,0,0:0:0:0:
230,192,1454,1,0,0:0:0:0:
384,192,1617,1,0,0:0:0:0:
230,192,1943,1,0,0:0:0:0:
384,192,2106,1,0,0:0:0:0:
25,192,2269,1,0,0:0:0:0:
76,192,2351,1,0,0:0:0:0:
128,192,2432,1,0,0:0:0:0:
179,192,2514,1,0,0:0:0:0:
281,192,2595,1,0,0:0:0:0:
332,192,2677,1,0,0:0:0:0:
384,192,2758,1,0,0:0:0:0:
435,192,2840,1,0,0:0:0:0:
486,192,2921,128,0,3580:0:0:0:0:
179,192,2921,1,0,0:0:0:0:
128,192,3250,1,0,0:0:0:0:
179,192,3415,1,0,0:0:0:0:
435,192,3580,128,0,4246:0:0:0:0:
25,192,3580,1,0,0:0:0:0:
76,192,3913,1,0,0:0:0:0:
128,192,4079,1,0,0:0:0:0:
384,192,4246,128,0,5705:0:0:0:0:
179,192,4246,1,0,0:0:0:0:
230,192,4588,1,0,0:0:0:0:
179,192,4760,1,0,0:0:0:0:
128,192,4931,1,0,0:0:0:0:
281,192,5027,1,0,0:0:0:0:
76,192,5124,1,0,0:0:0:0:
25,192,5318,1,0,0:0:0:0:
332,192,5705,128,0,8444:0:0:0:0:
76,192,5705,1,0,0:0:0:0:
179,192,5705,1,0,0:0:0:0:
128,192,8444,1,0,0:0:0:0:
128,192,8770,1,0,0:0:0:0:
128,192,9096,1,0,0:0:0:0:
128,192,9422,1,0,0:0:0:0:
384,192,9749,1,0,0:0:0:0:
384,192,10075,1,0,0:0:0:0:
384,192,10401,1,0,0:0:0:0:
384,192,10727,1,0,0:0:0:0:
128,192,11053,1,0,0:0:0:0:
332,192,11053,1,0,0:0:0:0:
435,192,11053,1,0,0:0:0:0:
179,192,11379,128,0,11705:0:0:0:0:
384,192,11379,1,0,0:0:0:0:
76,192,11705,128,0,12031:0:0:0:0:
435,192,11705,1,0,0:0:0:0:
384,192,12031,1,0,0:0:0:0:
281,192,12357,1,0,0:0:0:0:
230,192,12683,128,0,13009:0:0:0:0:
384,192,12683,1,0,0:0:0:0:
25,192,13009,128,0,13335:0:0:0:0:
486,192,13009,1,0,0:0:0:0:
384,192,13335,1,0,0:0:0:0:
435,192,13335,1,0,0:0:0:0:
128,192,13662,1,0,0:0:0:0:
76,192,13662,1,0,0:0:0:0:
179,192,13988,128,0,14314:0:0:0:0:
384,192,13988,1,0,0:0:0:0:
76,192,14314,128,0,14640:0:0:0:0:
435,192,14314,1,0,0:0:0:0:
384,192,14640,1,0,0:0:0:0:
281,192,14966,1,0,0:0:0:0:
230,192,15292,128,0,15618:0:0:0:0:
384,192,15292,1,0,0:0:0:0:
25,192,15618,128,0,16107:0:0:0:0:
486,192,15618,1,0,0:0:0:0:
384,192,15944,1,0,0:0:0:0:
179,192,15944,128,0,16107:0:0:0:0:
281,192,16270,1,0,0:0:0:0:
76,192,16270,1,0,0:0:0:0:
179,192,16270,1,0,0:0:0:0:
435,192,16596,128,0,16922:0:0:0:0:
128,192,16596,1,0,0:0:0:0:
332,192,16922,128,0,17249:0:0:0:0:
179,192,16922,1,0,0:0:0:0:
128,192,17249,1,0,0:0:0:0:
25,192,17575,1,0,0:0:0:0:
486,192,17901,128,0,18227:0:0:0:0:
128,192,17901,1,0,0:0:0:0:
281,192,18227,128,0,18553:0:0:0:0:
230,192,18227,1,0,0:0:0:0:
179,192,18553,1,0,0:0:0:0:
25,192,18553,1,0,0:0:0:0:
332,192,18879,1,0,0:0:0:0:
486,192,18879,1,0,0:0:0:0:
435,192,19205,128,0,19531:0:0:0:0:
128,192,19205,1,0,0:0:0:0:
332,192,19531,128,0,19857:0:0:0:0:
179,192,19531,1,0,0:0:0:0:
128,192,19857,1,0,0:0:0:0:
25,192,20183,1,0,0:0:0:0:
486,192,20509,128,0,20835:0:0:0:0:
128,192,20509,1,0,0:0:0:0:
281,192,20835,128,0,21325:0:0:0:0:
230,192,20835,1,0,0:0:0:0:
128,192,21162,1,0,0:0:0:0:
435,192,21162,128,0,21325:0:0:0:0:
179,192,21488,128,0,21814:0:0:0:0:
332,192,21488,1,0,0:0:0:0:
486,192,21488,1,0,0:0:0:0:
76,192,21814,128,0,21977:0:0:0:0:
435,192,21814,1,0,0:0:0:0:
179,192,21977,128,0,22140:0:0:0:0:
25,192,22140,128,0,22792:0:0:0:0:
332,192,22140,1,0,0:0:0:0:
281,192,22466,1,0,0:0:0:0:
384,192,22792,1,0,0:0:0:0:
486,192,23118,128,0,23281:0:0:0:0:
230,192,23118,1,0,0:0:0:0:
179,192,23281,128,0,23444:0:0:0:0:
384,192,23444,128,0,23607:0:0:0:0:
76,192,23444,1,0,0:0:0:0:
332,192,23444,128,0,23933:0:0:0:0:
25,192,23770,1,0,0:0:0:0:
435,192,23770,128,0,23933:0:0:0:0:
486,192,23770,128,0,23933:0:0:0:0:
128,192,24096,128,0,24422:0:0:0:0:
281,192,24096,1,0,0:0:0:0:
230,192,24422,1,0,0:0:0:0:
435,192,24422,1,0,0:0:0:0:
179,192,24504,1,0,0:0:0:0:
128,192,24585,1,0,0:0:0:0:
25,192,24749,128,0,25075:0:0:0:0:
332,192,24749,1,0,0:0:0:0:
179,192,25075,1,0,0:0:0:0:
281,192,25075,1,0,0:0:0:0:
128,192,25238,1,0,0:0:0:0:
76,192,25401,128,0,26053:0:0:0:0:
384,192,25401,1,0,0:0:0:0:
179,192,25727,128,0,26053:0:0:0:0:
486,192,25727,1,0,0:0:0:0:
435,192,26053,1,0,0:0:0:0:
384,192,26379,128,0,26705:0:0:0:0:
128,192,26379,1,0,0:0:0:0:
435,192,26705,128,0,27031:0:0:0:0:
179,192,26705,1,0,0:0:0:0:
25,192,26705,1,0,0:0:0:0:
332,192,27031,128,0,27194:0:0:0:0:
230,192,27031,1,0,0:0:0:0:
435,192,27194,128,0,27357:0:0:0:0:
281,192,27357,128,0,28009:0:0:0:0:
76,192,27357,1,0,0:0:0:0:
128,192,27683,1,0,0:0:0:0:
179,192,28009,1,0,0:0:0:0:
25,192,28335,128,0,28825:0:0:0:0:
281,192,28335,1,0,0:0:0:0:
76,192,28499,128,0,28825:0:0:0:0:
128,192,28662,128,0,28825:0:0:0:0:
435,192,28662,1,0,0:0:0:0:
230,192,28988,128,0,29477:0:0:0:0:
384,192,28988,1,0,0:0:0:0:
179,192,29151,128,0,29477:0:0:0:0:
128,192,29314,128,0,29477:0:0:0:0:
332,192,29314,1,0,0:0:0:0:
486,192,29640,128,0,30129:0:0:0:0:
230,192,29640,1,0,0:0:0:0:
435,192,29803,128,0,30129:0:0:0:0:
384,192,29966,128,0,30129:0:0:0:0:
76,192,29966,1,0,0:0:0:0:
281,192,30292,128,0,30781:0:0:0:0:
128,192,30292,1,0,0:0:0:0:
332,192,30455,128,0,30781:0:0:0:0:
384,192,30618,128,0,30781:0:0:0:0:
179,192,30618,1,0,0:0:0:0:
486,192,30944,128,0,31433:0:0:0:0:
25,192,30944,1,0,0:0:0:0:
332,192,31107,128,0,31433:0:0:0:0:
230,192,31270,128,0,31433:0:0:0:0:
76,192,31270,128,0,31433:0:0:0:0:
25,192,31596,128,0,31759:0:0:0:0:
179,192,31596,128,0,31759:0:0:0:0:
76,192,31922,128,0,32249:0:0:0:0:
332,192,31922,1,0,0:0:0:0:
486,192,31922,1,0,0:0:0:0:
179,192,32249,128,0,32412:0:0:0:0:
435,192,32249,1,0,0:0:0:0:
76,192,32412,128,0,32575:0:0:0:0:
230,192,32575,128,0,33227:0:0:0:0:
332,192,32575,1,0,0:0:0:0:
281,192,32901,1,0,0:0:0:0:
384,192,33227,1,0,0:0:0:0:
435,192,33553,128,0,33716:0:0:0:0:
230,192,33553,1,0,0:0:0:0:
76,192,33716,128,0,33879:0:0:0:0:
332,192,33879,128,0,34042:0:0:0:0:
179,192,33879,1,0,0:0:0:0:
281,192,33879,128,0,34368:0:0:0:0:
384,192,34205,128,0,34368:0:0:0:0:
25,192,34205,1,0,0:0:0:0:
435,192,34205,128,0,34368:0:0:0:0:
128,192,34531,128,0,34857:0:0:0:0:
281,192,34531,1,0,0:0:0:0:
25,192,34857,1,0,0:0:0:0:
435,192,34857,1,0,0:0:0:0:
76,192,34939,1,0,0:0:0:0:
128,192,35020,1,0,0:0:0:0:
230,192,35183,128,0,35509:0:0:0:0:
332,192,35183,1,0,0:0:0:0:
76,192,35509,1,0,0:0:0:0:
281,192,35509,1,0,0:0:0:0:
128,192,35672,1,0,0:0:0:0:
179,192,35835,128,0,36488:0:0:0:0:
384,192,35835,1,0,0:0:0:0:
76,192,36162,128,0,36488:0:0:0:0:
486,192,36162,1,0,0:0:0:0:
384,192,36488,1,0,0:0:0:0:
384,192,36814,128,0,37140:0:0:0:0:
76,192,36814,1,0,0:0:0:0:
332,192,37140,128,0,37466:0:0:0:0:
25,192,37140,1,0,0:0:0:0:
179,192,37140,1,0,0:0:0:0:
435,192,37466,128,0,37629:0:0:0:0:
230,192,37466,1,0,0:0:0:0:
332,192,37629,128,0,37792:0:0:0:0:
486,192,37792,128,0,38444:0:0:0:0:
76,192,37792,1,0,0:0:0:0:
128,192,38118,1,0,0:0:0:0:
179,192,38444,1,0,0:0:0:0:
281,192,38770,128,0,39259:0:0:0:0:
25,192,38770,1,0,0:0:0:0:
332,192,38933,128,0,39259:0:0:0:0:
384,192,39096,128,0,39259:0:0:0:0:
179,192,39096,1,0,0:0:0:0:
486,192,39422,128,0,39912:0:0:0:0:
128,192,39422,1,0,0:0:0:0:
435,192,39585,128,0,39912:0:0:0:0:
384,192,39749,128,0,39912:0:0:0:0:
76,192,39749,1,0,0:0:0:0:
230,192,40075,128,0,40564:0:0:0:0:
486,192,40075,1,0,0:0:0:0:
179,192,40238,128,0,40564:0:0:0:0:
128,192,40401,128,0,40564:0:0:0:0:
332,192,40401,1,0,0:0:0:0:
25,192,40727,128,0,41216:0:0:0:0:
384,192,40727,1,0,0:0:0:0:
76,192,40890,128,0,41216:0:0:0:0:
128,192,41053,128,0,41216:0:0:0:0:
435,192,41053,1,0,0:0:0:0:
486,192,41379,128,0,41868:0:0:0:0:
230,192,41379,1,0,0:0:0:0:
332,192,41542,128,0,41868:0:0:0:0:
179,192,41705,128,0,41868:0:0:0:0:
25,192,41705,128,0,41868:0:0:0:0:
128,192,42031,128,0,42194:0:0:0:0:
384,192,42031,128,0,42194:0:0:0:0:
281,192,42357,128,0,42683:0:0:0:0:
25,192,42357,1,0,0:0:0:0:
179,192,42357,1,0,0:0:0:0:
332,192,42683,128,0,42846:0:0:0:0:
76,192,42683,1,0,0:0:0:0:
384,192,42846,128,0,43009:0:0:0:0:
179,192,42846,1,0,0:0:0:0:
435,192,43009,128,0,43662:0:0:0:0:
76,192,43009,1,0,0:0:0:0:
179,192,43335,1,0,0:0:0:0:
76,192,43499,1,0,0:0:0:0:
179,192,43662,1,0,0:0:0:0:
384,192,43988,128,0,44151:0:0:0:0:
230,192,43988,1,0,0:0:0:0:
332,192,44151,128,0,44314:0:0:0:0:
281,192,44314,128,0,44803:0:0:0:0:
128,192,44314,1,0,0:0:0:0:
486,192,44640,128,0,44803:0:0:0:0:
179,192,44640,1,0,0:0:0:0:
384,192,44966,128,0,45618:0:0:0:0:
76,192,44966,1,0,0:0:0:0:
25,192,45292,1,0,0:0:0:0:
230,192,45455,1,0,0:0:0:0:
25,192,45618,1,0,0:0:0:0:
179,192,45944,1,0,0:0:0:0:
486,192,45944,1,0,0:0:0:0:
25,192,46107,128,0,46596:0:0:0:0:
179,192,46270,128,0,46596:0:0:0:0:
281,192,46270,1,0,0:0:0:0:
332,192,46596,1,0,0:0:0:0:
230,192,46596,1,0,0:0:0:0:
486,192,46759,128,0,47085:0:0:0:0:
25,192,46759,1,0,0:0:0:0:
332,192,46922,128,0,47085:0:0:0:0:
179,192,46922,1,0,0:0:0:0:
128,192,47004,1,0,0:0:0:0:
76,192,47085,1,0,0:0:0:0:
128,192,47249,128,0,47412:0:0:0:0:
384,192,47249,1,0,0:0:0:0:
25,192,47575,128,0,47901:0:0:0:0:
332,192,47575,1,0,0:0:0:0:
486,192,47575,1,0,0:0:0:0:
76,192,47901,128,0,48064:0:0:0:0:
435,192,47901,1,0,0:0:0:0:
128,192,48064,128,0,48227:0:0:0:0:
332,192,48064,1,0,0:0:0:0:
179,192,48227,128,0,48553:0:0:0:0:
435,192,48227,1,0,0:0:0:0:
128,192,48553,128,0,48716:0:0:0:0:
332,192,48553,1,0,0:0:0:0:
76,192,48716,128,0,48879:0:0:0:0:
435,192,48716,1,0,0:0:0:0:
25,192,48879,128,0,49042:0:0:0:0:
332,192,48879,1,0,0:0:0:0:
230,192,49205,128,0,50183:0:0:0:0:
486,192,49205,1,0,0:0:0:0:
76,192,49531,128,0,50183:0:0:0:0:
384,192,49531,1,0,0:0:0:0:
435,192,49857,1,0,0:0:0:0:
332,192,50183,1,0,0:0:0:0:
435,192,50509,1,0,0:0:0:0:
76,192,50509,1,0,0:0:0:0:
281,192,50672,128,0,50999:0:0:0:0:
128,192,50672,1,0,0:0:0:0:
435,192,50835,128,0,50999:0:0:0:0:
179,192,50835,1,0,0:0:0:0:
76,192,50999,1,0,0:0:0:0:
332,192,50999,1,0,0:0:0:0:
230,192,51162,128,0,51488:0:0:0:0:
384,192,51162,1,0,0:0:0:0:
76,192,51325,128,0,51488:0:0:0:0:
435,192,51325,1,0,0:0:0:0:
384,192,51488,128,0,51651:0:0:0:0:
179,192,51488,1,0,0:0:0:0:
332,192,51814,128,0,51977:0:0:0:0:
230,192,51814,1,0,0:0:0:0:
435,192,51977,128,0,52140:0:0:0:0:
25,192,51977,1,0,0:0:0:0:
332,192,52140,128,0,52629:0:0:0:0:
179,192,52140,1,0,0:0:0:0:
128,192,52221,1,0,0:0:0:0:
76,192,52303,1,0,0:0:0:0:
486,192,52466,128,0,52629:0:0:0:0:
128,192,52466,1,0,0:0:0:0:
128,192,52792,1,0,0:0:0:0:
486,192,52792,1,0,0:0:0:0:
435,192,53118,1,0,0:0:0:0:
384,192,53281,1,0,0:0:0:0:
332,192,53444,1,0,0:0:0:0:
76,192,53770,1,0,0:0:0:0:
128,192,53933,1,0,0:0:0:0:
179,192,54096,1,0,0:0:0:0:
435,192,54096,1,0,0:0:0:0:
384,192,54422,1,0,0:0:0:0:
332,192,54585,1,0,0:0:0:0:
281,192,54749,1,0,0:0:0:0:
128,192,55401,1,0,0:0:0:0:
384,192,55401,1,0,0:0:0:0:
179,192,55727,1,0,0:0:0:0:
128,192,55890,1,0,0:0:0:0:
76,192,56053,1,0,0:0:0:0:
332,192,56379,1,0,0:0:0:0:
384,192,56542,1,0,0:0:0:0:
435,192,56705,1,0,0:0:0:0:
179,192,56705,1,0,0:0:0:0:
128,192,57031,1,0,0:0:0:0:
76,192,57194,1,0,0:0:0:0:
25,192,57357,1,0,0:0:0:0:
332,192,57683,1,0,0:0:0:0:
25,192,58009,1,0,0:0:0:0:
230,192,58009,1,0,0:0:0:0:
384,192,58335,1,0,0:0:0:0:
128,192,58662,1,0,0:0:0:0:
486,192,58988,1,0,0:0:0:0:
179,192,59314,1,0,0:0:0:0:
76,192,59314,1,0,0:0:0:0:
435,192,59640,1,0,0:0:0:0:
384,192,59857,1,0,0:0:0:0:
332,192,59966,1,0,0:0:0:0:
281,192,60292,1,0,0:0:0:0:
332,192,60618,1,0,0:0:0:0:
76,192,60618,1,0,0:0:0:0:
332,192,60944,1,0,0:0:0:0:
384,192,61107,1,0,0:0:0:0:
435,192,61270,1,0,0:0:0:0:
179,192,61270,1,0,0:0:0:0:
486,192,61596,1,0,0:0:0:0:
384,192,61922,1,0,0:0:0:0:
128,192,61922,1,0,0:0:0:0:
332,192,62575,1,0,0:0:0:0:
384,192,62656,1,0,0:0:0:0:
435,192,62738,1,0,0:0:0:0:
486,192,62819,1,0,0:0:0:0:
179,192,62901,1,0,0:0:0:0:
128,192,62982,1,0,0:0:0:0:
76,192,63064,1,0,0:0:0:0:
25,192,63145,1,0,0:0:0:0:
179,192,63227,128,0,63879:0:0:0:0:
230,192,63227,128,0,63879:0:0:0:0:
384,192,63227,1,0,0:0:0:0:
332,192,63553,1,0,0:0:0:0:
435,192,63716,1,0,0:0:0:0:
25,192,63879,128,0,64368:0:0:0:0:
76,192,63879,128,0,64368:0:0:0:0:
332,192,63879,1,0,0:0:0:0:
281,192,64205,1,0,0:0:0:0:
179,192,64368,128,0,65346:0:0:0:0:
384,192,64368,1,0,0:0:0:0:
76,192,64531,128,0,65346:0:0:0:0:
281,192,64531,1,0,0:0:0:0:
486,192,64857,1,0,0:0:0:0:
384,192,65183,1,0,0:0:0:0:
281,192,65509,1,0,0:0:0:0:
384,192,65672,1,0,0:0:0:0:
128,192,65835,1,0,0:0:0:0:
486,192,65835,128,0,65999:0:0:0:0:
76,192,66162,1,0,0:0:0:0:
486,192,66162,1,0,0:0:0:0:
128,192,66325,1,0,0:0:0:0:
384,192,66325,1,0,0:0:0:0:
179,192,66488,1,0,0:0:0:0:
281,192,66488,128,0,66651:0:0:0:0:
25,192,66814,1,0,0:0:0:0:
332,192,66814,1,0,0:0:0:0:
384,192,66977,1,0,0:0:0:0:
230,192,67140,1,0,0:0:0:0:
435,192,67140,128,0,67303:0:0:0:0:
25,192,67466,1,0,0:0:0:0:
435,192,67466,1,0,0:0:0:0:
230,192,67629,1,0,0:0:0:0:
384,192,67629,1,0,0:0:0:0:
76,192,67792,1,0,0:0:0:0:
332,192,67792,128,0,68118:0:0:0:0:
128,192,67874,1,0,0:0:0:0:
179,192,67955,1,0,0:0:0:0:
128,192,68118,128,0,68444:0:0:0:0:
435,192,68118,1,0,0:0:0:0:
435,192,68444,128,0,69096:0:0:0:0:
486,192,68444,128,0,69096:0:0:0:0:
230,192,68444,1,0,0:0:0:0:
76,192,68770,1,0,0:0:0:0:
179,192,68933,1,0,0:0:0:0:
281,192,69096,128,0,69585:0:0:0:0:
332,192,69096,128,0,69585:0:0:0:0:
76,192,69096,1,0,0:0:0:0:
25,192,69422,1,0,0:0:0:0:
435,192,69585,128,0,70564:0:0:0:0:
128,192,69585,1,0,0:0:0:0:
332,192,69749,128,0,70564:0:0:0:0:
25,192,69749,1,0,0:0:0:0:
230,192,70075,1,0,0:0:0:0:
128,192,70401,1,0,0:0:0:0:
25,192,70727,1,0,0:0:0:0:
128,192,70890,1,0,0:0:0:0:
384,192,71053,1,0,0:0:0:0:
230,192,71053,128,0,71216:0:0:0:0:
332,192,71379,1,0,0:0:0:0:
230,192,71379,1,0,0:0:0:0:
384,192,71542,1,0,0:0:0:0:
128,192,71542,1,0,0:0:0:0:
435,192,71705,1,0,0:0:0:0:
25,192,71705,128,0,71868:0:0:0:0:
281,192,72031,1,0,0:0:0:0:
76,192,72031,1,0,0:0:0:0:
128,192,72194,1,0,0:0:0:0:
384,192,72194,1,0,0:0:0:0:
486,192,72357,1,0,0:0:0:0:
179,192,72357,128,0,72683:0:0:0:0:
281,192,72683,1,0,0:0:0:0:
486,192,72846,1,0,0:0:0:0:
179,192,72846,1,0,0:0:0:0:
332,192,73009,1,0,0:0:0:0:
76,192,73009,128,0,73335:0:0:0:0:
384,192,73091,1,0,0:0:0:0:
435,192,73172,1,0,0:0:0:0:
384,192,73335,128,0,73662:0:0:0:0:
179,192,73335,1,0,0:0:0:0:
25,192,73662,128,0,74314:0:0:0:0:
76,192,73662,128,0,74314:0:0:0:0:
281,192,73662,1,0,0:0:0:0:
435,192,73988,1,0,0:0:0:0:
332,192,74151,1,0,0:0:0:0:
179,192,74314,128,0,74803:0:0:0:0:
230,192,74314,128,0,74803:0:0:0:0:
435,192,74314,1,0,0:0:0:0:
486,192,74640,1,0,0:0:0:0:
76,192,74803,128,0,75781:0:0:0:0:
384,192,74803,1,0,0:0:0:0:
179,192,74966,128,0,75781:0:0:0:0:
486,192,74966,1,0,0:0:0:0:
435,192,75292,1,0,0:0:0:0:
332,192,75618,1,0,0:0:0:0:
486,192,75944,1,0,0:0:0:0:
384,192,76107,1,0,0:0:0:0:
128,192,76270,1,0,0:0:0:0:
281,192,76270,128,0,76433:0:0:0:0:
179,192,76596,1,0,0:0:0:0:
281,192,76596,1,0,0:0:0:0:
128,192,76759,1,0,0:0:0:0:
384,192,76759,1,0,0:0:0:0:
76,192,76922,1,0,0:0:0:0:
486,192,76922,128,0,77085:0:0:0:0:
230,192,77249,1,0,0:0:0:0:
435,192,77249,1,0,0:0:0:0:
384,192,77412,1,0,0:0:0:0:
25,192,77575,1,0,0:0:0:0:
332,192,77575,128,0,77738:0:0:0:0:
230,192,77901,1,0,0:0:0:0:
332,192,77901,1,0,0:0:0:0:
25,192,78064,1,0,0:0:0:0:
384,192,78064,1,0,0:0:0:0:
179,192,78227,1,0,0:0:0:0:
435,192,78227,128,0,78553:0:0:0:0:
128,192,78308,1,0,0:0:0:0:
76,192,78390,1,0,0:0:0:0:
128,192,78553,128,0,78879:0:0:0:0:
332,192,78553,1,0,0:0:0:0:
281,192,78879,128,0,79531:0:0:0:0:
332,192,78879,128,0,79531:0:0:0:0:
25,192,78879,1,0,0:0:0:0:
179,192,79205,1,0,0:0:0:0:
76,192,79368,1,0,0:0:0:0:
435,192,79531,128,0,80020:0:0:0:0:
486,192,79531,128,0,80020:0:0:0:0:
179,192,79531,1,0,0:0:0:0:
230,192,79857,1,0,0:0:0:0:
332,192,80020,128,0,80999:0:0:0:0:
128,192,80020,1,0,0:0:0:0:
435,192,80183,128,0,80999:0:0:0:0:
230,192,80183,1,0,0:0:0:0:
179,192,80509,1,0,0:0:0:0:
76,192,80835,1,0,0:0:0:0:
230,192,81162,1,0,0:0:0:0:
128,192,81325,1,0,0:0:0:0:
384,192,81488,1,0,0:0:0:0:
25,192,81488,128,0,81651:0:0:0:0:
435,192,81814,1,0,0:0:0:0:
25,192,81814,1,0,0:0:0:0:
384,192,81977,1,0,0:0:0:0:
128,192,81977,1,0,0:0:0:0:
332,192,82140,1,0,0:0:0:0:
230,192,82140,128,0,82303:0:0:0:0:
486,192,82466,1,0,0:0:0:0:
179,192,82466,1,0,0:0:0:0:
128,192,82629,1,0,0:0:0:0:
384,192,82629,1,0,0:0:0:0:
281,192,82792,1,0,0:0:0:0:
76,192,82792,128,0,83118:0:0:0:0:
486,192,83118,1,0,0:0:0:0:
281,192,83281,1,0,0:0:0:0:
76,192,83281,1,0,0:0:0:0:
435,192,83444,1,0,0:0:0:0:
179,192,83444,128,0,83770:0:0:0:0:
384,192,83526,1,0,0:0:0:0:
332,192,83607,1,0,0:0:0:0:
384,192,83770,1,0,0:0:0:0:
76,192,83770,1,0,0:0:0:0:
179,192,83933,1,0,0:0:0:0:
435,192,84096,1,0,0:0:0:0:
128,192,84422,128,0,84667:0:0:0:0:
128,192,84749,1,0,0:0:0:0:
384,192,85075,128,0,85319:0:0:0:0:
384,192,85401,1,0,0:0:0:0:
128,192,85727,128,0,85971:0:0:0:0:
128,192,86053,1,0,0:0:0:0:
384,192,86379,128,0,86624:0:0:0:0:
384,192,86705,1,0,0:0:0:0:
179,192,87031,128,0,87276:0:0:0:0:
179,192,87357,1,0,0:0:0:0:
332,192,87683,128,0,87928:0:0:0:0:
332,192,88009,1,0,0:0:0:0:
179,192,88335,128,0,88580:0:0:0:0:
179,192,88676,1,0,0:0:0:0:
128,192,89013,128,0,89350:0:0:0:0:
332,192,89013,128,0,89350:0:0:0:0:
230,192,89350,128,0,89676:0:0:0:0:
486,192,89350,1,0,0:0:0:0:
25,192,89676,128,0,89839:0:0:0:0:
332,192,89676,1,0,0:0:0:0:
230,192,89839,128,0,90002:0:0:0:0:
76,192,90002,128,0,90654:0:0:0:0:
486,192,90002,1,0,0:0:0:0:
332,192,90328,1,0,0:0:0:0:
486,192,90654,1,0,0:0:0:0:
332,192,90980,128,0,91143:0:0:0:0:
25,192,90980,1,0,0:0:0:0:
179,192,91143,128,0,91306:0:0:0:0:
486,192,91306,128,0,91632:0:0:0:0:
332,192,91306,1,0,0:0:0:0:
281,192,91632,128,0,91795:0:0:0:0:
25,192,91632,1,0,0:0:0:0:
486,192,91795,128,0,91958:0:0:0:0:
332,192,91958,128,0,92610:0:0:0:0:
179,192,91958,1,0,0:0:0:0:
25,192,92284,1,0,0:0:0:0:
179,192,92610,1,0,0:0:0:0:
230,192,92936,128,0,93100:0:0:0:0:
332,192,92936,1,0,0:0:0:0:
128,192,93100,128,0,93263:0:0:0:0:
25,192,93263,128,0,93426:0:0:0:0:
486,192,93263,1,0,0:0:0:0:
230,192,93426,128,0,93589:0:0:0:0:
25,192,93589,128,0,93752:0:0:0:0:
332,192,93589,1,0,0:0:0:0:
230,192,93752,128,0,93915:0:0:0:0:
25,192,93915,128,0,94078:0:0:0:0:
486,192,93915,1,0,0:0:0:0:
179,192,94241,128,0,94404:0:0:0:0:
332,192,94241,1,0,0:0:0:0:
76,192,94404,1,0,0:0:0:0:
230,192,94567,5,0,0:0:0:0:
486,192,94567,1,0,0:0:0:0:
332,192,94730,1,0,0:0:0:0:
435,192,94893,1,0,0:0:0:0:
179,192,94893,1,0,0:0:0:0:
281,192,95056,1,0,0:0:0:0:
384,192,95219,1,0,0:0:0:0:
128,192,95219,1,0,0:0:0:0:
230,192,95382,1,0,0:0:0:0:
332,192,95545,1,0,0:0:0:0:
76,192,95545,1,0,0:0:0:0:
179,192,95708,1,0,0:0:0:0:
281,192,95871,1,0,0:0:0:0:
25,192,95871,1,0,0:0:0:0:
179,192,96034,1,0,0:0:0:0:
76,192,96197,1,0,0:0:0:0:
332,192,96197,1,0,0:0:0:0:
230,192,96360,1,0,0:0:0:0:
128,192,96523,1,0,0:0:0:0:
384,192,96523,1,0,0:0:0:0:
281,192,96686,1,0,0:0:0:0:
179,192,96850,1,0,0:0:0:0:
435,192,96850,1,0,0:0:0:0:
332,192,97013,1,0,0:0:0:0:
486,192,97176,1,0,0:0:0:0:
230,192,97176,128,0,98154:0:0:0:0:
25,192,97176,128,0,98154:0:0:0:0:
76,192,97339,1,0,0:0:0:0:
384,192,97502,1,0,0:0:0:0:
128,192,97665,1,0,0:0:0:0:
384,192,97828,1,0,0:0:0:0:
179,192,97991,1,0,0:0:0:0:
384,192,98154,1,0,0:0:0:0:
128,192,98317,1,0,0:0:0:0:
281,192,98480,1,0,0:0:0:0:
486,192,98480,1,0,0:0:0:0:
332,192,98643,1,0,0:0:0:0:
179,192,98806,1,0,0:0:0:0:
76,192,98969,1,0,0:0:0:0:
179,192,99132,1,0,0:0:0:0:
332,192,99295,1,0,0:0:0:0:
128,192,99458,128,0,99784:0:0:0:0:
435,192,99458,1,0,0:0:0:0:
332,192,99621,1,0,0:0:0:0:
281,192,99784,128,0,100110:0:0:0:0:
179,192,99784,1,0,0:0:0:0:
486,192,100110,128,0,100273:0:0:0:0:
25,192,100110,1,0,0:0:0:0:
281,192,100273,128,0,100436:0:0:0:0:
435,192,100436,128,0,101089:0:0:0:0:
179,192,100436,1,0,0:0:0:0:
25,192,100763,1,0,0:0:0:0:
230,192,101089,1,0,0:0:0:0:
179,192,101415,128,0,101578:0:0:0:0:
486,192,101415,1,0,0:0:0:0:
332,192,101578,128,0,101741:0:0:0:0:
25,192,101741,128,0,102067:0:0:0:0:
179,192,101741,1,0,0:0:0:0:
230,192,102067,128,0,102230:0:0:0:0:
486,192,102067,1,0,0:0:0:0:
25,192,102230,128,0,102393:0:0:0:0:
179,192,102393,128,0,103045:0:0:0:0:
332,192,102393,1,0,0:0:0:0:
486,192,102719,1,0,0:0:0:0:
332,192,103045,1,0,0:0:0:0:
281,192,103371,128,0,103534:0:0:0:0:
25,192,103371,1,0,0:0:0:0:
384,192,103534,128,0,103697:0:0:0:0:
486,192,103697,128,0,103860:0:0:0:0:
179,192,103697,1,0,0:0:0:0:
281,192,103860,128,0,104023:0:0:0:0:
435,192,104023,128,0,104186:0:0:0:0:
25,192,104023,1,0,0:0:0:0:
332,192,104186,128,0,104350:0:0:0:0:
486,192,104350,128,0,104513:0:0:0:0:
179,192,104350,1,0,0:0:0:0:
76,192,104676,128,0,105165:0:0:0:0:
332,192,104676,1,0,0:0:0:0:
128,192,104839,128,0,105165:0:0:0:0:
179,192,105002,128,0,105165:0:0:0:0:
486,192,105002,1,0,0:0:0:0:
25,192,105328,1,0,0:0:0:0:
332,192,105328,1,0,0:0:0:0:
128,192,105491,1,0,0:0:0:0:
384,192,105491,1,0,0:0:0:0:
230,192,105654,1,0,0:0:0:0:
435,192,105654,1,0,0:0:0:0:
332,192,105817,1,0,0:0:0:0:
486,192,105980,1,0,0:0:0:0:
179,192,105980,1,0,0:0:0:0:
384,192,106143,1,0,0:0:0:0:
128,192,106143,1,0,0:0:0:0:
281,192,106306,1,0,0:0:0:0:
76,192,106306,1,0,0:0:0:0:
179,192,106469,1,0,0:0:0:0:
281,192,106632,1,0,0:0:0:0:
486,192,106632,1,0,0:0:0:0:
76,192,106795,1,0,0:0:0:0:
332,192,106958,1,0,0:0:0:0:
435,192,106958,1,0,0:0:0:0:
179,192,107121,1,0,0:0:0:0:
384,192,107284,1,0,0:0:0:0:
281,192,107447,1,0,0:0:0:0:
384,192,107610,1,0,0:0:0:0:
179,192,107773,1,0,0:0:0:0:
25,192,107936,1,0,0:0:0:0:
486,192,107936,1,0,0:0:0:0:
128,192,108100,1,0,0:0:0:0:
384,192,108100,1,0,0:0:0:0:
230,192,108263,1,0,0:0:0:0:
281,192,108263,1,0,0:0:0:0:
179,192,108426,1,0,0:0:0:0:
332,192,108426,1,0,0:0:0:0:
384,192,108589,1,0,0:0:0:0:
128,192,108589,1,0,0:0:0:0:
76,192,108752,1,0,0:0:0:0:
435,192,108752,1,0,0:0:0:0:
25,192,108915,1,0,0:0:0:0:
230,192,108915,1,0,0:0:0:0:
281,192,109078,1,0,0:0:0:0:
486,192,109078,1,0,0:0:0:0:
76,192,109241,1,0,0:0:0:0:
230,192,109241,1,0,0:0:0:0:
281,192,109404,1,0,0:0:0:0:
435,192,109404,1,0,0:0:0:0:
128,192,109567,1,0,0:0:0:0:
230,192,109567,1,0,0:0:0:0:
281,192,109730,1,0,0:0:0:0:
384,192,109730,1,0,0:0:0:0:
179,192,109893,1,0,0:0:0:0:
230,192,109893,1,0,0:0:0:0:
281,192,110056,1,0,0:0:0:0:
332,192,110056,1,0,0:0:0:0:
128,192,110219,128,0,110545:0:0:0:0:
486,192,110219,1,0,0:0:0:0:
179,192,110545,128,0,111034:0:0:0:0:
281,192,110545,1,0,0:0:0:0:
128,192,110708,128,0,111034:0:0:0:0:
76,192,110871,128,0,111034:0:0:0:0:
486,192,110871,1,0,0:0:0:0:
332,192,111197,128,0,111360:0:0:0:0:
179,192,111360,128,0,111523:0:0:0:0:
384,192,111523,128,0,111850:0:0:0:0:
25,192,111523,1,0,0:0:0:0:
435,192,111850,128,0,112339:0:0:0:0:
230,192,111850,1,0,0:0:0:0:
384,192,112013,128,0,112339:0:0:0:0:
332,192,112176,128,0,112339:0:0:0:0:
25,192,112176,1,0,0:0:0:0:
76,192,112502,128,0,112828:0:0:0:0:
486,192,112502,1,0,0:0:0:0:
179,192,112828,1,0,0:0:0:0:
179,192,113154,1,0,0:0:0:0:
76,192,113317,1,0,0:0:0:0:
179,192,113480,1,0,0:0:0:0:
435,192,113806,1,0,0:0:0:0:
332,192,113969,1,0,0:0:0:0:
435,192,114132,128,0,114458:0:0:0:0:
486,192,114132,128,0,114458:0:0:0:0:
128,192,114295,1,0,0:0:0:0:
332,192,114458,1,0,0:0:0:0:
128,192,114621,1,0,0:0:0:0:
332,192,114784,128,0,115439:0:0:0:0:
435,192,114784,128,0,115439:0:0:0:0:
384,192,115111,1,0,0:0:0:0:
76,192,115439,128,0,116153:0:0:0:0:
179,192,115439,1,0,0:0:0:0:
332,192,115766,1,0,0:0:0:0:
435,192,116093,1,0,0:0:0:0:
230,192,116153,128,0,116794:0:0:0:0:
128,192,116794,128,0,117460:0:0:0:0:
384,192,117460,128,0,118139:0:0:0:0:
25,192,117768,128,0,118139:0:0:0:0:
332,192,118139,128,0,118738:0:0:0:0:
179,192,118139,1,0,0:0:0:0:
486,192,118738,128,0,119473:0:0:0:0:
230,192,118738,1,0,0:0:0:0:
128,192,119427,1,0,0:0:0:0:
384,192,119473,128,0,120209:0:0:0:0:
281,192,120209,128,0,121084:0:0:0:0:
25,192,120209,1,0,0:0:0:0:
25,192,121084,128,0,123747:0:0:0:0:
76,192,121084,128,0,125052:0:0:0:0:
486,192,121084,1,0,0:0:0:0:
332,192,121465,1,0,0:0:0:0:
384,192,121628,1,0,0:0:0:0:
435,192,121791,1,0,0:0:0:0:
435,192,122117,1,0,0:0:0:0:
384,192,122280,1,0,0:0:0:0:
332,192,122443,1,0,0:0:0:0:
486,192,122769,1,0,0:0:0:0:
281,192,123095,1,0,0:0:0:0:
179,192,123747,128,0,126193:0:0:0:0:
332,192,124073,1,0,0:0:0:0:
384,192,124236,1,0,0:0:0:0:
435,192,124399,1,0,0:0:0:0:
486,192,124725,1,0,0:0:0:0:
230,192,125052,128,0,126193:0:0:0:0:
281,192,125052,1,0,0:0:0:0:
486,192,125378,1,0,0:0:0:0:
281,192,125541,1,0,0:0:0:0:
435,192,125704,1,0,0:0:0:0:
384,192,125785,1,0,0:0:0:0:
332,192,125867,1,0,0:0:0:0:
281,192,126030,1,0,0:0:0:0:
435,192,126356,128,0,127660:0:0:0:0:
486,192,126356,128,0,127008:0:0:0:0:
128,192,126356,1,0,0:0:0:0:
179,192,126682,1,0,0:0:0:0:
128,192,126845,1,0,0:0:0:0:
332,192,127008,128,0,128312:0:0:0:0:
76,192,127008,1,0,0:0:0:0:
76,192,127334,1,0,0:0:0:0:
128,192,127497,1,0,0:0:0:0:
281,192,127660,128,0,128312:0:0:0:0:
179,192,127660,1,0,0:0:0:0:
25,192,127986,1,0,0:0:0:0:
230,192,128312,1,0,0:0:0:0:
25,192,128639,128,0,129128:0:0:0:0:
128,192,128802,128,0,129128:0:0:0:0:
230,192,128965,128,0,129128:0:0:0:0:
384,192,128965,1,0,0:0:0:0:
486,192,129291,128,0,129780:0:0:0:0:
179,192,129291,1,0,0:0:0:0:
384,192,129454,128,0,129780:0:0:0:0:
128,192,129454,1,0,0:0:0:0:
281,192,129617,128,0,129780:0:0:0:0:
76,192,129617,1,0,0:0:0:0:
179,192,129943,128,0,130432:0:0:0:0:
486,192,129943,1,0,0:0:0:0:
128,192,130106,128,0,130432:0:0:0:0:
76,192,130269,128,0,130432:0:0:0:0:
281,192,130269,1,0,0:0:0:0:
230,192,130595,1,0,0:0:0:0:
435,192,130758,128,0,131410:0:0:0:0:
25,192,130758,1,0,0:0:0:0:
384,192,130921,128,0,131410:0:0:0:0:
179,192,130921,1,0,0:0:0:0:
128,192,131003,1,0,0:0:0:0:
76,192,131084,1,0,0:0:0:0:
332,192,131247,128,0,131410:0:0:0:0:
128,192,131247,1,0,0:0:0:0:
128,192,131573,128,0,131899:0:0:0:0:
435,192,131573,1,0,0:0:0:0:
384,192,131573,1,0,0:0:0:0:
76,192,131899,128,0,132062:0:0:0:0:
332,192,131899,1,0,0:0:0:0:
179,192,132062,128,0,132225:0:0:0:0:
384,192,132062,1,0,0:0:0:0:
76,192,132225,128,0,132878:0:0:0:0:
435,192,132225,1,0,0:0:0:0:
435,192,132552,1,0,0:0:0:0:
384,192,132715,1,0,0:0:0:0:
332,192,132878,1,0,0:0:0:0:
128,192,133204,128,0,133367:0:0:0:0:
486,192,133204,1,0,0:0:0:0:
25,192,133367,128,0,133530:0:0:0:0:
179,192,133530,128,0,133693:0:0:0:0:
281,192,133530,1,0,0:0:0:0:
76,192,133693,128,0,133856:0:0:0:0:
230,192,133856,128,0,134834:0:0:0:0:
179,192,134019,128,0,134834:0:0:0:0:
128,192,134182,128,0,134834:0:0:0:0:
384,192,134182,1,0,0:0:0:0:
332,192,134508,1,0,0:0:0:0:
384,192,134671,1,0,0:0:0:0:
435,192,134834,1,0,0:0:0:0:
281,192,135160,128,0,136628:0:0:0:0:
128,192,135160,1,0,0:0:0:0:
486,192,135323,128,0,136628:0:0:0:0:
179,192,135486,128,0,135649:0:0:0:0:
435,192,135649,128,0,135812:0:0:0:0:
179,192,135812,128,0,135975:0:0:0:0:
384,192,135975,128,0,136139:0:0:0:0:
179,192,136139,128,0,136628:0:0:0:0:
332,192,136465,128,0,136628:0:0:0:0:
384,192,136791,128,0,137117:0:0:0:0:
179,192,136791,1,0,0:0:0:0:
25,192,136791,1,0,0:0:0:0:
332,192,137117,128,0,137280:0:0:0:0:
76,192,137117,1,0,0:0:0:0:
435,192,137280,128,0,137443:0:0:0:0:
128,192,137280,1,0,0:0:0:0:
332,192,137443,128,0,138095:0:0:0:0:
179,192,137443,1,0,0:0:0:0:
179,192,137769,1,0,0:0:0:0:
128,192,137932,1,0,0:0:0:0:
76,192,138095,1,0,0:0:0:0:
384,192,138421,128,0,138584:0:0:0:0:
230,192,138421,1,0,0:0:0:0:
486,192,138584,128,0,138747:0:0:0:0:
332,192,138747,128,0,138910:0:0:0:0:
25,192,138747,1,0,0:0:0:0:
435,192,138910,128,0,139073:0:0:0:0:
281,192,139073,128,0,140052:0:0:0:0:
332,192,139236,128,0,140052:0:0:0:0:
384,192,139399,128,0,140052:0:0:0:0:
128,192,139399,1,0,0:0:0:0:
76,192,139725,1,0,0:0:0:0:
128,192,139889,1,0,0:0:0:0:
179,192,140052,1,0,0:0:0:0:
230,192,140378,128,0,141845:0:0:0:0:
384,192,140378,1,0,0:0:0:0:
25,192,140541,128,0,141845:0:0:0:0:
332,192,140704,128,0,140867:0:0:0:0:
179,192,140867,128,0,141030:0:0:0:0:
332,192,141030,128,0,141193:0:0:0:0:
128,192,141193,128,0,141356:0:0:0:0:
332,192,141356,128,0,141845:0:0:0:0:
76,192,141682,128,0,141845:0:0:0:0:
25,192,142008,1,0,0:0:0:0:
230,192,142008,1,0,0:0:0:0:
435,192,142008,1,0,0:0:0:0:
384,192,142171,1,0,0:0:0:0:
332,192,142334,1,0,0:0:0:0:
281,192,142497,1,0,0:0:0:0:
128,192,142660,1,0,0:0:0:0:
384,192,142823,1,0,0:0:0:0:
128,192,142986,1,0,0:0:0:0:
384,192,143149,1,0,0:0:0:0:
25,192,143312,1,0,0:0:0:0:
76,192,143475,1,0,0:0:0:0:
128,192,143639,1,0,0:0:0:0:
179,192,143802,1,0,0:0:0:0:
384,192,143965,1,0,0:0:0:0:
128,192,144128,1,0,0:0:0:0:
384,192,144291,1,0,0:0:0:0:
128,192,144454,1,0,0:0:0:0:
486,192,144617,1,0,0:0:0:0:
435,192,144780,1,0,0:0:0:0:
384,192,144943,1,0,0:0:0:0:
332,192,145106,1,0,0:0:0:0:
128,192,145269,1,0,0:0:0:0:
384,192,145432,1,0,0:0:0:0:
128,192,145595,1,0,0:0:0:0:
384,192,145758,1,0,0:0:0:0:
76,192,145921,1,0,0:0:0:0:
128,192,146084,1,0,0:0:0:0:
179,192,146247,1,0,0:0:0:0:
230,192,146410,1,0,0:0:0:0:
384,192,146573,1,0,0:0:0:0:
128,192,146736,1,0,0:0:0:0:
384,192,146899,1,0,0:0:0:0:
128,192,147062,1,0,0:0:0:0:
281,192,147225,1,0,0:0:0:0:
