osu file format v14

[General]
AudioFilename: audio.mp3
AudioLeadIn: 0
PreviewTime: 40475
Countdown: 0
SampleSet: Drum
StackLeniency: 0.7
Mode: 0
LetterboxInBreaks: 0
WidescreenStoryboard: 0

[Editor]
DistanceSpacing: 1.6
BeatDivisor: 4
GridSize: 32
TimelineZoom: 1.4

[Metadata]
Title:Inertia Split
TitleUnicode:Inertia Split
Artist:Aethoro
ArtistUnicode:Aethoro
Creator:LMT
Version:Transience of Eternity
Source:Corsace Open 2023
Tags:co23 ro hr2 vinxis mishima yurara instrumental electronic featured artist fa epic Corsace Open 2023: Penance
BeatmapID:4266220
BeatmapSetID:2044069

[Difficulty]
HPDrainRate:5
CircleSize:5
OverallDifficulty:9
ApproachRate:9.3
SliderMultiplier:1.4
SliderTickRate:1

[Events]
//Background and Video events
0,0,"final_-_full_res.jpg",0,0
//Break Periods
2,67675,72421
2,73675,78421
2,79675,90421
//Storyboard Layer 0 (Background)
//Storyboard Layer 1 (Fail)
//Storyboard Layer 2 (Pass)
//Storyboard Layer 3 (Foreground)
//Storyboard Layer 4 (Overlay)
//Storyboard Sound Samples

[TimingPoints]
2975,750,4,3,0,50,1,0
26975,500,4,3,0,50,1,0
38975,500,3,3,0,50,1,0
40475,500,6,3,0,50,1,0
40475,-66.6666666666667,6,3,0,50,0,0
52475,500,3,3,0,50,1,0
53975,500,6,3,0,50,1,0
53975,-66.6666666666667,6,3,0,50,0,0
65975,500,3,3,0,50,1,0
67475,750,4,3,0,40,1,0
67475,-100,4,3,0,40,0,0
91475,-50,4,3,0,50,0,0
118475,500,6,3,0,50,1,0
128975,-50,6,3,0,50,0,0
148475,-100,6,3,0,5,0,0

[Colours]
Combo1 : 196,98,0
Combo2 : 128,128,255
Combo3 : 128,128,192
Combo4 : 255,128,64

[HitObjects]
102,129,26975,6,0,B|111:144|111:144|36:113,1,70,2|0,0:0|0:0,0:0:0:0:
24,71,27350,2,0,P|20:56|41:57,1,35,2|0,0:0|0:0,0:0:0:0:
194,58,27725,5,0,0:0:0:0:
206,63,27850,1,2,0:0:0:0:
208,72,27975,1,4,0:0:0:0:
201,78,28100,1,2,0:0:0:0:
190,75,28225,1,0,0:0:0:0:
306,33,28475,5,0,1:0:0:0:
390,237,28725,5,2,0:2:0:0:
423,247,28850,1,2,0:2:0:0:
438,218,28975,1,4,0:0:0:0:
396,146,29350,5,2,0:0:0:0:
396,146,29475,1,4,0:0:0:0:
317,167,29725,5,2,0:0:0:0:
308,237,29975,5,4,0:0:0:0:
308,237,30475,1,4,0:0:0:0:
308,237,30975,1,4,0:0:0:0:
308,237,31475,1,4,0:0:0:0:
256,291,31725,5,0,0:0:0:0:
232,307,31850,1,2,0:0:0:0:
208,304,31975,1,0,0:0:0:0:
189,290,32100,1,2,0:0:0:0:
132,229,32350,5,2,0:0:0:0:
132,229,32475,1,4,0:0:0:0:
163,167,32600,1,0,1:0:0:0:
118,117,32725,1,0,1:0:0:0:
54,144,32850,1,0,1:0:0:0:
64,207,32975,2,0,L|39:302,1,70,0|0,1:0|0:0,0:0:0:0:
103,316,33350,2,0,P|88:338|58:330,1,35,2|0,0:0|0:0,0:0:0:0:
173,354,33600,6,0,B|167:364|167:364|178:376,2,17.5,2|0|0,0:0|0:0|0:0,0:0:0:0:
240,365,33850,1,2,0:0:0:0:
307,371,33975,2,0,B|316:364|316:364|388:373,1,70,4|0,0:0|0:0,0:0:0:0:
420,324,34350,2,0,P|437:331|428:347,1,35,2|0,0:0|0:0,0:0:0:0:
452,257,34725,5,2,0:0:0:0:
477,227,34850,1,2,0:0:0:0:
459,187,34975,1,4,0:0:0:0:
388,143,35350,5,2,0:2:0:0:
388,143,35475,1,4,0:0:0:0:
317,200,35725,1,2,0:0:0:0:
238,148,35975,5,4,0:0:0:0:
238,148,36475,1,4,0:0:0:0:
238,148,36975,1,4,0:0:0:0:
238,148,37475,1,4,0:0:0:0:
176,81,37725,5,0,0:0:0:0:
148,97,37850,1,2,0:0:0:0:
116,87,37975,1,0,0:0:0:0:
98,66,38100,1,2,0:0:0:0:
38,136,38350,5,2,0:0:0:0:
67,149,38475,1,4,0:0:0:0:
83,177,38600,1,2,0:0:0:0:
83,204,38725,1,2,0:2:0:0:
71,295,38975,5,4,0:0:0:0:
126,264,39100,1,0,0:0:0:0:
5,286,39225,1,0,0:0:0:0:
187,292,39350,5,4,0:0:0:0:
253,276,39475,1,0,0:0:0:0:
127,269,39600,1,0,0:0:0:0:
306,315,39725,5,4,0:0:0:0:
373,309,39850,1,0,0:0:0:0:
253,276,39975,1,0,0:0:0:0:
427,354,40100,5,4,0:0:0:0:
487,324,40225,1,0,0:0:0:0:
476,259,40350,1,0,0:0:0:0:
416,226,40475,6,0,B|411:207|411:207|445:170,1,52.5000020027161,4|0,1:0|0:0,0:0:0:0:
469,120,40725,2,0,B|490:126|490:126|505:164,1,52.5000020027161,2|0,0:0|0:0,0:0:0:0:
370,4,40975,5,4,0:0:0:0:
388,64,41100,1,2,0:2:0:0:
342,107,41225,1,2,0:2:0:0:
280,118,41350,1,2,0:2:0:0:
222,93,41475,1,4,0:0:0:0:
177,48,41600,1,2,0:2:0:0:
114,42,41725,1,2,0:2:0:0:
57,69,41850,1,2,0:2:0:0:
25,123,41975,1,4,0:0:0:0:
43,183,42100,1,2,0:2:0:0:
92,221,42225,1,2,0:2:0:0:
154,218,42350,1,2,0:2:0:0:
208,185,42475,6,0,B|244:194|244:194|266:220,1,52.5000020027161,6|0,0:0|0:0,0:0:0:0:
358,353,42725,1,0,0:0:0:0:
326,246,42850,2,0,B|313:255|313:255|304:312,1,52.5000020027161,2|0,0:0|0:0,0:0:0:0:
382,286,43100,1,2,0:0:0:0:
281,357,43225,2,0,L|205:353,1,52.5000020027161,4|0,0:0|0:0,0:0:0:0:
87,365,43475,5,4,1:0:0:0:
121,312,43600,1,2,0:2:0:0:
87,258,43725,1,2,0:2:0:0:
24,253,43850,1,2,0:2:0:0:
7,321,43975,2,0,B|2:331|2:331|-8:316,2,26.2500010013581,4|0|0,0:0|0:0|0:0,0:0:0:0:
32,262,44225,1,2,0:0:0:0:
51,197,44350,1,2,0:0:0:0:
16,140,44475,1,4,0:0:0:0:
4,73,44600,1,2,0:2:0:0:
42,20,44725,1,2,0:2:0:0:
106,9,44850,1,2,0:2:0:0:
161,45,44975,1,4,0:0:0:0:
184,108,45100,1,2,0:2:0:0:
236,158,45225,1,2,0:2:0:0:
306,165,45350,1,2,0:2:0:0:
358,126,45475,1,2,0:0:0:0:
358,126,45537,1,2,0:0:0:0:
358,126,45600,2,0,B|368:130|368:130|383:106,2,26.2500010013581,2|2|2,0:0|0:0|0:0,0:0:0:0:
408,53,45850,1,2,0:0:0:0:
486,90,45975,1,4,0:0:0:0:
486,177,46100,1,2,0:0:0:0:
403,202,46225,1,2,0:0:0:0:
357,133,46350,1,2,0:0:0:0:
427,129,46475,6,0,L|413:216,1,52.5000020027161,4|0,1:0|0:0,0:0:0:0:
462,246,46725,2,0,L|452:321,1,52.5000020027161,2|0,0:0|0:0,0:0:0:0:
380,332,46975,5,4,0:0:0:0:
315,358,47100,1,2,0:2:0:0:
315,358,47162,1,0,0:0:0:0:
315,358,47225,1,2,0:2:0:0:
247,325,47350,1,2,0:2:0:0:
235,262,47475,1,4,0:0:0:0:
268,202,47600,1,2,0:2:0:0:
322,163,47725,1,2,0:2:0:0:
332,97,47850,1,2,0:2:0:0:
296,43,47975,2,0,B|289:29|289:29|239:17,1,52.5000020027161,4|2,0:0|0:2,0:0:0:0:
181,18,48225,2,0,B|145:28|145:28|128:49,1,52.5000020027161,2|2,0:2|0:2,0:0:0:0:
149,169,48475,5,6,0:0:0:0:
169,188,48558,1,2,0:0:0:0:
174,216,48641,1,2,0:0:0:0:
161,243,48725,1,2,0:0:0:0:
110,289,48850,5,2,0:0:0:0:
44,278,48975,1,4,0:0:0:0:
5,222,49100,1,2,0:0:0:0:
11,155,49225,1,4,0:0:0:0:
60,103,49350,1,0,0:0:0:0:
42,35,49475,5,4,1:0:0:0:
71,103,49600,1,2,0:2:0:0:
141,113,49725,1,2,0:2:0:0:
208,95,49850,1,2,0:2:0:0:
256,46,49975,2,0,B|255:32|255:32|235:34,2,26.2500010013581,4|0|0,0:0|0:0|0:0,0:0:0:0:
325,37,50225,1,2,0:0:0:0:
389,74,50350,1,2,0:0:0:0:
406,143,50475,1,4,0:0:0:0:
361,200,50600,1,2,0:2:0:0:
336,268,50725,1,2,0:2:0:0:
361,331,50850,1,2,0:2:0:0:
427,364,50975,1,4,0:0:0:0:
492,333,51100,1,2,0:2:0:0:
502,263,51225,1,2,0:2:0:0:
462,206,51350,1,2,0:2:0:0:
427,149,51475,5,2,0:0:0:0:
427,149,51537,1,2,0:0:0:0:
427,149,51600,2,0,B|426:135|426:135|400:132,2,26.2500010013581,2|2|2,0:0|0:0|0:0,0:0:0:0:
465,68,51850,1,2,0:0:0:0:
388,24,51975,1,4,0:0:0:0:
396,34,52100,5,2,0:0:0:0:
453,75,52225,1,2,0:0:0:0:
420,137,52350,1,2,0:0:0:0:
444,213,52475,5,4,0:0:0:0:
384,192,52600,1,0,0:0:0:0:
507,192,52725,1,0,0:0:0:0:
329,230,52850,5,4,0:0:0:0:
261,225,52975,1,0,0:0:0:0:
384,197,53100,1,0,0:0:0:0:
216,273,53225,5,4,0:0:0:0:
149,279,53350,1,0,0:0:0:0:
260,220,53475,1,0,0:0:0:0:
103,332,53600,5,4,0:0:0:0:
162,371,53725,1,0,0:0:0:0:
229,340,53850,1,0,0:0:0:0:
216,273,53975,6,0,L|200:147,1,105.000004005432,4|0,1:0|0:0,0:0:0:0:
136,126,54350,1,0,0:0:0:0:
198,62,54475,5,6,0:0:0:0:
167,41,54558,1,2,0:0:0:0:
138,36,54641,1,2,0:0:0:0:
106,43,54725,1,2,0:0:0:0:
47,80,54850,1,2,0:0:0:0:
245,112,54975,6,0,B|262:107|262:107|289:44,1,52.5000020027161,4|2,0:0|0:0,0:0:0:0:
367,238,55225,2,0,B|350:243|350:243|323:306,1,52.5000020027161,0|2,0:0|0:0,0:0:0:0:
403,303,55475,1,4,0:0:0:0:
468,332,55600,1,2,0:0:0:0:
306,334,55725,5,0,0:0:0:0:
251,372,55850,1,2,0:0:0:0:
180,357,55975,1,2,0:0:0:0:
151,366,56058,1,2,0:0:0:0:
115,363,56141,1,2,0:0:0:0:
88,349,56225,1,2,0:0:0:0:
24,370,56350,1,2,0:0:0:0:
91,276,56475,6,0,B|90:250|90:250|48:267,1,52.5000020027161,4|0,0:0|0:0,0:0:0:0:
216,30,56725,2,0,B|217:56|217:56|259:39,1,52.5000020027161,2|0,0:0|0:0,0:0:0:0:
96,115,56975,2,0,L|221:189,1,105.000004005432,4|0,1:0|0:0,0:0:0:0:
257,218,57350,1,0,0:0:0:0:
374,181,57475,5,6,0:0:0:0:
392,152,57558,1,2,0:0:0:0:
396,121,57641,1,2,0:0:0:0:
384,93,57725,1,2,0:0:0:0:
322,132,57850,1,2,0:0:0:0:
346,265,57975,6,0,B|324:282|324:282|321:321,1,52.5000020027161,4|0,0:0|0:0,0:0:0:0:
178,318,58225,2,0,L|230:315,1,52.5000020027161,2|0,0:0|0:0,0:0:0:0:
4,200,58475,1,4,0:0:0:0:
71,212,58600,1,2,0:2:0:0:
105,269,58725,1,2,0:2:0:0:
79,332,58850,1,2,0:2:0:0:
169,213,58975,5,6,0:0:0:0:
174,179,59058,1,2,0:0:0:0:
165,147,59141,1,2,0:0:0:0:
145,123,59225,1,2,0:0:0:0:
286,74,59350,1,2,0:0:0:0:
214,89,59475,1,4,0:0:0:0:
401,140,59600,1,2,0:2:0:0:
333,131,59725,1,2,0:2:0:0:
402,129,59850,1,2,0:2:0:0:
469,120,59975,1,4,0:0:0:0:
452,188,60100,6,0,L|436:256,2,52.5000020027161,2|2|2,0:0|0:0|0:0,0:0:0:0:
494,283,60475,1,4,0:0:0:0:
302,285,60600,5,2,0:2:0:0:
302,285,60662,1,2,0:2:0:0:
302,285,60725,2,0,L|315:345,1,52.5000020027161,2|2,0:2|0:0,0:0:0:0:
380,355,60975,1,4,0:0:0:0:
192,231,61100,5,2,0:0:0:0:
124,263,61225,2,0,L|135:323,1,52.5000020027161,2|2,0:0|0:0,0:0:0:0:
66,222,61475,1,4,0:0:0:0:
142,120,61600,5,2,0:0:0:0:
199,163,61725,1,2,0:0:0:0:
261,132,61850,1,2,0:0:0:0:
321,87,61975,5,6,0:0:0:0:
354,71,62058,1,2,0:0:0:0:
388,72,62141,1,2,0:0:0:0:
419,92,62225,1,2,0:0:0:0:
371,151,62350,2,0,L|361:211,1,52.5000020027161,2|4,0:0|0:0,0:0:0:0:
257,60,62600,5,2,0:0:0:0:
191,80,62725,1,2,0:0:0:0:
130,40,62850,1,2,0:0:0:0:
189,0,62975,6,0,B|262:25|262:25|278:94,1,105.000004005432,4|0,1:0|0:0,0:0:0:0:
225,149,63350,1,0,0:0:0:0:
173,239,63475,5,6,0:0:0:0:
192,271,63558,1,2,0:0:0:0:
225,291,63641,1,2,0:0:0:0:
263,292,63725,1,2,0:0:0:0:
151,334,63850,2,0,B|133:336|133:336|96:371,1,52.5000020027161,2|4,0:0|0:0,0:0:0:0:
406,290,64100,5,2,0:0:0:0:
338,254,64225,1,2,0:0:0:0:
401,214,64350,2,0,B|409:179|409:179|394:145,1,52.5000020027161,2|4,0:0|0:0,0:0:0:0:
138,132,64600,5,2,0:0:0:0:
71,120,64725,1,2,0:0:0:0:
142,142,64850,1,2,0:0:0:0:
218,166,64975,5,6,0:0:0:0:
246,142,65058,1,2,0:0:0:0:
283,132,65141,1,2,0:0:0:0:
322,138,65225,1,2,0:0:0:0:
150,218,65350,1,2,0:0:0:0:
201,295,65475,2,0,B|203:310|203:310|169:341,1,52.5000020027161,4|0,0:0|0:0,0:0:0:0:
351,25,65725,2,0,L|443:47,1,52.5000020027161,2|0,0:0|0:0,0:0:0:0:
483,14,65975,5,4,0:0:0:0:
462,85,66100,1,0,0:0:0:0:
387,181,66225,1,0,0:0:0:0:
460,151,66350,5,4,0:0:0:0:
387,188,66475,1,0,0:0:0:0:
254,218,66600,1,0,0:0:0:0:
328,235,66725,5,4,0:0:0:0:
254,230,66850,1,0,0:0:0:0:
160,144,66975,1,0,0:0:0:0:
185,210,67100,5,4,0:0:0:0:
151,138,67225,1,0,0:0:0:0:
187,27,67350,1,0,0:0:0:0:
34,10,67475,5,4,1:0:0:0:
217,180,72975,6,0,L|211:219,1,23.3333333333333,2|2,0:0|0:0,0:0:0:0:
292,144,73225,6,0,L|298:103,1,23.3333333333333,2|2,0:0|0:0,0:0:0:0:
229,365,73475,5,2,0:0:0:0:
133,207,78975,6,0,L|110:209,1,23.3333333333333,2|2,0:0|0:0,0:0:0:0:
379,177,79225,6,0,L|402:175,1,23.3333333333333,2|2,0:0|0:0,0:0:0:0:
475,160,79475,5,2,0:0:0:0:
32,336,90975,5,2,0:2:0:0:
119,150,91475,6,0,B|156:145|180:175|191:189|235:176,1,93.3333333333333,4|0,1:0|0:0,0:0:0:0:
271,195,91850,1,2,0:0:0:0:
332,161,91975,1,2,0:0:0:0:
326,94,92100,1,2,0:0:0:0:
429,50,92225,5,2,0:2:0:0:
429,50,92287,2,0,P|451:89|455:128,1,70,2|0,0:2|0:0,0:0:0:0:
489,171,92600,2,0,P|472:196|467:220,1,46.6666666666667,2|0,0:0|0:0,0:0:0:0:
235,308,92850,5,2,0:0:0:0:
283,258,92975,2,0,B|241:258|223:270|208:296|162:277,1,93.3333333333333,2|0,0:2|0:0,0:0:0:0:
125,267,93350,2,0,P|94:301|79:355,1,93.3333333333333,2|0,0:2|0:0,0:0:0:0:
175,213,93725,2,0,P|155:157|133:131,1,93.3333333333333,2|0,0:2|0:0,0:0:0:0:
65,108,94100,1,2,0:2:0:0:
119,66,94225,1,2,0:2:0:0:
254,81,94350,5,2,0:0:0:0:
204,34,94475,2,0,B|244:36|263:57|275:80|325:47,1,93.3333333333333,2|0,0:0|0:0,0:0:0:0:
363,69,94850,1,2,0:2:0:0:
422,35,94975,2,2,P|428:24|420:8,2,23.3333333333333,2|2|2,0:2|0:2|0:2,0:2:0:0:
395,198,95225,2,0,P|406:188|441:166,1,46.6666666666667,2|0,0:2|0:0,0:0:0:0:
355,137,95475,2,0,B|330:143|315:150|303:174|262:180,1,93.3333333333333,2|0,0:2|0:0,0:0:0:0:
201,161,95850,1,2,0:0:0:0:
37,246,95975,6,0,P|56:299|64:342,1,93.3333333333333,2|0,0:2|0:0,0:0:0:0:
129,365,96350,1,2,0:2:0:0:
155,351,96475,1,2,0:2:0:0:
131,343,96600,1,2,0:2:0:0:
91,188,96725,6,0,P|100:142|116:99,1,93.3333333333333,2|0,0:0|0:0,0:0:0:0:
49,66,97100,1,2,0:2:0:0:
103,18,97225,1,2,0:2:0:0:
248,124,97350,1,2,0:2:0:0:
186,84,97475,6,0,B|221:80|228:102|262:121|282:106,1,93.3333333333333,4|0,1:0|0:0,0:0:0:0:
340,79,97850,1,0,0:0:0:0:
384,136,97975,2,0,P|366:176|366:195,1,46.6666666666667,2|0,0:0|0:0,0:0:0:0:
496,253,98225,1,2,0:2:0:0:
496,253,98287,2,0,P|453:264|424:294,1,70,2|0,0:2|0:0,0:0:0:0:
364,310,98600,2,0,P|326:297|301:292,1,46.6666666666667,2|0,0:0|0:0,0:0:0:0:
40,325,98850,5,2,0:0:0:0:
98,286,98975,2,0,B|131:294|148:307|160:328|194:324,1,93.3333333333333,2|0,0:2|0:0,0:0:0:0:
10,156,99350,1,2,0:2:0:0:
54,215,99475,2,0,P|37:273|35:294,1,46.6666666666667,2|0,0:2|0:0,0:0:0:0:
242,44,99725,2,0,P|164:55|124:74,1,93.3333333333333,2|0,0:2|0:0,0:0:0:0:
96,114,100100,1,2,0:2:0:0:
40,63,100225,1,2,0:2:0:0:
221,177,100350,1,2,0:2:0:0:
149,181,100475,6,0,P|207:206|243:256,1,93.3333333333333,2|0,0:3|0:0,0:0:0:0:
258,291,100850,1,2,0:2:0:0:
327,317,100975,1,2,0:2:0:0:
377,269,101100,1,2,0:2:0:0:
377,269,101162,1,2,0:2:0:0:
377,269,101225,2,0,P|363:201|361:136,2,93.3333333333333,2|2|2,0:2|0:0|0:0,0:0:0:0:
437,316,101850,1,2,0:0:0:0:
494,231,101975,5,2,0:0:0:0:
258,34,102350,5,2,0:0:0:0:
56,187,102600,5,2,0:0:0:0:
56,187,102725,1,2,0:0:0:0:
256,357,102975,6,0,P|248:335|241:297,1,46.6666666666667,2|0,0:2|0:0,0:0:0:0:
356,108,103225,6,0,P|378:88|420:64,1,46.6666666666667,2|0,0:2|0:0,0:0:0:0:
469,45,103475,5,4,1:2:0:0:
497,80,103600,1,2,0:2:0:0:
474,117,103725,1,2,0:2:0:0:
496,150,103850,1,2,0:2:0:0:
473,179,103975,1,2,0:2:0:0:
493,217,104100,1,2,0:2:0:0:
314,200,104225,5,2,0:0:0:0:
342,235,104350,1,2,0:2:0:0:
319,272,104475,1,2,0:2:0:0:
341,305,104600,1,2,0:2:0:0:
318,334,104725,1,2,0:2:0:0:
338,372,104850,1,2,0:2:0:0:
234,265,104975,5,2,0:0:0:0:
196,248,105100,1,2,0:2:0:0:
163,276,105225,1,2,0:2:0:0:
118,236,105350,1,2,0:2:0:0:
60,274,105475,1,2,0:2:0:0:
1,239,105600,1,2,0:2:0:0:
0,247,105725,5,2,0:0:0:0:
59,282,105850,1,2,0:2:0:0:
117,244,105975,1,2,0:2:0:0:
162,284,106100,1,2,0:2:0:0:
195,256,106225,1,2,0:2:0:0:
126,95,106350,5,2,0:0:0:0:
80,145,106475,2,0,P|70:159|54:199,1,46.6666666666667,2|0,0:0|0:0,0:0:0:0:
78,45,106725,2,0,P|53:24|19:14,1,46.6666666666667,2|0,0:0|0:0,0:0:0:0:
197,94,106975,2,0,P|238:95|276:75,1,46.6666666666667,2|0,0:0|0:0,0:0:0:0:
443,68,107225,6,0,P|451:44|488:14,1,46.6666666666667,2|0,0:0|0:0,0:0:0:0:
385,180,107475,2,0,P|365:160|350:119,1,46.6666666666667,2|0,0:0|0:0,0:0:0:0:
477,155,107725,1,2,0:0:0:0:
368,337,107850,5,2,0:2:0:0:
315,283,107975,2,0,P|369:269|429:261,1,93.3333333333333,2|0,0:0|0:0,0:0:0:0:
149,312,108350,1,0,0:0:0:0:
217,260,108475,2,0,P|225:302|230:332,1,46.6666666666667,2|0,0:2|0:0,0:0:0:0:
69,355,108725,2,0,P|64:319|58:285,1,46.6666666666667,2|0,0:2|0:0,0:0:0:0:
37,164,108975,1,2,0:2:0:0:
37,164,109350,5,2,0:0:0:0:
169,190,109475,5,4,1:0:0:0:
135,173,109600,1,2,0:2:0:0:
168,181,109725,5,2,0:2:0:0:
134,164,109850,1,2,0:2:0:0:
167,172,109975,5,2,0:2:0:0:
133,155,110100,1,2,0:2:0:0:
314,147,110225,5,2,0:0:0:0:
254,116,110350,1,2,0:0:0:0:
374,121,110475,2,0,P|411:142|458:194,1,93.3333333333333,2|0,0:0|0:0,0:0:0:0:
85,8,110850,5,2,0:0:0:0:
144,42,110975,1,2,0:0:0:0:
117,73,111100,1,2,0:2:0:0:
163,122,111225,1,2,0:2:0:0:
134,141,111350,1,2,0:2:0:0:
159,179,111475,1,2,0:2:0:0:
183,154,111600,1,2,0:2:0:0:
123,245,111725,1,2,0:0:0:0:
153,269,111850,1,2,0:2:0:0:
120,264,111975,1,2,0:2:0:0:
147,250,112100,1,2,0:2:0:0:
136,276,112225,1,2,0:2:0:0:
98,382,112350,5,2,0:0:0:0:
17,308,112475,2,0,P|47:311|82:325,1,46.6666666666667,2|0,0:2|0:0,0:0:0:0:
224,343,112725,2,0,P|193:349|161:364,1,46.6666666666667,2|0,0:2|0:0,0:0:0:0:
282,284,112975,2,0,B|345:288|393:330|419:366|475:349,1,186.666666666667,2|0,0:2|0:0,0:0:0:0:
495,301,113600,1,2,0:2:0:0:
450,246,113725,1,2,0:2:0:0:
285,177,113850,5,2,0:2:0:0:
317,65,113975,2,0,P|350:135|374:246,1,186.666666666667,2|0,0:0|0:0,0:0:0:0:
398,52,114600,1,2,0:0:0:0:
423,119,114725,2,0,P|453:157|496:182,2,93.3333333333333,2|2|2,0:0|0:0|0:0,0:0:0:0:
149,103,115350,5,2,0:0:0:0:
213,60,115475,1,2,0:0:0:0:
187,47,115600,1,2,0:2:0:0:
209,27,115725,1,2,0:2:0:0:
234,44,115850,1,2,0:2:0:0:
213,71,115975,1,2,0:2:0:0:
191,53,116100,1,2,0:2:0:0:
248,222,116225,5,2,0:0:0:0:
212,210,116350,1,2,0:2:0:0:
201,170,116475,1,2,0:2:0:0:
223,140,116600,1,2,0:2:0:0:
284,162,116725,1,2,0:2:0:0:
218,317,116850,5,2,0:0:0:0:
152,286,116975,2,0,P|104:292|45:305,2,93.3333333333333,2|2|2,0:0|0:0|0:0,0:0:0:0:
394,300,117975,6,0,P|382:316|371:354,1,46.6666666666667,2|2,0:2|0:2,0:0:0:0:
377,228,118225,2,0,P|344:247|328:259,1,46.6666666666667,2|2,0:2|0:2,0:0:0:0:
430,164,118475,6,0,B|458:159,4,28,4|2|2|2|2,1:0|0:2|0:2|0:2|0:2,0:0:0:0:
363,140,118975,5,4,0:0:0:0:
332,123,119075,1,2,0:2:0:0:
288,142,119175,1,2,0:2:0:0:
253,183,119275,1,2,0:2:0:0:
197,206,119375,1,2,0:2:0:0:
134,195,119475,5,4,0:0:0:0:
93,146,119575,1,2,0:2:0:0:
106,81,119675,1,2,0:2:0:0:
161,46,119775,1,2,0:2:0:0:
226,58,119875,1,2,0:2:0:0:
279,102,119975,6,0,P|280:119|286:149,2,28,6|2|2,0:0|0:2|0:2,0:0:0:0:
336,232,120275,2,0,P|333:252|339:274,1,28,2|2,0:2|0:2,0:0:0:0:
248,331,120475,5,4,0:0:0:0:
187,349,120575,1,2,0:2:0:0:
144,332,120675,1,2,0:2:0:0:
136,307,120775,1,2,0:2:0:0:
143,291,120875,1,2,0:2:0:0:
103,294,120975,5,4,0:0:0:0:
124,249,121075,1,2,0:2:0:0:
108,209,121175,1,2,0:2:0:0:
76,192,121275,1,2,0:2:0:0:
53,196,121375,1,2,0:2:0:0:
44,204,121475,6,0,P|38:225|36:244,2,28,4|2|2,1:0|0:2|0:2,0:0:0:0:
27,75,121775,2,0,P|22:94|22:110,1,28,2|2,0:2|0:2,0:0:0:0:
149,40,121975,5,4,0:0:0:0:
175,36,122075,1,2,0:2:0:0:
208,50,122175,1,2,0:2:0:0:
226,87,122275,1,2,0:2:0:0:
202,129,122375,1,2,0:2:0:0:
239,124,122475,5,4,0:0:0:0:
225,149,122575,1,2,0:2:0:0:
228,186,122675,1,2,0:2:0:0:
265,218,122775,1,2,0:2:0:0:
319,219,122875,1,2,0:2:0:0:
369,175,122975,5,4,0:0:0:0:
425,212,123075,1,2,0:2:0:0:
375,170,123175,1,2,0:2:0:0:
370,129,123275,1,2,0:2:0:0:
384,109,123375,1,2,0:2:0:0:
412,108,123475,6,0,P|429:112|446:119,2,28,4|2|2,0:0|0:2|0:2,0:0:0:0:
363,277,123775,2,0,P|379:281|399:290,1,28,2|2,0:2|0:2,0:0:0:0:
319,330,123975,5,4,0:0:0:0:
284,305,124075,1,2,0:2:0:0:
226,331,124175,1,2,0:2:0:0:
191,282,124275,1,2,0:2:0:0:
126,302,124375,1,2,0:2:0:0:
118,295,124475,6,0,P|106:313|103:332,4,28,4|2|2|2|2,1:0|0:2|0:2|0:2|0:2,0:0:0:0:
90,201,124975,5,4,0:0:0:0:
126,120,125141,1,2,0:0:0:0:
49,77,125308,1,2,0:0:0:0:
131,31,125475,5,4,0:0:0:0:
187,70,125600,1,2,0:0:0:0:
258,80,125725,1,2,0:0:0:0:
326,56,125850,1,2,0:0:0:0:
381,15,125975,5,4,0:0:0:0:
402,49,126075,1,2,0:0:0:0:
436,69,126175,1,2,0:0:0:0:
474,70,126275,1,2,0:0:0:0:
509,49,126375,1,2,0:0:0:0:
506,127,126475,6,0,P|500:139|494:161,2,23.3333333333333,4|2|2,0:0|0:2|0:2,0:0:0:0:
426,185,126725,6,0,P|432:197|438:219,2,23.3333333333333,2|2|2,0:2|0:2|0:2,0:0:0:0:
365,249,126975,5,4,0:0:0:0:
355,256,127058,1,2,0:2:0:0:
348,265,127141,1,2,0:2:0:0:
342,275,127224,1,2,0:2:0:0:
338,285,127308,1,2,0:2:0:0:
336,297,127391,1,2,0:2:0:0:
336,311,127475,6,0,P|340:326|333:344,2,23.3333333333333,4|2|2,1:0|0:2|0:2,0:0:0:0:
423,347,127725,2,0,P|410:358|406:369,2,23.3333333333333,2|2|2,0:2|0:2|0:2,0:0:0:0:
264,332,127975,5,2,0:2:0:0:
230,318,128058,1,2,0:2:0:0:
192,323,128141,1,2,0:2:0:0:
153,347,128225,1,2,0:2:0:0:
115,353,128308,1,2,0:2:0:0:
92,343,128391,1,2,0:2:0:0:
87,332,128475,5,4,0:0:0:0:
123,337,128558,1,2,0:0:0:0:
156,318,128642,1,2,0:0:0:0:
168,284,128725,2,0,P|164:265|152:254,2,23.3333333333333,2|2|2,0:0|0:0|0:0,0:0:0:0:
240,252,128975,5,4,1:0:0:0:
201,195,129100,1,0,0:0:0:0:
88,219,129225,1,0,0:0:0:0:
195,200,129350,5,4,0:2:0:0:
219,130,129475,1,0,0:0:0:0:
328,98,129600,1,0,0:0:0:0:
209,128,129725,5,4,1:0:0:0:
191,63,129850,1,0,0:0:0:0:
78,49,129975,1,0,0:0:0:0:
196,67,130100,5,4,0:2:0:0:
230,6,130225,1,0,0:0:0:0:
344,0,130350,1,0,0:0:0:0:
396,42,130475,6,0,B|386:62|386:62|405:126,1,70,4|0,1:0|0:0,0:0:0:0:
225,290,130725,2,0,L|246:376,1,70,2|0,0:0|0:0,0:0:0:0:
44,252,130975,5,4,0:0:0:0:
121,226,131100,5,2,0:0:0:0:
111,289,131225,1,2,0:0:0:0:
118,217,131350,1,2,0:0:0:0:
189,189,131475,5,4,0:0:0:0:
123,290,131600,5,2,0:0:0:0:
107,219,131725,1,2,0:0:0:0:
134,291,131850,1,2,0:0:0:0:
67,342,131975,5,4,0:0:0:0:
147,290,132100,5,2,0:0:0:0:
98,223,132225,1,2,0:0:0:0:
155,291,132350,1,2,0:0:0:0:
244,309,132475,5,4,0:0:0:0:
292,258,132600,6,0,L|301:225,2,35,2|2|2,0:2|0:0|0:0,0:0:0:0:
356,294,132850,1,2,0:0:0:0:
414,252,132975,2,0,B|432:260|432:260|457:325,1,70,4|2,0:0|0:0,0:0:0:0:
487,203,133225,2,0,L|505:125,1,70,2|2,0:0|0:0,0:0:0:0:
53,56,133475,6,0,B|40:76|40:76|64:142,1,70,4|0,1:0|0:0,0:0:0:0:
356,183,133725,2,0,B|369:163|369:163|345:97,1,70,2|0,0:0|0:0,0:0:0:0:
218,247,133975,5,4,0:0:0:0:
141,273,134100,5,2,0:0:0:0:
151,210,134225,1,2,0:0:0:0:
144,282,134350,1,2,0:0:0:0:
73,310,134475,5,4,0:0:0:0:
139,209,134600,5,2,0:0:0:0:
155,280,134725,1,2,0:0:0:0:
128,208,134850,1,2,0:0:0:0:
195,157,134975,5,4,0:0:0:0:
115,209,135100,5,2,0:0:0:0:
164,276,135225,1,2,0:0:0:0:
107,208,135350,1,2,0:0:0:0:
24,189,135475,5,6,0:0:0:0:
7,158,135558,1,2,0:0:0:0:
7,120,135641,1,2,0:0:0:0:
22,89,135725,1,2,0:0:0:0:
73,33,135850,1,2,0:0:0:0:
152,43,135975,6,0,B|172:46|172:46|225:87,1,70,4|2,0:0|0:0,0:0:0:0:
396,72,136225,2,0,L|503:58,1,70,2|2,0:0|0:0,0:0:0:0:
445,342,136475,6,0,L|208:374,1,210,4|0,1:0|0:0,0:0:0:0:
512,292,136975,5,4,0:0:0:0:
447,228,137100,5,2,0:0:0:0:
382,222,137225,1,2,0:0:0:0:
318,217,137350,1,2,0:0:0:0:
298,108,137475,5,4,0:0:0:0:
249,170,137600,5,2,0:0:0:0:
184,176,137725,1,2,0:0:0:0:
121,182,137850,1,2,0:0:0:0:
20,281,137975,5,4,0:0:0:0:
98,256,138100,5,2,0:0:0:0:
163,262,138225,1,2,0:0:0:0:
227,267,138350,1,2,0:0:0:0:
247,376,138475,5,4,0:0:0:0:
296,314,138600,5,2,0:0:0:0:
361,308,138725,1,2,0:0:0:0:
424,302,138850,1,2,0:0:0:0:
442,223,138975,6,0,B|494:233|494:233|519:264,1,70,4|2,0:0|0:0,0:0:0:0:
88,118,139225,2,0,L|-3:128,1,70,2|2,0:0|0:0,0:0:0:0:
28,15,139475,5,4,1:0:0:0:
101,27,139600,1,0,0:0:0:0:
32,28,139725,1,0,0:0:0:0:
184,54,139850,5,4,0:2:0:0:
110,38,139975,1,0,0:0:0:0:
181,69,140100,1,0,0:0:0:0:
314,56,140225,5,4,1:0:0:0:
252,80,140350,1,0,0:0:0:0:
322,64,140475,1,0,0:0:0:0:
442,23,140600,5,4,0:2:0:0:
393,65,140725,1,0,0:0:0:0:
449,31,140850,1,0,0:0:0:0:
509,94,140975,5,4,1:0:0:0:
467,152,141100,1,0,0:0:0:0:
348,205,141225,1,0,0:0:0:0:
396,147,141350,5,4,0:2:0:0:
356,212,141475,1,0,0:0:0:0:
218,221,141600,1,0,0:0:0:0:
284,180,141725,5,4,1:0:0:0:
211,210,141850,1,0,0:0:0:0:
95,173,141975,1,0,0:0:0:0:
164,155,142100,5,4,0:2:0:0:
87,165,142225,1,0,0:0:0:0:
2,257,142350,1,2,0:2:0:0:
480,363,142975,5,2,0:2:0:0:
256,192,143100,12,0,148475,0:0:0:0:
