osu file format v14

[General]
AudioFilename: audio.mp3
AudioLeadIn: 0
PreviewTime: 40475
Countdown: 0
SampleSet: Drum
StackLeniency: 0.7
Mode: 0
LetterboxInBreaks: 0
WidescreenStoryboard: 1

[Editor]
DistanceSpacing: 1.6
BeatDivisor: 6
GridSize: 32
TimelineZoom: 1.4

[Metadata]
Title:Inertia Split
TitleUnicode:Inertia Split
Artist:Aethoro
ArtistUnicode:Aethoro
Creator:LMT
Version:Normal
Source:Corsace Open 2023
Tags:co23 ro hr2 vinxis mishima yurara instrumental electronic featured artist fa epic Corsace Open 2023: Penance
BeatmapID:4266219
BeatmapSetID:2044069

[Difficulty]
HPDrainRate:5
CircleSize:3
OverallDifficulty:4
ApproachRate:6
SliderMultiplier:1
SliderTickRate:1

[Events]
//Background and Video events
0,0,"final_-_full_res.jpg",0,0
//Break Periods
2,67675,71600
2,73675,77925
2,79675,89787
//Storyboard Layer 0 (Background)
//Storyboard Layer 1 (Fail)
//Storyboard Layer 2 (Pass)
//Storyboard Layer 3 (Foreground)
//Storyboard Layer 4 (Overlay)
//Storyboard Sound Samples

[TimingPoints]
2975,750,4,3,0,50,1,0
26975,500,4,3,0,50,1,0
38975,500,3,3,0,50,1,0
40475,500,6,3,0,50,1,0
40475,-100,6,3,0,50,0,0
52475,500,3,3,0,50,1,0
53975,500,6,3,0,50,1,0
53975,-100,6,3,0,50,0,0
65975,500,3,3,0,50,1,0
67475,750,4,3,0,40,1,0
67475,-100,4,3,0,40,0,0
91475,-100,4,3,0,50,0,0
118475,500,6,3,0,50,1,0
128975,-100,6,3,0,50,0,0
148475,-100,6,3,0,5,0,0

[Colours]
Combo1 : 196,98,0
Combo2 : 128,128,255
Combo3 : 128,128,192
Combo4 : 255,128,64

[HitObjects]
150,159,26975,6,0,P|134:193|128:268,1,100,2|0,0:0|0:0,0:0:0:0:
262,337,27975,1,4,0:0:0:0:
376,241,28475,1,0,1:0:0:0:
282,120,28975,6,0,P|274:171|274:242,1,100,4|4,0:0|0:0,0:0:0:0:
208,268,29725,1,2,0:0:0:0:
138,228,29975,1,4,0:0:0:0:
168,81,30475,1,4,0:0:0:0:
307,27,30975,1,4,0:0:0:0:
404,140,31475,1,4,0:0:0:0:
353,299,31975,1,0,0:0:0:0:
353,299,32100,2,0,P|394:287|439:284,1,75,2|4,0:0|0:0,0:0:0:0:
274,232,32975,6,0,P|207:252|160:277,2,100,0|0|4,1:0|0:0|3:0,0:0:0:0:
133,155,34475,1,4,3:0:0:0:
242,41,34975,2,0,P|256:94|267:149,1,100,4|4,0:0|0:0,0:0:0:0:
335,177,35725,1,2,0:0:0:0:
410,149,35975,5,4,0:0:0:0:
444,305,36475,1,4,0:0:0:0:
503,156,36975,1,4,0:0:0:0:
467,0,37475,1,4,0:0:0:0:
312,25,37975,2,0,P|291:77|277:131,1,100,0|4,0:0|0:0,0:0:0:0:
244,275,38975,5,4,0:0:0:0:
150,350,39350,5,4,0:0:0:0:
41,280,39725,5,4,0:0:0:0:
82,167,40100,5,4,0:0:0:0:
201,162,40475,5,4,1:0:0:0:
354,208,40975,6,0,P|396:193|468:183,1,100,4|4,0:0|0:0,0:0:0:0:
342,65,41975,1,4,0:0:0:0:
342,65,42225,1,2,0:2:0:0:
342,65,42475,2,0,P|275:86|248:96,1,100,6|0,0:0|0:0,0:0:0:0:
107,174,43475,6,0,P|92:241|84:295,2,100,4|4|4,1:0|0:0|0:0,0:0:0:0:
249,246,44975,1,4,0:0:0:0:
249,246,45225,1,2,0:2:0:0:
249,246,45475,2,0,P|239:308|235:354,1,100,2|4,0:0|0:0,0:0:0:0:
393,372,46475,6,0,P|406:302|416:258,1,100,4|4,1:0|0:0,0:0:0:0:
352,124,47475,2,0,P|343:162|329:240,1,100,4|4,0:0|0:0,0:0:0:0:
257,252,48225,1,2,0:2:0:0:
182,221,48475,2,0,B|140:218|127:220|108:238|78:232,1,100,6|4,0:0|0:0,0:0:0:0:
11,90,49475,6,0,P|77:73|120:66,1,100,4|4,1:0|0:0,0:0:0:0:
265,100,50475,2,0,P|253:135|246:160,1,50,4|2,0:0|0:2,0:0:0:0:
325,172,50975,2,0,P|315:206|311:232,1,50,4|2,0:0|0:2,0:0:0:0:
387,248,51475,2,0,P|428:268|489:243,1,100,2|4,0:0|0:0,0:0:0:0:
472,93,52475,5,4,0:0:0:0:
374,22,52850,5,4,0:0:0:0:
254,12,53225,5,4,0:0:0:0:
141,52,53600,5,4,0:0:0:0:
60,140,53975,5,4,1:0:0:0:
130,283,54475,6,0,P|179:302|196:313,1,50,6|2,0:0|0:0,0:0:0:0:
245,260,54975,2,0,P|272:285|294:306,1,50,4|0,0:0|0:0,0:0:0:0:
363,270,55475,1,4,0:0:0:0:
363,270,55725,1,0,0:0:0:0:
363,270,55975,2,0,P|416:288|450:317,2,100,2|4|4,0:0|0:0|1:0,0:0:0:0:
369,109,57475,6,0,P|388:89|416:66,1,50,6|2,0:0|0:0,0:0:0:0:
342,22,57975,2,0,P|319:47|268:103,1,100,4|4,0:0|0:0,0:0:0:0:
136,176,58975,2,0,P|132:207|127:232,1,50,6|2,0:0|0:0,0:0:0:0:
48,217,59475,2,0,P|40:255|35:283,1,50,4|2,0:0|0:2,0:0:0:0:
99,317,59975,6,0,P|129:323|203:354,2,100,4|4|4,0:0|0:0|0:0,0:0:0:0:
208,200,61475,1,4,0:0:0:0:
251,266,61725,1,2,0:0:0:0:
320,225,61975,2,0,P|352:229|424:255,1,100,6|4,0:0|0:0,0:0:0:0:
506,118,62975,5,4,1:0:0:0:
380,19,63475,2,0,P|361:51|355:64,1,50,6|2,0:0|0:0,0:0:0:0:
276,73,63975,2,0,P|263:113|251:182,1,100,4|4,0:0|0:0,0:0:0:0:
187,217,64725,1,2,0:0:0:0:
109,197,64975,2,0,P|51:204|-8:216,1,100,6|4,0:0|0:0,0:0:0:0:
120,328,65975,5,4,0:0:0:0:
233,365,66350,5,4,0:0:0:0:
350,342,66725,5,4,0:0:0:0:
432,255,67100,5,4,0:0:0:0:
429,138,67475,5,4,1:0:0:0:
241,171,72975,6,0,L|243:208,2,33.3333333333333,2|2|0,0:0|0:0|0:0,0:0:0:0:
242,170,78975,6,0,L|248:209,2,33.3333333333333,2|2|0,0:0|0:0|0:0,0:0:0:0:
75,233,90975,5,2,0:2:0:0:
181,231,91475,6,0,P|221:245|274:279,1,100,4|2,1:0|0:2,0:0:0:0:
403,250,92850,1,2,0:0:0:0:
403,250,92975,2,0,P|444:299|464:341,1,100,2|2,0:2|0:2,0:0:0:0:
459,166,94350,5,2,0:0:0:0:
459,166,94475,2,0,P|479:83|490:49,1,100,2|2,0:0|0:2,0:0:0:0:
363,132,95850,1,2,0:0:0:0:
363,132,95975,2,0,P|317:91|275:68,1,100,2|2,0:2|0:0,0:0:0:0:
168,182,97350,5,2,0:2:0:0:
168,182,97475,2,0,P|106:191|64:207,1,100,4|2,1:0|0:2,0:0:0:0:
183,285,98850,1,2,0:0:0:0:
183,285,98975,2,0,P|226:300|275:327,1,100,2|2,0:2|0:2,0:0:0:0:
426,185,100350,5,2,0:2:0:0:
426,185,100475,2,0,P|408:214|382:286,1,100,2|2,0:3|0:2,0:0:0:0:
259,86,101850,1,2,0:0:0:0:
259,86,101975,2,0,P|282:132|300:188,1,100,2|2,0:0|0:0,0:0:0:0:
195,301,103475,6,0,P|136:305|92:318,1,100,4|2,1:2|0:0,0:0:0:0:
124,158,104975,2,0,P|63:187|33:209,1,100,2|2,0:0|0:0,0:0:0:0:
222,130,106475,5,2,0:0:0:0:
275,135,106725,1,2,0:0:0:0:
321,160,106975,1,2,0:0:0:0:
350,204,107225,2,0,P|363:244|377:311,2,100,2|2|2,0:0|0:0|0:2,0:0:0:0:
445,75,109475,6,0,P|463:49|442:17,1,66.6666666666667,4|2,1:0|0:2,0:0:0:0:
395,15,110225,2,0,B|342:16|329:33|318:56|231:55,1,166.666666666667,2|2,0:0|0:2,0:0:0:0:
188,29,111725,1,2,0:0:0:0:
47,105,112475,5,2,0:2:0:0:
98,119,112725,1,2,0:2:0:0:
141,149,112975,2,0,B|165:136|198:144|210:181|236:203|267:177,1,133.333333333333,2|2,0:2|0:0,0:0:0:0:
416,148,114725,1,2,0:0:0:0:
477,295,115475,5,2,0:0:0:0:
385,349,115975,1,2,0:2:0:0:
351,307,116225,1,2,0:0:0:0:
245,320,116725,1,2,0:2:0:0:
206,283,116975,1,2,0:0:0:0:
99,283,117475,5,2,0:0:0:0:
99,283,118475,6,0,P|60:252|46:204,1,100,4|4,1:0|0:0,0:0:0:0:
141,76,119475,2,0,P|144:110|147:142,1,50,4|0,0:0|0:0,0:0:0:0:
200,184,119975,2,0,P|240:186|309:209,1,100,6|4,0:0|0:0,0:0:0:0:
392,276,120850,1,0,0:0:0:0:
392,276,120975,2,0,P|400:320|403:342,1,50,4|0,0:0|0:0,0:0:0:0:
480,321,121475,6,0,P|488:245|496:210,1,100,4|4,1:0|0:0,0:0:0:0:
422,78,122475,2,0,P|415:111|412:136,1,50,4|0,0:0|0:0,0:0:0:0:
333,116,122975,2,0,P|277:112|257:68,1,100,4|4,0:0|0:0,0:0:0:0:
146,31,123850,1,0,0:0:0:0:
146,31,123975,2,0,P|149:71|150:96,1,50,4|0,0:0|0:0,0:0:0:0:
89,134,124475,1,4,1:0:0:0:
17,277,124975,6,0,P|8:307|7:340,1,50,4|0,0:0|0:0,0:0:0:0:
86,326,125475,2,0,P|120:362|169:356,1,100,4|4,0:0|0:0,0:0:0:0:
330,289,126475,1,4,0:0:0:0:
433,314,126850,1,0,0:0:0:0:
433,314,126975,2,0,P|452:278|471:259,1,50,4|2,0:0|0:2,0:0:0:0:
500,203,127475,2,0,P|494:150|449:128,2,100,4|2|4,1:0|0:2|0:0,0:0:0:0:
396,325,128975,5,4,1:0:0:0:
279,356,129350,5,4,0:2:0:0:
159,357,129725,5,4,1:0:0:0:
54,298,130100,5,4,0:2:0:0:
12,185,130475,5,4,1:0:0:0:
34,16,130975,6,0,P|64:37|85:54,1,50,4|2,0:0|0:0,0:0:0:0:
154,39,131475,2,0,P|171:61|187:91,1,50,4|2,0:0|0:0,0:0:0:0:
248,124,131975,2,0,P|280:92|302:79,1,50,4|2,0:0|0:0,0:0:0:0:
359,115,132475,2,0,P|393:96|420:92,1,50,4|2,0:0|0:0,0:0:0:0:
461,148,132975,2,0,P|482:158|511:174,1,50,4|2,0:0|0:0,0:0:0:0:
512,253,133475,1,4,1:0:0:0:
421,373,133975,6,0,P|382:377|364:387,1,50,4|2,0:0|0:0,0:0:0:0:
309,331,134475,2,0,P|274:330|243:339,1,50,4|2,0:0|0:0,0:0:0:0:
185,302,134975,2,0,P|146:306|120:300,1,50,4|2,0:0|0:0,0:0:0:0:
59,278,135475,1,6,0:0:0:0:
13,212,135725,1,2,0:0:0:0:
18,132,135975,1,4,0:0:0:0:
64,66,136225,1,2,0:0:0:0:
141,45,136475,1,4,1:0:0:0:
266,143,136975,6,0,P|298:156|324:175,1,50,4|2,0:0|0:0,0:0:0:0:
389,147,137475,2,0,P|418:176|434:201,1,50,4|2,0:0|0:0,0:0:0:0:
498,211,137975,2,0,P|505:245|504:269,1,50,4|2,0:0|0:0,0:0:0:0:
454,322,138475,1,4,0:0:0:0:
384,361,138725,1,2,0:0:0:0:
305,375,138975,1,4,0:0:0:0:
225,371,139225,1,2,0:0:0:0:
167,315,139475,5,4,1:0:0:0:
91,221,139850,5,4,0:2:0:0:
119,104,140225,5,4,1:0:0:0:
211,28,140600,5,4,0:2:0:0:
330,30,140975,5,4,1:0:0:0:
439,79,141350,5,4,0:2:0:0:
494,185,141725,5,4,1:0:0:0:
458,299,142100,6,0,P|471:321|485:353,1,50,4|2,0:2|0:2,0:0:0:0:
282,369,142975,5,2,0:2:0:0:
256,192,143225,12,0,148475,0:0:0:0:
