osu file format v14

[General]
AudioFilename: audio.mp3
AudioLeadIn: 0
PreviewTime: 40475
Countdown: 0
SampleSet: Drum
StackLeniency: 0.7
Mode: 0
LetterboxInBreaks: 0
WidescreenStoryboard: 1

[Editor]
DistanceSpacing: 1.6
BeatDivisor: 4
GridSize: 32
TimelineZoom: 1.4

[Metadata]
Title:Inertia Split
TitleUnicode:Inertia Split
Artist:Aethoro
ArtistUnicode:Aethoro
Creator:LMT
Version:Hard
Source:Corsace Open 2023
Tags:co23 ro hr2 vinxis mishima yurara instrumental electronic featured artist fa epic Corsace Open 2023: Penance
BeatmapID:4266218
BeatmapSetID:2044069

[Difficulty]
HPDrainRate:5
CircleSize:4
OverallDifficulty:6
ApproachRate:8
SliderMultiplier:1.4
SliderTickRate:1

[Events]
//Background and Video events
0,0,"final_-_full_res.jpg",0,0
//Break Periods
2,67675,72225
2,73675,78225
2,79675,90725
//Storyboard Layer 0 (Background)
//Storyboard Layer 1 (Fail)
//Storyboard Layer 2 (Pass)
//Storyboard Layer 3 (Foreground)
//Storyboard Layer 4 (Overlay)
//Storyboard Sound Samples

[TimingPoints]
2975,750,4,3,0,50,1,0
26975,500,4,3,0,50,1,0
38975,500,3,3,0,50,1,0
40475,500,6,3,0,50,1,0
52475,500,3,3,0,50,1,0
53975,500,6,3,0,50,1,0
65975,500,3,3,0,50,1,0
67475,750,4,3,0,40,1,0
67475,-100,4,3,0,40,0,0
118475,500,6,3,0,50,1,0
148475,-100,6,3,0,5,0,0

[Colours]
Combo1 : 196,98,0
Combo2 : 128,128,255
Combo3 : 128,128,192
Combo4 : 255,128,64

[HitObjects]
167,121,26975,6,0,P|144:166|136:202,1,70,2|0,0:0|0:0,0:0:0:0:
153,214,27350,2,0,P|166:229|162:259,1,35,2|0,0:0|0:0,0:0:0:0:
372,353,27975,1,4,0:0:0:0:
385,319,28100,1,2,0:0:0:0:
397,288,28225,1,0,0:0:0:0:
328,215,28475,1,0,1:0:0:0:
408,144,28725,5,2,0:2:0:0:
398,103,28850,1,2,0:2:0:0:
388,64,28975,2,0,P|416:22|482:40,1,105,4|2,0:0|0:0,0:0:0:0:
498,51,29475,1,4,0:0:0:0:
505,141,29725,1,2,0:0:0:0:
511,229,29975,5,4,0:0:0:0:
505,226,30475,1,4,0:0:0:0:
499,233,30975,1,4,0:0:0:0:
507,218,31475,1,4,0:0:0:0:
314,197,31975,5,0,0:0:0:0:
314,197,32100,2,0,P|264:219|217:251,1,105,2|4,0:0|0:0,0:0:0:0:
197,272,32600,1,0,1:0:0:0:
162,282,32725,1,0,1:0:0:0:
123,270,32850,1,0,1:0:0:0:
101,235,32975,2,0,P|63:206|30:207,1,70,0|0,1:0|0:0,0:0:0:0:
3,222,33350,2,0,P|-2:239|10:262,1,35,2|0,0:0|0:0,0:0:0:0:
142,98,33975,6,0,P|175:71|293:76,1,140,4|0,0:0|0:0,0:0:0:0:
331,134,34725,1,2,0:0:0:0:
366,151,34850,1,2,0:0:0:0:
399,135,34975,2,0,P|444:128|507:146,1,105,4|2,0:0|0:2,0:0:0:0:
509,187,35475,2,0,P|488:236|480:277,1,70,4|2,0:0|0:0,0:0:0:0:
494,342,35975,1,4,0:0:0:0:
485,334,36475,1,4,0:0:0:0:
499,334,36975,1,4,0:0:0:0:
487,346,37475,1,4,0:0:0:0:
317,267,37975,5,0,0:0:0:0:
317,267,38100,2,0,P|267:285|244:280,1,70,2|0,0:0|0:0,0:0:0:0:
213,254,38475,2,0,P|200:221|166:183,1,70,0|4,0:0|0:0,0:0:0:0:
84,200,38975,5,4,0:0:0:0:
30,122,39225,1,0,0:0:0:0:
10,92,39350,1,4,0:0:0:0:
95,55,39600,1,0,0:0:0:0:
77,26,39725,1,4,0:0:0:0:
177,30,39975,1,0,0:0:0:0:
193,58,40100,1,4,0:0:0:0:
284,34,40350,1,0,0:0:0:0:
302,66,40475,6,0,P|329:112|427:112,1,140,4|4,1:0|0:0,0:0:0:0:
487,182,41225,1,2,0:2:0:0:
464,194,41350,1,2,0:2:0:0:
448,215,41475,1,4,0:0:0:0:
445,241,41600,1,2,0:2:0:0:
453,265,41725,1,2,0:2:0:0:
348,254,41975,2,0,P|366:297|378:335,1,70,4|2,0:0|0:2,0:0:0:0:
271,296,42475,2,0,P|231:343|174:335,1,105,6|2,0:0|0:0,0:0:0:0:
155,316,42975,2,0,P|152:265|138:230,1,70,0|4,0:0|0:0,0:0:0:0:
55,235,43475,6,0,P|31:164|80:105,1,140,4|4,1:0|0:0,0:0:0:0:
162,135,44225,1,2,0:0:0:0:
183,121,44350,1,2,0:0:0:0:
196,98,44475,1,4,0:0:0:0:
197,72,44600,1,2,0:2:0:0:
186,49,44725,1,2,0:2:0:0:
269,13,44975,2,0,P|308:46|352:39,1,70,4|2,0:0|0:2,0:0:0:0:
413,7,45475,2,0,P|416:58|411:124,1,105,2|2,0:0|0:0,0:0:0:0:
410,145,45975,2,0,P|464:153|497:170,1,70,4|2,0:0|0:0,0:0:0:0:
382,229,46475,6,0,P|348:267|248:258,1,140,4|4,1:0|0:0,0:0:0:0:
167,302,47225,1,2,0:2:0:0:
165,276,47350,1,2,0:2:0:0:
151,254,47475,1,4,0:0:0:0:
127,243,47600,1,2,0:2:0:0:
102,246,47725,1,2,0:2:0:0:
28,200,47975,2,0,P|15:150|31:120,1,70,4|2,0:0|0:2,0:0:0:0:
95,72,48475,2,0,P|141:68|223:64,1,105,6|2,0:0|0:0,0:0:0:0:
243,86,48975,2,0,P|233:138|233:166,1,70,0|4,0:0|0:0,0:0:0:0:
318,205,49475,6,0,P|377:195|386:123,1,140,4|4,1:0|0:0,0:0:0:0:
362,38,50225,1,2,0:0:0:0:
381,20,50350,1,2,0:0:0:0:
405,10,50475,1,4,0:0:0:0:
431,9,50600,1,2,0:2:0:0:
456,17,50725,1,2,0:2:0:0:
509,99,50975,2,0,P|487:145|484:185,1,70,4|2,0:0|0:2,0:0:0:0:
507,247,51475,2,0,P|483:290|418:293,1,105,2|2,0:0|0:0,0:0:0:0:
409,283,51975,2,0,P|358:288|317:300,1,70,4|2,0:0|0:0,0:0:0:0:
244,308,52475,5,4,0:0:0:0:
146,292,52725,1,0,0:0:0:0:
130,264,52850,1,4,0:0:0:0:
38,220,53100,1,0,0:0:0:0:
22,191,53225,1,4,0:0:0:0:
79,108,53475,1,0,0:0:0:0:
63,80,53600,1,4,0:0:0:0:
137,25,53850,1,0,0:0:0:0:
160,58,53975,6,0,P|210:51|306:59,1,140,4|2,1:0|0:0,0:0:0:0:
359,133,54725,1,2,0:0:0:0:
389,153,54850,1,2,0:0:0:0:
418,135,54975,1,4,0:0:0:0:
486,203,55225,1,0,0:0:0:0:
415,261,55475,1,4,0:0:0:0:
318,228,55725,1,0,0:0:0:0:
301,203,55850,1,2,0:0:0:0:
263,206,55975,2,0,P|251:251|245:321,1,105,2|2,0:0|0:0,0:0:0:0:
263,347,56475,2,0,P|229:367|197:374,1,70,4|2,0:0|0:0,0:0:0:0:
148,287,56975,6,0,P|88:292|-4:346,1,140,4|2,1:0|0:0,0:0:0:0:
25,227,57725,1,2,0:0:0:0:
4,203,57850,1,2,0:0:0:0:
25,171,57975,1,4,0:0:0:0:
110,202,58225,1,2,0:0:0:0:
198,161,58475,1,4,0:0:0:0:
223,130,58600,1,2,0:2:0:0:
203,100,58725,1,2,0:2:0:0:
306,155,58975,2,0,P|318:213|364:263,1,105,2|2,0:0|0:0,0:0:0:0:
346,294,59475,2,0,P|390:295|430:323,1,70,4|2,0:0|0:2,0:0:0:0:
444,214,59975,5,4,0:0:0:0:
464,124,60225,2,0,P|490:115|511:112,2,35,2|2|4,0:0|0:0|0:0,0:0:0:0:
362,86,60725,1,2,0:2:0:0:
364,56,60850,2,0,P|372:37|388:17,1,35,2|4,0:0|0:0,0:0:0:0:
260,93,61225,1,2,0:0:0:0:
240,66,61350,2,0,P|221:52|194:41,1,35,2|4,0:0|0:0,0:0:0:0:
150,116,61725,1,2,0:0:0:0:
125,98,61850,1,2,0:0:0:0:
92,114,61975,2,0,P|108:175|111:227,1,105,2|2,0:0|0:0,0:0:0:0:
55,305,62600,5,2,0:0:0:0:
87,332,62725,1,2,0:0:0:0:
125,341,62850,1,2,0:0:0:0:
166,332,62975,2,0,P|206:323|263:321,1,70,4|0,1:0|0:0,0:0:0:0:
350,311,63475,2,0,P|343:321|342:334,3,23.3333333333333,2|2|2|2,0:0|0:0|0:0|0:0,0:0:0:0:
384,283,63850,2,0,P|399:279|444:278,1,35,2|4,0:0|0:0,0:0:0:0:
416,181,64225,1,2,0:0:0:0:
449,164,64350,2,0,P|459:165|491:173,1,35,2|4,0:0|0:0,0:0:0:0:
423,81,64725,1,2,0:0:0:0:
332,43,64975,6,0,P|284:57|254:80,1,70,2|2,0:0|0:0,0:0:0:0:
251,103,65350,1,2,0:0:0:0:
206,124,65475,1,4,0:0:0:0:
163,124,65600,1,0,0:0:0:0:
126,98,65725,1,2,0:0:0:0:
39,136,65975,5,4,0:0:0:0:
83,218,66225,1,0,0:0:0:0:
78,251,66350,1,4,0:0:0:0:
172,265,66600,1,0,0:0:0:0:
166,305,66725,1,4,0:0:0:0:
261,313,66975,1,0,0:0:0:0:
258,351,67100,1,4,0:0:0:0:
350,363,67350,1,0,0:0:0:0:
350,363,67475,5,4,1:0:0:0:
264,179,72975,6,0,L|259:219,4,23.3333333333333,2|2|2|2|2,0:0|0:0|0:0|0:0|0:0,0:0:0:0:
264,179,78975,6,0,L|259:219,4,23.3333333333333,2|2|2|2|2,0:0|0:0|0:0|0:0|0:0,0:0:0:0:
123,113,91475,6,0,P|99:130|91:195,1,93.3333333333333,4|2,1:0|0:0,0:0:0:0:
174,223,92225,2,0,P|180:260|162:299,1,70,2|2,0:2|0:0,0:0:0:0:
239,359,92850,1,2,0:0:0:0:
239,359,92975,2,0,P|276:335|326:339,1,93.3333333333333,2|0,0:2|0:0,0:0:0:0:
413,367,93725,1,2,0:2:0:0:
477,195,94350,5,2,0:0:0:0:
477,195,94475,2,0,P|439:172|435:118,1,93.3333333333333,2|2,0:0|0:2,0:0:0:0:
350,71,95225,2,0,P|331:106|333:130,1,46.6666666666667,2|2,0:2|0:2,0:0:0:0:
213,194,95850,5,2,0:0:0:0:
213,194,95975,2,0,P|174:199|122:226,1,93.3333333333333,2|2,0:2|0:2,0:0:0:0:
56,167,96725,2,0,P|60:133|43:109,1,46.6666666666667,2|0,0:0|0:0,0:0:0:0:
141,26,97350,5,2,0:2:0:0:
141,26,97475,2,0,P|178:73|220:65,1,93.3333333333333,4|2,1:0|0:0,0:0:0:0:
296,27,98225,2,0,P|307:65|313:114,1,70,2|2,0:2|0:0,0:0:0:0:
386,151,98850,1,2,0:0:0:0:
386,151,98975,2,0,P|425:144|490:147,1,93.3333333333333,2|2,0:2|0:2,0:0:0:0:
454,228,99725,2,0,P|417:235|395:230,1,46.6666666666667,2|0,0:2|0:0,0:0:0:0:
287,317,100350,5,2,0:2:0:0:
287,317,100475,2,0,P|261:291|197:279,1,93.3333333333333,2|2,0:3|0:2,0:0:0:0:
115,296,101225,2,0,P|110:323|117:354,1,46.6666666666667,2|2,0:2|0:0,0:0:0:0:
46,204,101850,1,2,0:0:0:0:
46,204,101975,2,0,P|52:139|55:122,2,70,2|2|2,0:0|0:0|0:0,0:0:0:0:
139,77,103350,5,0,0:0:0:0:
139,77,103475,2,0,P|149:93|157:110,4,23.3333333333333,4|2|2|2|2,1:2|0:2|0:2|0:2|0:2,0:0:0:0:
238,90,104225,2,0,P|239:104|233:128,4,23.3333333333333,2|2|2|2|2,0:0|0:2|0:2|0:2|0:2,0:0:0:0:
318,144,104975,1,2,0:0:0:0:
336,175,105100,1,2,0:2:0:0:
369,187,105225,1,2,0:2:0:0:
401,181,105350,1,2,0:2:0:0:
421,158,105475,1,2,0:2:0:0:
500,204,105725,2,0,P|489:215|483:233,4,23.3333333333333,2|2|2|2|2,0:0|0:2|0:2|0:2|0:2,0:0:0:0:
473,313,106475,5,2,0:0:0:0:
387,360,106725,1,2,0:0:0:0:
318,290,106975,1,2,0:0:0:0:
203,296,107225,5,2,0:0:0:0:
118,230,107475,1,2,0:0:0:0:
36,284,107725,1,2,0:0:0:0:
39,186,107975,6,0,P|32:139|30:128,2,46.6666666666667,2|0|2,0:0|0:0|0:2,0:0:0:0:
113,104,108725,2,0,P|107:61|107:43,1,46.6666666666667,2|2,0:2|0:2,0:0:0:0:
258,21,109350,5,2,0:0:0:0:
258,21,109475,2,0,P|270:39|281:56,4,23.3333333333333,4|2|2|2|2,1:0|0:2|0:2|0:2|0:2,0:0:0:0:
355,32,110225,2,0,P|356:46|350:70,4,23.3333333333333,2|2|2|0|0,0:0|0:0|0:0|0:0|0:0,0:0:0:0:
295,122,110975,1,2,0:0:0:0:
277,153,111100,1,2,0:2:0:0:
244,165,111225,1,2,0:2:0:0:
212,159,111350,1,2,0:2:0:0:
192,136,111475,1,2,0:2:0:0:
198,234,111725,2,0,P|187:245|181:263,4,23.3333333333333,2|2|2|2|2,0:0|0:2|0:2|0:2|0:2,0:0:0:0:
276,292,112475,6,0,P|296:312|307:337,1,46.6666666666667,2|2,0:2|0:2,0:0:0:0:
404,352,112975,2,0,P|400:298|425:251,1,93.3333333333333,2|0,0:2|0:0,0:0:0:0:
495,127,113850,1,2,0:2:0:0:
495,127,113975,2,0,P|440:99|390:107,1,93.3333333333333,2|0,0:0|0:0,0:0:0:0:
313,107,114725,2,0,P|305:138|310:167,1,46.6666666666667,2|2,0:0|0:0,0:0:0:0:
144,225,115350,5,2,0:0:0:0:
144,225,115475,2,0,P|138:178|112:123,1,93.3333333333333,2|2,0:0|0:2,0:0:0:0:
30,102,116225,1,2,0:0:0:0:
16,74,116350,1,2,0:2:0:0:
35,48,116475,1,2,0:2:0:0:
170,32,116850,5,2,0:0:0:0:
170,32,116975,2,0,P|201:39|222:53,2,46.6666666666667,2|2|2,0:0|0:0|0:0,0:0:0:0:
439,122,118475,6,0,P|407:150|399:205,1,70,4|0,1:0|0:0,0:0:0:0:
466,244,118975,2,0,P|464:259|460:290,4,28,4|2|2|2|2,0:0|0:2|0:2|0:2|0:2,0:0:0:0:
438,293,119475,2,0,P|429:307|424:335,4,28,6|2|2|2|2,0:0|0:2|0:2|0:2|0:2,0:0:0:0:
389,325,119975,1,4,0:0:0:0:
355,327,120075,1,2,0:2:0:0:
325,318,120175,1,2,0:2:0:0:
302,295,120275,1,2,0:2:0:0:
270,282,120375,1,2,0:2:0:0:
242,300,120475,2,0,P|230:250|208:179,1,105,4|0,0:0|0:0,0:0:0:0:
195,182,120975,2,0,P|166:183|122:207,1,70,4|0,0:0|0:0,0:0:0:0:
74,75,121475,6,0,P|63:81|49:93,4,28,4|2|2|2|2,1:0|0:2|0:2|0:2|0:2,0:0:0:0:
103,50,121975,2,0,P|102:33|94:12,4,28,4|2|2|2|2,0:0|0:2|0:2|0:2|0:2,0:0:0:0:
135,53,122475,1,4,0:0:0:0:
162,52,122575,1,2,0:2:0:0:
187,66,122675,1,2,0:2:0:0:
207,85,122775,1,2,0:2:0:0:
230,95,122875,1,2,0:2:0:0:
255,93,122975,2,0,P|258:72|270:49,4,28,4|2|2|2|2,0:0|0:2|0:2|0:2|0:2,0:0:0:0:
285,122,123475,2,0,P|324:142|393:136,1,105,4|0,0:0|0:0,0:0:0:0:
409,112,123975,2,0,P|417:69|444:25,1,70,4|0,0:0|0:0,0:0:0:0:
509,8,124475,1,4,1:0:0:0:
480,187,124975,6,0,P|470:211|464:258,2,46.6666666666667,4|2|2,0:0|0:0|0:0,0:0:0:0:
409,279,125475,2,0,P|416:311|425:328,3,35,4|2|2|2,0:0|0:0|0:0|0:0,0:0:0:0:
337,255,125975,2,0,P|323:248|296:244,4,28,4|2|2|2|2,0:0|0:0|0:0|0:0|0:0,0:0:0:0:
394,204,126475,2,0,P|392:185|381:169,5,23.3333333333333,4|2|2|2|2|2,0:0|0:2|0:2|0:2|0:2|0:2,0:0:0:0:
366,165,126975,2,0,P|375:113|392:87,1,70,4|2,0:0|0:2,0:0:0:0:
309,41,127475,5,4,1:0:0:0:
302,36,127558,1,2,0:2:0:0:
291,33,127641,1,2,0:2:0:0:
281,30,127725,2,0,P|262:32|248:40,8,23.3333333333333,2|2|2|2|2|2|2|2|2,0:2|0:2|0:2|0:2|0:2|0:2|0:2|0:2|0:2,0:0:0:0:
250,44,128475,2,0,P|207:58|175:63,1,70,4|2,0:0|0:0,0:0:0:0:
93,35,128975,5,4,1:0:0:0:
32,109,129225,1,0,0:0:0:0:
41,147,129350,1,4,0:2:0:0:
128,189,129600,1,0,0:0:0:0:
137,224,129725,1,4,1:0:0:0:
224,262,129975,1,0,0:0:0:0:
230,297,130100,1,4,0:2:0:0:
326,314,130350,1,0,0:0:0:0:
330,346,130475,6,0,P|348:286|383:202,1,140,4|4,1:0|0:0,0:0:0:0:
411,196,131100,1,2,0:0:0:0:
435,158,131225,1,2,0:0:0:0:
432,121,131350,1,2,0:0:0:0:
408,88,131475,2,0,P|408:55|422:10,1,70,4|2,0:0|0:0,0:0:0:0:
299,78,131975,2,0,P|327:123|337:146,1,70,4|2,0:0|0:0,0:0:0:0:
245,198,132475,2,0,P|209:225|141:218,1,105,4|2,0:0|0:0,0:0:0:0:
118,194,132975,2,0,P|116:143|105:111,1,70,4|2,0:0|0:0,0:0:0:0:
11,244,133475,6,0,P|62:258|118:338,1,140,4|4,1:0|0:0,0:0:0:0:
143,348,134100,1,2,0:0:0:0:
182,362,134225,1,2,0:0:0:0:
225,361,134350,1,2,0:0:0:0:
256,335,134475,2,0,P|266:288|276:253,1,70,4|2,0:0|0:0,0:0:0:0:
366,145,134975,2,0,P|349:194|363:262,1,105,4|2,0:0|0:0,0:0:0:0:
394,259,135475,2,0,P|432:269|471:287,1,70,2|2,0:0|0:0,0:0:0:0:
487,305,135850,1,2,0:0:0:0:
504,336,135975,1,4,0:0:0:0:
482,203,136225,5,2,0:0:0:0:
464,167,136350,1,2,0:0:0:0:
481,128,136475,2,0,P|487:76|406:14,1,140,4|4,1:0|0:0,0:0:0:0:
397,17,137100,1,2,0:0:0:0:
361,34,137225,1,2,0:0:0:0:
332,63,137350,1,2,0:0:0:0:
297,76,137475,2,0,P|261:80|221:47,1,70,4|2,0:0|0:0,0:0:0:0:
138,30,137975,2,0,P|159:96|166:155,1,105,4|2,0:0|0:0,0:0:0:0:
146,153,138475,2,0,P|102:175|69:173,1,70,4|2,0:0|0:0,0:0:0:0:
19,242,138975,2,0,P|50:287|65:316,1,70,4|2,0:0|0:0,0:0:0:0:
149,256,139475,5,4,1:0:0:0:
232,297,139725,1,0,0:0:0:0:
246,330,139850,1,4,0:2:0:0:
334,296,140100,1,0,0:0:0:0:
347,333,140225,1,4,1:0:0:0:
425,276,140475,1,0,0:0:0:0:
440,237,140600,1,4,0:2:0:0:
356,191,140850,1,0,0:0:0:0:
368,155,140975,1,4,1:0:0:0:
286,104,141225,1,0,0:0:0:0:
298,65,141350,1,4,0:2:0:0:
206,14,141600,1,0,0:0:0:0:
214,55,141725,1,4,1:0:0:0:
143,112,141975,1,0,0:0:0:0:
133,79,142100,1,4,0:2:0:0:
52,149,142350,1,2,0:2:0:0:
32,148,142975,5,2,0:2:0:0:
256,192,143100,12,0,148475,0:0:0:0:
